(Soundtrack) Всё о Микки Маусе / Mickey Mouse Works - 2000 (1999), FLAC (tracks+.cue), lossless


Статистика раздачи [Обновить пиров]
Размер:  1.34 GB   |    Зарегистрирован:  1 год 2 месяца   |    Скачан:  0 раз

Полного источника не было: Никогда

 
   
 
 
 

[Цитировать]

VA - Mickey Mouse Works / Всё о Микки Маусе - Soundtrack
Год выпуска диска: 2000
Год выпуска мультсериала: 1999
Страна-производитель диска: Австралия
Издатель (лейбл): The Festival / Mushroom по лицензии Walt Disney Records
Номер по каталогу: D26476
Аудиокодек: FLAC (*.flac)
Тип рипа: tracks+.cue
Битрейт аудио: lossless
Продолжительность: 02:12:45
Источник: диск из личной коллекции
Наличие сканов в содержимом раздачи: да [1200 DPI]

Tracklist

CD 1
01. Mickey Mouseworks Main Title: Stephen James Taylor
1999 Wonderland Music Company (BMI) All rights reserved. International (c) secured
02. Ice Ice Mickey: Becker
1994 Walt Disney Music Company (ASCAP)
03. M.C. Mickey: Harby/Zimmerman
1994 Walt Disney Music Company (ASCAP)/Wonderland Music Company, Inc. (BMI)
04. Centerfield: Fogerty
1984 Wenaha Music Company (ASCAP)
05. Minnie's Workout: Silversher/Silversher/Scheibner
1986 Walt Disney Music Company (ASCAP)/Wonderland Music Company, Inc. (BMI)
06. Whatta Mouse: Azor/James/Crawford/Frederick
1993 Sons of K'Oss Music Inc., (ASCAP)/Bed of Nails Music, Inc (ASCAP)/Next Plateau Music Inc., Irving Music., Inc on behalf of itself and Sandra Music Co (BMI)
07. Boom, Boom, Ain't It Great To Be Crazy?: Traditional
08. The Chew-Chew Train: Harby/Zimmerman
1994 Walt Disney Music Company (ASCAP)/Wonderland Music Company, Inc. (BMI)
09. Say "Cheese!": Frederick
1994 Walt Disney Music Company (ASCAP)
10. Shortin' Bread: Traditional
11. Up, Up And Away: Webb
1967 Charles Koppelman Martin Bandier Music/Jonathan Three Music (BMI)
12. The Trolley Song: Martin/Blane
1943, 44, 71, 72 renewed. Metro-Goldwyn Mayer, Inc. Rights assigned to EMI catalogue. Partnership.
All rights controlled and administered by EMI Feist Catalog, Inc. All rights reserved.
International copyright secured. Used by permission. Lyrics reprinted by permission

13. Here's To The Ears Of Love: Silversher/Silversher
1987 Wonderland Music Company., Inc.
14. A Waddlin' Crazy Guy: Baron
1980 Wonderland Music Company., Inc.
15. Donald Duck, The Wrangler: Magon
1980 Walt Disney Music Company, (ASCAP)
16. Ducks Dance, Too: Patrick/Brookshire
1994 Walt Disney Music Company (ASCAP)/Wonderland Music Company, Inc (BMI)
17. Macho Duck: Worrall
1979 Walt Disney Music Company (ASCAP)
18. Digital Duck: Silversher/Silversher
1983 Wonderland Music Company., Inc (BMI)
19. Dueling Quackers: Traditional
20. Goin' Quackers: Ryan
1980 Wonderland Music Company., Inc.
21. Love Struck Duck: Patrick
1987 Wonderland Music Company., Inc (BMI)
22. Quackety-Quack: "Yakety-Yak" Leiber/Stoller
1958 (renewed) Jerry Leiber Music, Mike Stoller Music, and Chappell & Co
23. Go Go Go: Troyer
1987 Wonderland Music Company., Inc (BMI)
24. Ducks In The Hood: Becker
1994 Walt Disney Music Company (ASCAP)
25. Take Me Out To The Ball Game: Norworth/Von Tilzer
1996 Walt Disney Music Company (ASCAP)
26. The Ants Are Marching: Fredericks
1994 Walt Disney Music Company (ASCAP)
27. Everything Is Ducky With Donald: Baer/Shaw
1987 Walt Disney Music Company (ASCAP)/Wonderland Music Company., Inc (BMI)
CD 2
01. I'm An Old Cowhand: Mercer
1936 Leo Feist Inc. renewed/1964 Twentieth Century Music Corp
02. Watch Out For Goofy: Charouhas/Furman
1979 Wonderland Music Company., Inc
03. Turkey In The Straw: Traditional
04. If I Only Had A Brain: Harburg/Arlen
1938 (renewed 1966) Metro-Goldwyn-Meyer, Inc./1939 (renewed 1967) LeoFeist, Inc (ASCAP)
05. Baby Bumblebee: Traditional
06. The Little Old Lady From Pasadena: Altfeld/Christian
1964, 1992 renewed. Screen Gems -EMI Music, Inc.
07. Nobody Else But You: Snow/Feldman
1995 Walt Disney Music Company (ASCAP)/Wonderland Music Company, Inc. (BMI)
08. On The Open Road: Snow/Feldman
1995 Walt Disney Music Company (ASCAP)/Wonderland Music Company, Inc. (BMI)
09. D.J. Goof: Becker
1994 Walt Disney Music Company (ASCAP)
10. Goofy's Skating (Round The World): Leroux/Becker
1996 Walt Disney Music Company (ASCAP)
11. Surfin' Safari/Hawaii 5-0 Theme: Wilson/Stevens/Love
1962 Guild Music Co., (BMI)/1969 Aspenfair Music., Inc. (ASCAP)
12. Ta Ra Ra Boom De Ay!: Traditional
13. You Can Always Be Number One: Gonyea
1981 Wonderland Music Company., Inc (BMI)
14. Mickey Mouse Club Mix: Becker
1994 Walt Disney Music Company (ASCAP)
15. Whoomp! There It Went: Gibson/Glenn/Bonsanto/Pulga/Ninzante/Lester
1993 Alvert Music (BMI)o/b/o itself and
Two Real Geez Music (BMI) and Emergency Music (ASCAP)

16. U Can't Botch This: James/Miller/Hammer/Frederick/Becker
1990 Jobete Music Co., Inc/Bust It Publishing
17. Step In Time: Sherman/Sherman
1963 Wonderland Music Company., Inc (BMI)
18. Over The River And Through The Woods/Rig-A-Jig-Jig/The Bear Went Over The Mountain: Traditional
19. Break It: Silversher/Silversher
1986 Walt Disney Music Company (ASCAP)/Wonderland Music Company, Inc. (BMI)
20. A Cowboy Needs A Horse: Howard/Mills
1952 Walt Disney Music Company (ASCAP) renewed 1980 Wiliam R. Mills Trust,
Mary Louise Howard (US/Canada)/Walt Disney Music Company (World)

21. Ride'em Cowboy: Groce
1980 Walt Disney Music Company (ASCAP)
22. Cowboy Mickey: Ryan/Baron
1980 Wonderland Music Company., Inc (BMI)
23. Hey, Mickey!: Dodd/Chapman/Chinn
1981 BGM Songs, Inc (ASCAP)/Mickey Mouse Club March: 1955 Walt Disney Music Company (ASCAP)
24. Be Kind To Your Web-Footed Friends: Traditional
25. Splashdance: Silversher/Silversher
1984 Wonderland Music Company., Inc (BMI)
26. Rag Mop: Anderson/Willis
1949, 1950 renewed. Unichapel Music., Inc. (BMI)
27. We Will Rock You/We Are The Champions: May/Mercury
1977, 1978 Queen Music Ltd. All rights assigned to EMI Music Publishing Ltd.
28. Mickey Mousework End Title: Stephen James Taylor
1999 Wonderland Music Co. (BMI) All rights reserved. International (c) secured

Логи создания рипа и cueЛог создания рипа - CD 1

Exact Audio Copy V1.0 beta 3 from 29. August 2011
EAC extraction logfile from 2. November 2014, 18:19
VA / Mickey Mouse Works - Soundtrack
Used drive : PIONEER DVD-RW DVRTD11RS Adapter: 0 ID: 0
Read mode : SecureUtilize accurate stream : YesDefeat audio cache : YesMake use of C2 pointers : No
Read offset correction : 6Overread into Lead-In and Lead-Out : NoFill up missing offset samples with silence : YesDelete leading and trailing silent blocks : NoNull samples used in CRC calculations : YesUsed interface : Native Win32 interface for Win NT & 2000Gap handling : Appended to previous track
Used output format : User Defined EncoderSelected bitrate : 128 kBit/sQuality : HighAdd ID3 tag : YesCommand line compressor : C:\Program Files\flac-1.3.0-x64-icl\flac.exeAdditional command line options : -V -8 -T "Genre=%genre%" -T "Artist=%artist%" -T "Title=%title%" -T "Album=%albumtitle%" -T "Date=%year%" -T "Tracknumber=%tracknr%" -T "Comment=%comment%" %source%
TOC of the extracted CD
Track | Start | Length | Start sector | End sector --------------------------------------------------------- 1 | 0:00.00 | 1:04.47 | 0 | 4846 2 | 1:04.47 | 2:32.65 | 4847 | 16311 3 | 3:37.37 | 2:58.28 | 16312 | 29689 4 | 6:35.65 | 3:24.25 | 29690 | 45014 5 | 10:00.15 | 2:54.10 | 45015 | 58074 6 | 12:54.25 | 3:41.02 | 58075 | 74651 7 | 16:35.27 | 1:22.43 | 74652 | 80844 8 | 17:57.70 | 2:20.52 | 80845 | 91396 9 | 20:18.47 | 1:45.38 | 91397 | 99309 10 | 22:04.10 | 2:18.42 | 99310 | 109701 11 | 24:22.52 | 3:07.65 | 109702 | 123791 12 | 27:30.42 | 1:27.60 | 123792 | 130376 13 | 28:58.27 | 2:13.43 | 130377 | 140394 14 | 31:11.70 | 1:30.00 | 140395 | 147144 15 | 32:41.70 | 2:01.60 | 147145 | 156279 16 | 34:43.55 | 3:15.17 | 156280 | 170921 17 | 37:58.72 | 4:37.68 | 170922 | 191764 18 | 42:36.65 | 2:12.67 | 191765 | 201731 19 | 44:49.57 | 1:56.50 | 201732 | 210481 20 | 46:46.32 | 3:06.23 | 210482 | 224454 21 | 49:52.55 | 3:13.70 | 224455 | 238999 22 | 53:06.50 | 1:58.25 | 239000 | 247874 23 | 55:05.00 | 1:56.67 | 247875 | 256641 24 | 57:01.67 | 2:41.18 | 256642 | 268734 25 | 59:43.10 | 2:04.30 | 268735 | 278064 26 | 61:47.40 | 2:05.25 | 278065 | 287464 27 | 63:52.65 | 3:14.00 | 287465 | 302014
Track 1
Filename D:\Music\Soundtracks\VA - Mickey Mouse Works - Soundtrack (2000)\CD 1\01. Stephen James Taylor - Mickey Mouseworks Main Title.wav
Pre-gap length 0:00:02.00
Peak level 82.8 % Extraction speed 2.1 X Track quality 100.0 % Test CRC 674991BD Copy CRC 674991BD Track not present in AccurateRip database Copy OK
Track 2
Filename D:\Music\Soundtracks\VA - Mickey Mouse Works - Soundtrack (2000)\CD 1\02. Becker - Ice Ice Mickey.wav
Peak level 98.8 % Extraction speed 2.9 X Track quality 100.0 % Test CRC 5E9BB54E Copy CRC 5E9BB54E Track not present in AccurateRip database Copy OK
Track 3
Filename D:\Music\Soundtracks\VA - Mickey Mouse Works - Soundtrack (2000)\CD 1\03. Harby,Zimmerman - M.C. Mickey.wav
Peak level 98.8 % Extraction speed 3.2 X Track quality 100.0 % Test CRC BBCF2CAA Copy CRC BBCF2CAA Track not present in AccurateRip database Copy OK
Track 4
Filename D:\Music\Soundtracks\VA - Mickey Mouse Works - Soundtrack (2000)\CD 1\04. Fogerty - Centerfield.wav
Peak level 95.4 % Extraction speed 3.5 X Track quality 100.0 % Test CRC F84994FB Copy CRC F84994FB Track not present in AccurateRip database Copy OK
Track 5
Filename D:\Music\Soundtracks\VA - Mickey Mouse Works - Soundtrack (2000)\CD 1\05. Silversher,Silversher,Scheibner - Minnie's Workout.wav
Peak level 86.3 % Extraction speed 3.5 X Track quality 100.0 % Test CRC 3E1E92FE Copy CRC 3E1E92FE Track not present in AccurateRip database Copy OK
Track 6
Filename D:\Music\Soundtracks\VA - Mickey Mouse Works - Soundtrack (2000)\CD 1\06. Azor,James,Crawford,Frederick - Whatta Mouse.wav
Peak level 98.8 % Extraction speed 3.9 X Track quality 100.0 % Test CRC 2FF8FA0D Copy CRC 2FF8FA0D Track not present in AccurateRip database Copy OK
Track 7
Filename D:\Music\Soundtracks\VA - Mickey Mouse Works - Soundtrack (2000)\CD 1\07. Traditional - Boom, Boom, Ain't It Great To Be Crazy.wav
Peak level 98.8 % Extraction speed 3.2 X Track quality 100.0 % Test CRC 15BCF486 Copy CRC 15BCF486 Track not present in AccurateRip database Copy OK
Track 8
Filename D:\Music\Soundtracks\VA - Mickey Mouse Works - Soundtrack (2000)\CD 1\08. Harby,Zimmerman - The Chew-Chew Train.wav
Peak level 98.8 % Extraction speed 3.8 X Track quality 100.0 % Test CRC 8FBF7492 Copy CRC 8FBF7492 Track not present in AccurateRip database Copy OK
Track 9
Filename D:\Music\Soundtracks\VA - Mickey Mouse Works - Soundtrack (2000)\CD 1\09. Frederick - Say ''Cheese!''.wav
Peak level 98.8 % Extraction speed 3.7 X Track quality 100.0 % Test CRC E2420DE5 Copy CRC E2420DE5 Track not present in AccurateRip database Copy OK
Track 10
Filename D:\Music\Soundtracks\VA - Mickey Mouse Works - Soundtrack (2000)\CD 1\10. Traditional - Shortin' Bread.wav
Peak level 98.8 % Extraction speed 4.1 X Track quality 100.0 % Test CRC 5A9F6D1B Copy CRC 5A9F6D1B Track not present in AccurateRip database Copy OK
Track 11
Filename D:\Music\Soundtracks\VA - Mickey Mouse Works - Soundtrack (2000)\CD 1\11. Webb - Up, Up And Away.wav
Peak level 98.8 % Extraction speed 3.5 X Track quality 99.9 % Test CRC 517757D5 Copy CRC 517757D5 Track not present in AccurateRip database Copy OK
Track 12
Filename D:\Music\Soundtracks\VA - Mickey Mouse Works - Soundtrack (2000)\CD 1\12. Martin,Blane - The Trolley Song.wav
Peak level 98.8 % Extraction speed 3.7 X Track quality 100.0 % Test CRC 376B50CB Copy CRC 376B50CB Track not present in AccurateRip database Copy OK
Track 13
Filename D:\Music\Soundtracks\VA - Mickey Mouse Works - Soundtrack (2000)\CD 1\13. Silversher,Silversher - Here's To The Ears Of Love.wav
Peak level 96.2 % Extraction speed 4.2 X Track quality 100.0 % Test CRC 269BBE52 Copy CRC 269BBE52 Track not present in AccurateRip database Copy OK
Track 14
Filename D:\Music\Soundtracks\VA - Mickey Mouse Works - Soundtrack (2000)\CD 1\14. Baron - A Waddlin' Crazy Guy.wav
Peak level 98.8 % Extraction speed 3.7 X Track quality 100.0 % Test CRC 1451C3AF Copy CRC 1451C3AF Track not present in AccurateRip database Copy OK
Track 15
Filename D:\Music\Soundtracks\VA - Mickey Mouse Works - Soundtrack (2000)\CD 1\15. Magon - Donald Duck, The Wrangler.wav
Peak level 98.8 % Extraction speed 3.2 X Track quality 99.9 % Test CRC 7726C181 Copy CRC 7726C181 Track not present in AccurateRip database Copy OK
Track 16
Filename D:\Music\Soundtracks\VA - Mickey Mouse Works - Soundtrack (2000)\CD 1\16. Patrick,Brookshire - Ducks Dance, Too.wav
Peak level 98.8 % Extraction speed 3.9 X Track quality 99.9 % Test CRC 555683A1 Copy CRC 555683A1 Track not present in AccurateRip database Copy OK
Track 17
Filename D:\Music\Soundtracks\VA - Mickey Mouse Works - Soundtrack (2000)\CD 1\17. Worrall - Macho Duck.wav
Peak level 95.7 % Extraction speed 4.5 X Track quality 99.9 % Test CRC 30A9D199 Copy CRC 30A9D199 Track not present in AccurateRip database Copy OK
Track 18
Filename D:\Music\Soundtracks\VA - Mickey Mouse Works - Soundtrack (2000)\CD 1\18. Silversher,Silversher - Digital Duck.wav
Peak level 98.8 % Extraction speed 4.7 X Track quality 100.0 % Test CRC 3AA59FD6 Copy CRC 3AA59FD6 Track not present in AccurateRip database Copy OK
Track 19
Filename D:\Music\Soundtracks\VA - Mickey Mouse Works - Soundtrack (2000)\CD 1\19. Traditional - Dueling Quackers.wav
Peak level 98.8 % Extraction speed 4.6 X Track quality 100.0 % Test CRC BBFE19A8 Copy CRC BBFE19A8 Track not present in AccurateRip database Copy OK
Track 20
Filename D:\Music\Soundtracks\VA - Mickey Mouse Works - Soundtrack (2000)\CD 1\20. Ryan - Goin' Quackers.wav
Peak level 98.8 % Extraction speed 5.2 X Track quality 100.0 % Test CRC 75D1C158 Copy CRC 75D1C158 Track not present in AccurateRip database Copy OK
Track 21
Filename D:\Music\Soundtracks\VA - Mickey Mouse Works - Soundtrack (2000)\CD 1\21. Patrick - Love Struck Duck.wav
Peak level 95.5 % Extraction speed 5.3 X Track quality 100.0 % Test CRC 6B256F1B Copy CRC 6B256F1B Track not present in AccurateRip database Copy OK
Track 22
Filename D:\Music\Soundtracks\VA - Mickey Mouse Works - Soundtrack (2000)\CD 1\22. ''Yakety-Yak'' Leiber,Stoller - Quackety-Quack.wav
Peak level 98.2 % Extraction speed 5.0 X Track quality 100.0 % Test CRC 018926BE Copy CRC 018926BE Track not present in AccurateRip database Copy OK
Track 23
Filename D:\Music\Soundtracks\VA - Mickey Mouse Works - Soundtrack (2000)\CD 1\23. Troyer - Go Go Go.wav
Peak level 96.3 % Extraction speed 4.9 X Track quality 100.0 % Test CRC 498D6A02 Copy CRC 498D6A02 Track not present in AccurateRip database Copy OK
Track 24
Filename D:\Music\Soundtracks\VA - Mickey Mouse Works - Soundtrack (2000)\CD 1\24. Becker - Ducks In The Hood.wav
Peak level 98.8 % Extraction speed 5.3 X Track quality 100.0 % Test CRC CDB9D418 Copy CRC CDB9D418 Track not present in AccurateRip database Copy OK
Track 25
Filename D:\Music\Soundtracks\VA - Mickey Mouse Works - Soundtrack (2000)\CD 1\25. Norworth,Von Tilzer - Take Me Out To The Ball Game.wav
Peak level 95.4 % Extraction speed 5.1 X Track quality 100.0 % Test CRC 27900FF1 Copy CRC 27900FF1 Track not present in AccurateRip database Copy OK
Track 26
Filename D:\Music\Soundtracks\VA - Mickey Mouse Works - Soundtrack (2000)\CD 1\26. Fredericks - The Ants Are Marching.wav
Peak level 98.8 % Extraction speed 5.3 X Track quality 100.0 % Test CRC 9FCE5C8A Copy CRC 9FCE5C8A Track not present in AccurateRip database Copy OK
Track 27
Filename D:\Music\Soundtracks\VA - Mickey Mouse Works - Soundtrack (2000)\CD 1\27. Baer,Shaw - Everything Is Ducky With Donald.wav
Peak level 98.8 % Extraction speed 5.8 X Track quality 100.0 % Test CRC 8B0879D6 Copy CRC 8B0879D6 Track not present in AccurateRip database Copy OK
None of the tracks are present in the AccurateRip database
No errors occurred
End of status report
==== Log checksum 70258DDFF80FEF9212103B017DA53FD8C0768E1B32804F54ECCAAB9F981FB87B ====

Содержание индексной карты (.CUE) - CD 1

REM GENRE SoundtrackREM DATE 2000REM DISCID A60FBA1BREM COMMENT "ExactAudioCopy v1.0b3"PERFORMER "VA"TITLE "Mickey Mouse Works - Soundtrack"FILE "01 Mickey Mouseworks Main Title.wav" WAVE TRACK 01 AUDIO TITLE "Mickey Mouseworks Main Title" PERFORMER "Stephen James Taylor" INDEX 01 00:00:00FILE "02 Ice Ice Mickey.wav" WAVE TRACK 02 AUDIO TITLE "Ice Ice Mickey" PERFORMER "Becker" INDEX 01 00:00:00FILE "03 M.C. Mickey.wav" WAVE TRACK 03 AUDIO TITLE "M.C. Mickey" PERFORMER "Harby/Zimmerman" INDEX 01 00:00:00FILE "04 Centerfield.wav" WAVE TRACK 04 AUDIO TITLE "Centerfield" PERFORMER "Fogerty" INDEX 01 00:00:00FILE "05 Minnie's Workout.wav" WAVE TRACK 05 AUDIO TITLE "Minnie's Workout" PERFORMER "Silversher/Silversher/Scheibner" INDEX 01 00:00:00FILE "06 Whatta Mouse.wav" WAVE TRACK 06 AUDIO TITLE "Whatta Mouse" PERFORMER "Azor/James/Crawford/Frederick" INDEX 01 00:00:00FILE "07 Boom, Boom, Ain't It Great To Be Crazy.wav" WAVE TRACK 07 AUDIO TITLE "Boom, Boom, Ain't It Great To Be Crazy?" PERFORMER "Traditional" INDEX 01 00:00:00FILE "08 The Chew-Chew Train.wav" WAVE TRACK 08 AUDIO TITLE "The Chew-Chew Train" PERFORMER "Harby/Zimmerman" INDEX 01 00:00:00FILE "09 Say 'Cheese!'.wav" WAVE TRACK 09 AUDIO TITLE "Say 'Cheese!'" PERFORMER "Frederick" INDEX 01 00:00:00FILE "10 Shortin' Bread.wav" WAVE TRACK 10 AUDIO TITLE "Shortin' Bread" PERFORMER "Traditional" INDEX 01 00:00:00FILE "11 Up, Up And Away.wav" WAVE TRACK 11 AUDIO TITLE "Up, Up And Away" PERFORMER "Webb" INDEX 01 00:00:00FILE "12 The Trolley Song.wav" WAVE TRACK 12 AUDIO TITLE "The Trolley Song" PERFORMER "Martin/Blane" INDEX 01 00:00:00FILE "13 Here's To The Ears Of Love.wav" WAVE TRACK 13 AUDIO TITLE "Here's To The Ears Of Love" PERFORMER "Silversher/Silversher" INDEX 01 00:00:00FILE "14 A Waddlin' Crazy Guy.wav" WAVE TRACK 14 AUDIO TITLE "A Waddlin' Crazy Guy" PERFORMER "Baron" INDEX 01 00:00:00FILE "15 Donald Duck, The Wrangler.wav" WAVE TRACK 15 AUDIO TITLE "Donald Duck, The Wrangler" PERFORMER "Magon" INDEX 01 00:00:00FILE "16 Ducks Dance, Too.wav" WAVE TRACK 16 AUDIO TITLE "Ducks Dance, Too" PERFORMER "Patrick/Brookshire" INDEX 01 00:00:00FILE "17 Macho Duck.wav" WAVE TRACK 17 AUDIO TITLE "Macho Duck" PERFORMER "Worrall" INDEX 01 00:00:00FILE "18 Digital Duck.wav" WAVE TRACK 18 AUDIO TITLE "Digital Duck" PERFORMER "Silversher/Silversher" INDEX 01 00:00:00FILE "19 Dueling Quackers.wav" WAVE TRACK 19 AUDIO TITLE "Dueling Quackers" PERFORMER "Traditional" INDEX 01 00:00:00FILE "20 Goin' Quackers.wav" WAVE TRACK 20 AUDIO TITLE "Goin' Quackers" PERFORMER "Ryan" INDEX 01 00:00:00FILE "21 Love Struck Duck.wav" WAVE TRACK 21 AUDIO TITLE "Love Struck Duck" PERFORMER "Patrick" INDEX 01 00:00:00FILE "22 Quackety-Quack.wav" WAVE TRACK 22 AUDIO TITLE "Quackety-Quack" PERFORMER "'Yakety-Yak' Leiber/Stoller" INDEX 01 00:00:00FILE "23 Go Go Go.wav" WAVE TRACK 23 AUDIO TITLE "Go Go Go" PERFORMER "Troyer" INDEX 01 00:00:00FILE "24 Ducks In The Hood.wav" WAVE TRACK 24 AUDIO TITLE "Ducks In The Hood" PERFORMER "Becker" INDEX 01 00:00:00FILE "25 Take Me Out To The Ball Game.wav" WAVE TRACK 25 AUDIO TITLE "Take Me Out To The Ball Game" PERFORMER "Norworth/Von Tilzer" INDEX 01 00:00:00FILE "26 The Ants Are Marching.wav" WAVE TRACK 26 AUDIO TITLE "The Ants Are Marching" PERFORMER "Fredericks" INDEX 01 00:00:00FILE "27 Everything Is Ducky With Donald.wav" WAVE TRACK 27 AUDIO TITLE "Everything Is Ducky With Donald" PERFORMER "Baer/Shaw" INDEX 01 00:00:00

Лог создания рипа - CD 2

Exact Audio Copy V1.0 beta 3 from 29. August 2011
EAC extraction logfile from 2. November 2014, 19:23
- / Mickey Mouse Works - Soundtrack
Used drive : PIONEER DVD-RW DVRTD11RS Adapter: 0 ID: 0
Read mode : SecureUtilize accurate stream : YesDefeat audio cache : YesMake use of C2 pointers : No
Read offset correction : 6Overread into Lead-In and Lead-Out : NoFill up missing offset samples with silence : YesDelete leading and trailing silent blocks : NoNull samples used in CRC calculations : YesUsed interface : Native Win32 interface for Win NT & 2000Gap handling : Appended to previous track
Used output format : User Defined EncoderSelected bitrate : 128 kBit/sQuality : HighAdd ID3 tag : YesCommand line compressor : C:\Program Files\flac-1.3.0-x64-icl\flac.exeAdditional command line options : -V -8 -T "Genre=%genre%" -T "Artist=%artist%" -T "Title=%title%" -T "Album=%albumtitle%" -T "Date=%year%" -T "Tracknumber=%tracknr%" -T "Comment=%comment%" %source%
TOC of the extracted CD
Track | Start | Length | Start sector | End sector --------------------------------------------------------- 1 | 0:00.00 | 1:45.02 | 0 | 7876 2 | 1:45.02 | 3:27.03 | 7877 | 23404 3 | 5:12.05 | 3:02.25 | 23405 | 37079 4 | 8:14.30 | 1:15.72 | 37080 | 42776 5 | 9:30.27 | 0:20.43 | 42777 | 44319 6 | 9:50.70 | 2:30.22 | 44320 | 55591 7 | 12:21.17 | 2:36.48 | 55592 | 67339 8 | 14:57.65 | 3:02.50 | 67340 | 81039 9 | 18:00.40 | 2:40.02 | 81040 | 93041 10 | 20:40.42 | 2:32.15 | 93042 | 104456 11 | 23:12.57 | 1:53.15 | 104457 | 112946 12 | 25:05.72 | 1:47.65 | 112947 | 121036 13 | 26:53.62 | 4:02.33 | 121037 | 139219 14 | 30:56.20 | 3:00.30 | 139220 | 152749 15 | 33:56.50 | 3:36.47 | 152750 | 168996 16 | 37:33.22 | 2:12.65 | 168997 | 178961 17 | 39:46.12 | 1:58.70 | 178962 | 187881 18 | 41:45.07 | 1:32.45 | 187882 | 194826 19 | 43:17.52 | 3:13.35 | 194827 | 209336 20 | 46:31.12 | 2:01.13 | 209337 | 218424 21 | 48:32.25 | 2:13.22 | 218425 | 228421 22 | 50:45.47 | 2:34.45 | 228422 | 240016 23 | 53:20.17 | 3:20.35 | 240017 | 255051 24 | 56:40.52 | 1:08.58 | 255052 | 260209 25 | 57:49.35 | 2:21.45 | 260210 | 270829 26 | 60:11.05 | 2:42.27 | 270830 | 283006 27 | 62:53.32 | 2:11.20 | 283007 | 292851 28 | 65:04.52 | 0:33.05 | 292852 | 295331
Track 1
Filename D:\Music\Soundtracks\VA - Mickey Mouse Works - Soundtrack (2000)\CD 2\01. Mercer - I'm An Old Cowhand.wav
Pre-gap length 0:00:02.00
Peak level 98.8 % Extraction speed 2.5 X Track quality 100.0 % Test CRC 015008AC Copy CRC 015008AC Track not present in AccurateRip database Copy OK
Track 2
Filename D:\Music\Soundtracks\VA - Mickey Mouse Works - Soundtrack (2000)\CD 2\02. Charouhas,Furman - Watch Out For Goofy.wav
Peak level 98.8 % Extraction speed 3.1 X Track quality 100.0 % Test CRC 13C4F061 Copy CRC 13C4F061 Track not present in AccurateRip database Copy OK
Track 3
Filename D:\Music\Soundtracks\VA - Mickey Mouse Works - Soundtrack (2000)\CD 2\03. Traditional - Turkey In The Straw.wav
Peak level 98.8 % Extraction speed 3.3 X Track quality 100.0 % Test CRC 14AD98C1 Copy CRC 14AD98C1 Track not present in AccurateRip database Copy OK
Track 4
Filename D:\Music\Soundtracks\VA - Mickey Mouse Works - Soundtrack (2000)\CD 2\04. Harburg,Arlen - If I Only Had A Brain.wav
Peak level 92.1 % Extraction speed 2.7 X Track quality 100.0 % Test CRC 0CC28322 Copy CRC 0CC28322 Track not present in AccurateRip database Copy OK
Track 5
Filename D:\Music\Soundtracks\VA - Mickey Mouse Works - Soundtrack (2000)\CD 2\05. Traditional - Baby Bumblebee.wav
Peak level 79.4 % Extraction speed 0.7 X Track quality 99.4 % Test CRC 188F85B5 Copy CRC 188F85B5 Track not present in AccurateRip database Copy OK
Track 6
Filename D:\Music\Soundtracks\VA - Mickey Mouse Works - Soundtrack (2000)\CD 2\06. Altfeld,Christian - The Little Old Lady From Pasadena.wav
Peak level 98.8 % Extraction speed 3.4 X Track quality 100.0 % Test CRC 129FF29F Copy CRC 129FF29F Track not present in AccurateRip database Copy OK
Track 7
Filename D:\Music\Soundtracks\VA - Mickey Mouse Works - Soundtrack (2000)\CD 2\07. Snow,Feldman - Nobody Else But You.wav
Peak level 83.1 % Extraction speed 3.5 X Track quality 100.0 % Test CRC 7E3A3A0F Copy CRC 7E3A3A0F Track not present in AccurateRip database Copy OK
Track 8
Filename D:\Music\Soundtracks\VA - Mickey Mouse Works - Soundtrack (2000)\CD 2\08. Snow,Feldman - On The Open Road.wav
Peak level 83.1 % Extraction speed 3.8 X Track quality 100.0 % Test CRC 1B6FEE06 Copy CRC 1B6FEE06 Track not present in AccurateRip database Copy OK
Track 9
Filename D:\Music\Soundtracks\VA - Mickey Mouse Works - Soundtrack (2000)\CD 2\09. Becker - D.J. Goof.wav
Peak level 98.8 % Extraction speed 3.0 X Track quality 99.9 % Test CRC DE22553F Copy CRC DE22553F Track not present in AccurateRip database Copy OK
Track 10
Filename D:\Music\Soundtracks\VA - Mickey Mouse Works - Soundtrack (2000)\CD 2\10. Leroux,Becker - Goofy's Skating (Round The World).wav
Peak level 90.1 % Extraction speed 4.0 X Track quality 100.0 % Test CRC 2E3F4CE3 Copy CRC 2E3F4CE3 Track not present in AccurateRip database Copy OK
Track 11
Filename D:\Music\Soundtracks\VA - Mickey Mouse Works - Soundtrack (2000)\CD 2\11. Wilson,Stevens,Love - Surfin' Safari,Hawaii 5-0 Theme.wav
Peak level 80.3 % Extraction speed 2.8 X Track quality 99.9 % Test CRC 838AEB4D Copy CRC 838AEB4D Track not present in AccurateRip database Copy OK
Track 12
Filename D:\Music\Soundtracks\VA - Mickey Mouse Works - Soundtrack (2000)\CD 2\12. Traditional - Ta Ra Ra Boom De Ay!.wav
Peak level 98.8 % Extraction speed 2.8 X Track quality 99.9 % Test CRC 1FA50D2B Copy CRC 1FA50D2B Track not present in AccurateRip database Copy OK
Track 13
Filename D:\Music\Soundtracks\VA - Mickey Mouse Works - Soundtrack (2000)\CD 2\13. Gonyea - You Can Always Be Number One.wav
Peak level 98.8 % Extraction speed 4.7 X Track quality 100.0 % Test CRC 37941CBB Copy CRC 37941CBB Track not present in AccurateRip database Copy OK
Track 14
Filename D:\Music\Soundtracks\VA - Mickey Mouse Works - Soundtrack (2000)\CD 2\14. Becker - Mickey Mouse Club Mix.wav
Peak level 98.8 % Extraction speed 4.7 X Track quality 100.0 % Test CRC FE74D893 Copy CRC FE74D893 Track not present in AccurateRip database Copy OK
Track 15
Filename D:\Music\Soundtracks\VA - Mickey Mouse Works - Soundtrack (2000)\CD 2\15. Gibson,Glenn,Bonsanto,Pulga,Ninzante,Lester - Whoomp! There It Went.wav
Peak level 98.8 % Extraction speed 5.0 X Track quality 100.0 % Test CRC 8360E78C Copy CRC 8360E78C Track not present in AccurateRip database Copy OK
Track 16
Filename D:\Music\Soundtracks\VA - Mickey Mouse Works - Soundtrack (2000)\CD 2\16. James,Miller,Hammer,Frederick,Becker - U Can't Botch This.wav
Peak level 98.8 % Extraction speed 4.7 X Track quality 100.0 % Test CRC A6B03C6E Copy CRC A6B03C6E Track not present in AccurateRip database Copy OK
Track 17
Filename D:\Music\Soundtracks\VA - Mickey Mouse Works - Soundtrack (2000)\CD 2\17. Sherman,Sherman - Step In Time.wav
Peak level 98.8 % Extraction speed 4.7 X Track quality 100.0 % Test CRC D3D22925 Copy CRC D3D22925 Track not present in AccurateRip database Copy OK
Track 18
Filename D:\Music\Soundtracks\VA - Mickey Mouse Works - Soundtrack (2000)\CD 2\18. Traditional - Over The River And Through The Woods, Rig-A-Jig-Jig,The Bear Went Over The Mountain.wav
Peak level 98.8 % Extraction speed 3.0 X Track quality 99.8 % Test CRC EC1074A6 Copy CRC EC1074A6 Track not present in AccurateRip database Copy OK
Track 19
Filename D:\Music\Soundtracks\VA - Mickey Mouse Works - Soundtrack (2000)\CD 2\19. Silversher,Silversher - Break It.wav
Peak level 96.2 % Extraction speed 5.2 X Track quality 100.0 % Test CRC CAC312D7 Copy CRC CAC312D7 Track not present in AccurateRip database Copy OK
Track 20
Filename D:\Music\Soundtracks\VA - Mickey Mouse Works - Soundtrack (2000)\CD 2\20. Howard,Mills - A Cowboy Needs A Horse.wav
Peak level 98.8 % Extraction speed 3.6 X Track quality 99.9 % Test CRC F5A280BC Copy CRC F5A280BC Track not present in AccurateRip database Copy OK
Track 21
Filename D:\Music\Soundtracks\VA - Mickey Mouse Works - Soundtrack (2000)\CD 2\21. Groce - Ride'em Cowboy.wav
Peak level 98.8 % Extraction speed 5.0 X Track quality 100.0 % Test CRC EECC2060 Copy CRC EECC2060 Track not present in AccurateRip database Copy OK
Track 22
Filename D:\Music\Soundtracks\VA - Mickey Mouse Works - Soundtrack (2000)\CD 2\22. Ryan,Baron - Cowboy Mickey.wav
Peak level 98.8 % Extraction speed 5.3 X Track quality 100.0 % Test CRC A37DC1DC Copy CRC A37DC1DC Track not present in AccurateRip database Copy OK
Track 23
Filename D:\Music\Soundtracks\VA - Mickey Mouse Works - Soundtrack (2000)\CD 2\23. Dodd,Chapman,Chinn - Hey, Mickey!.wav
Peak level 90.1 % Extraction speed 5.7 X Track quality 100.0 % Test CRC 378277A7 Copy CRC 378277A7 Track not present in AccurateRip database Copy OK
Track 24
Filename D:\Music\Soundtracks\VA - Mickey Mouse Works - Soundtrack (2000)\CD 2\24. Traditional - Be Kind To Your Web-Footed Friends.wav
Peak level 98.8 % Extraction speed 4.5 X Track quality 100.0 % Test CRC D4FED07F Copy CRC D4FED07F Track not present in AccurateRip database Copy OK
Track 25
Filename D:\Music\Soundtracks\VA - Mickey Mouse Works - Soundtrack (2000)\CD 2\25. Silversher,Silversher - Splashdance.wav
Peak level 98.8 % Extraction speed 5.5 X Track quality 100.0 % Test CRC ADC3063A Copy CRC ADC3063A Track not present in AccurateRip database Copy OK
Track 26
Filename D:\Music\Soundtracks\VA - Mickey Mouse Works - Soundtrack (2000)\CD 2\26. Anderson,Willis - Rag Mop.wav
Peak level 98.8 % Extraction speed 4.5 X Track quality 99.9 % Test CRC 4F001003 Copy CRC 4F001003 Track not present in AccurateRip database Copy OK
Track 27
Filename D:\Music\Soundtracks\VA - Mickey Mouse Works - Soundtrack (2000)\CD 2\27. May,Mercury - We Will Rock You,We Are The Champions.wav
Peak level 80.3 % Extraction speed 5.6 X Track quality 100.0 % Test CRC FBFB2820 Copy CRC FBFB2820 Track not present in AccurateRip database Copy OK
Track 28
Filename D:\Music\Soundtracks\VA - Mickey Mouse Works - Soundtrack (2000)\CD 2\28. Stephen James Taylor - Mickey Mousework End Title.wav
Peak level 94.4 % Extraction speed 3.4 X Track quality 100.0 % Test CRC E078ADC7 Copy CRC E078ADC7 Track not present in AccurateRip database Copy OK
None of the tracks are present in the AccurateRip database
No errors occurred
End of status report
==== Log checksum 7319E543FAAF35BE1C5B9FBA4E36F4BC039FD6EA7EEFD71C8E55F24FC6177D63 ====

Содержание индексной карты (.CUE) - CD 2

REM DATE 2000REM DISCID 9F0F611CREM COMMENT "ExactAudioCopy v1.0b3"PERFORMER "VA"TITLE "Mickey Mouse Works - Soundtrack"FILE "01 I'm An Old Cowhand.wav" WAVE TRACK 01 AUDIO TITLE "I'm An Old Cowhand" PERFORMER "Mercer" INDEX 01 00:00:00FILE "02 Watch Out For Goofy.wav" WAVE TRACK 02 AUDIO TITLE "Watch Out For Goofy" PERFORMER "Charouhas/Furman" INDEX 01 00:00:00FILE "03 Turkey In The Straw.wav" WAVE TRACK 03 AUDIO TITLE "Turkey In The Straw" PERFORMER "Traditional" INDEX 01 00:00:00FILE "04 If I Only Had A Brain.wav" WAVE TRACK 04 AUDIO TITLE "If I Only Had A Brain" PERFORMER "Harburg/Arlen" INDEX 01 00:00:00FILE "05 Baby Bumblebee.wav" WAVE TRACK 05 AUDIO TITLE "Baby Bumblebee" PERFORMER "Traditional" INDEX 01 00:00:00FILE "06 The Little Old Lady From Pasadena.wav" WAVE TRACK 06 AUDIO TITLE "The Little Old Lady From Pasadena" PERFORMER "Altfeld/Christian" INDEX 01 00:00:00FILE "07 Nobody Else But You.wav" WAVE TRACK 07 AUDIO TITLE "Nobody Else But You" PERFORMER "Snow/Feldman" INDEX 01 00:00:00FILE "08 On The Open Road.wav" WAVE TRACK 08 AUDIO TITLE "On The Open Road" PERFORMER "Snow/Feldman" INDEX 01 00:00:00FILE "09 D.J. Goof.wav" WAVE TRACK 09 AUDIO TITLE "D.J. Goof" PERFORMER "Becker" INDEX 01 00:00:00FILE "10 Goofy's Skating (Round The World).wav" WAVE TRACK 10 AUDIO TITLE "Goofy's Skating (Round The World)" PERFORMER "Leroux/Becker" INDEX 01 00:00:00FILE "11 Surfin' Safari-Hawaii 5-0 Theme.wav" WAVE TRACK 11 AUDIO TITLE "Surfin' Safari/Hawaii 5-0 Theme" PERFORMER "Wilson/Stevens/Love" INDEX 01 00:00:00FILE "12 Ta Ra Ra Boom De Ay!.wav" WAVE TRACK 12 AUDIO TITLE "Ta Ra Ra Boom De Ay!" PERFORMER "Traditional" INDEX 01 00:00:00FILE "13 You Can Always Be Number One.wav" WAVE TRACK 13 AUDIO TITLE "You Can Always Be Number One" PERFORMER "Gonyea" INDEX 01 00:00:00FILE "14 Mickey Mouse Club Mix.wav" WAVE TRACK 14 AUDIO TITLE "Mickey Mouse Club Mix" PERFORMER "Becker" INDEX 01 00:00:00FILE "15 Whoomp! There It Went.wav" WAVE TRACK 15 AUDIO TITLE "Whoomp! There It Went" PERFORMER "Gibson/Glenn/Bonsanto/Pulga/Ninzante/Lester" INDEX 01 00:00:00FILE "16 U Can't Botch This.wav" WAVE TRACK 16 AUDIO TITLE "U Can't Botch This" PERFORMER "James/Miller/Hammer/Frederick/Becker" INDEX 01 00:00:00FILE "17 Step In Time.wav" WAVE TRACK 17 AUDIO TITLE "Step In Time" PERFORMER "Sherman/Sherman" INDEX 01 00:00:00FILE "18 Over The River And Through The Woods-Rig-A-Jig-Jig-The Bear Went Over The Mountain.wav" WAVE TRACK 18 AUDIO TITLE "Over The River And Through The Woods/Rig-A-Jig-Jig/The Bear Went Over The Mountain" PERFORMER "Traditional" INDEX 01 00:00:00FILE "19 Break It.wav" WAVE TRACK 19 AUDIO TITLE "Break It" PERFORMER "Silversher/Silversher" INDEX 01 00:00:00FILE "20 A Cowboy Needs A Horse.wav" WAVE TRACK 20 AUDIO TITLE "A Cowboy Needs A Horse" PERFORMER "Howard/Mills" INDEX 01 00:00:00FILE "21 Ride'em Cowboy.wav" WAVE TRACK 21 AUDIO TITLE "Ride'em Cowboy" PERFORMER "Groce" INDEX 01 00:00:00FILE "22 Cowboy Mickey.wav" WAVE TRACK 22 AUDIO TITLE "Cowboy Mickey" PERFORMER "Ryan/Baron" INDEX 01 00:00:00FILE "23 Hey, Mickey!.wav" WAVE TRACK 23 AUDIO TITLE "Hey, Mickey!" PERFORMER "Dodd/Chapman/Chinn" INDEX 01 00:00:00FILE "24 Be Kind To Your Web-Footed Friends.wav" WAVE TRACK 24 AUDIO TITLE "Be Kind To Your Web-Footed Friends" PERFORMER "Traditional" INDEX 01 00:00:00FILE "25 Splashdance.wav" WAVE TRACK 25 AUDIO TITLE "Splashdance" PERFORMER "Silversher/Silversher" INDEX 01 00:00:00FILE "26 Rag Mop.wav" WAVE TRACK 26 AUDIO TITLE "Rag Mop" PERFORMER "Anderson/Willis" INDEX 01 00:00:00FILE "27 We Will Rock You,We Are The Champions.wav" WAVE TRACK 27 AUDIO TITLE "We Will Rock You/We Are The Champions" PERFORMER "May/Mercury" INDEX 01 00:00:00FILE "28 Mickey Mousework End Title.wav" WAVE TRACK 28 AUDIO TITLE "Mickey Mousework End Title" PERFORMER "Stephen James Taylor" INDEX 01 00:00:00
Доп. информация:
Музыка из мультсериала в данном сборнике только: Mickey Mouseworks Main Title - заставка, Mickey Mousework End Title - титры, всё остальное видно из описаний к трекам в треклисте. Единственное, что ещё касается мультсериала и является интересным здесь - оформление буклета, сканы прилагаются.
[teatrix.ru].t10376.torrent 
Торрент: Зарегистрирован [ 2015-11-01 20:51 ] · 20D8116D5900523E86F59A4E23C811FC22A044BB

Скачать .torrent

Скачать

19 KB

Статус: проверено
Скачан: 0 раз
Размер: 1.34 GB
terms.php



Быстрый ответ

Имя:

      
Для отправки сообщений необходимо включить JavaScript
Показать сообщения:    

Текущее время: 22-Янв 04:45

Часовой пояс: UTC + 3


Вы можете начинать темы
Вы можете отвечать на сообщения
Вы не можете редактировать свои сообщения
Вы не можете удалять свои сообщения
Вы не можете голосовать в опросах
Вы не можете прикреплять файлы к сообщениям
Вы можете скачивать файлы