(Score) Мост слишком далеко / A Bridge Too Far (by John Addison) - 2010 (1977), FLAC (tracks+.cue), lossless


Статистика раздачи [Обновить пиров]
Размер:  239 MB   |    Зарегистрирован:  1 год 1 месяц   |    Скачан:  0 раз

Полного источника не было: Никогда

 
   
 
 
 

[Цитировать]

Мост слишком далеко / A Bridge Too Far- Жанр: Score
Композитор: John Addison
Год выпуска диска: 2010
Год выпуска фильма: 1977
Страна-производитель диска: USA
Издатель (лейбл): Kritzerland
Номер по каталогу: KR 20017-1
Аудиокодек: FLAC (*.flac)
Тип рипа: tracks+.cue
Битрейт аудио: lossless
Продолжительность: 00:37:46
Источник: CD / forums.ffshrine.org
Наличие сканов в содержимом раздачи: да

Треклист

01 - Overture
02 - A Dutch Rhapsody
03 - Before the Holocaust
04 - Underground Resistance
05 - Air Lift
06 - Hospital Tent
07 - Arnhem
08 - Nijmegen Bridge
09 - March of the Paratroopers
10 - Bailey Bridge
11 - Human Roadblock
12 - Futile Mission
13 - The Waal River
14 - Arnhem Destroyed
15 - Retreat
16 - A Bridge Too Far March

Лог создания рипа

Exact Audio Copy V1.0 beta 3 from 29. August 2011
EAC extraction logfile from 14. June 2014, 8:08
John Addison / A Bridge Too Far
Used drive : HL-DT-STBDDVDRW CH30N Adapter: 0 ID: 0
Read mode : SecureUtilize accurate stream : YesDefeat audio cache : YesMake use of C2 pointers : No
Read offset correction : 6Overread into Lead-In and Lead-Out : NoFill up missing offset samples with silence : YesDelete leading and trailing silent blocks : NoNull samples used in CRC calculations : YesUsed interface : Native Win32 interface for Win NT & 2000Gap handling : Appended to previous track
Used output format : User Defined EncoderSelected bitrate : 1024 kBit/sQuality : HighAdd ID3 tag : NoCommand line compressor : C:\Program Files (x86)\Exact Audio Copy\Flac\flac.exeAdditional command line options : -8 -V -T "artist=%artist%" -T "title=%title%" -T "album=%albumtitle%" -T "date=%year%" -T "tracknumber=%tracknr%" -T "genre=%genre%" %source%
TOC of the extracted CD
Track | Start | Length | Start sector | End sector --------------------------------------------------------- 1 | 0:00.00 | 3:37.54 | 0 | 16328 2 | 3:37.54 | 2:12.15 | 16329 | 26243 3 | 5:49.69 | 2:26.58 | 26244 | 37251 4 | 8:16.52 | 2:55.17 | 37252 | 50393 5 | 11:11.69 | 2:39.58 | 50394 | 62376 6 | 13:51.52 | 1:57.19 | 62377 | 71170 7 | 15:48.71 | 1:55.18 | 71171 | 79813 8 | 17:44.14 | 1:40.07 | 79814 | 87320 9 | 19:24.21 | 2:31.18 | 87321 | 98663 10 | 21:55.39 | 2:52.23 | 98664 | 111586 11 | 24:47.62 | 1:38.20 | 111587 | 118956 12 | 26:26.07 | 3:00.15 | 118957 | 132471 13 | 29:26.22 | 1:57.19 | 132472 | 141265 14 | 31:23.41 | 2:28.19 | 141266 | 152384 15 | 33:51.60 | 2:04.26 | 152385 | 161710 16 | 35:56.11 | 1:50.08 | 161711 | 169968
Track 1
Filename C:\John Addison - A Bridge Too Far (Kritzerland KR 20017-1) [FLAC]\01 Overture.wav
Pre-gap length 0:00:02.00
Peak level 98.9 % Extraction speed 1.1 X Track quality 100.0 % Test CRC B0EC4F02 Copy CRC B0EC4F02 Accurately ripped (confidence 2) [B101F262] (AR v2) Copy OK
Track 2
Filename C:\John Addison - A Bridge Too Far (Kritzerland KR 20017-1) [FLAC]\02 A Dutch Rhapsody.wav
Pre-gap length 0:00:02.00
Peak level 80.6 % Extraction speed 1.0 X Track quality 100.0 % Test CRC 1D63D581 Copy CRC 1D63D581 Accurately ripped (confidence 2) [61020E92] (AR v2) Copy OK
Track 3
Filename C:\John Addison - A Bridge Too Far (Kritzerland KR 20017-1) [FLAC]\03 Before The Holocaust.wav
Pre-gap length 0:00:02.00
Peak level 89.7 % Extraction speed 1.0 X Track quality 100.0 % Test CRC CA974ED2 Copy CRC CA974ED2 Accurately ripped (confidence 2) [45269111] (AR v2) Copy OK
Track 4
Filename C:\John Addison - A Bridge Too Far (Kritzerland KR 20017-1) [FLAC]\04 Underground Resistance.wav
Pre-gap length 0:00:02.00
Peak level 97.7 % Extraction speed 1.2 X Track quality 100.0 % Test CRC 5AB23CAC Copy CRC 5AB23CAC Accurately ripped (confidence 2) [FC87F96B] (AR v2) Copy OK
Track 5
Filename C:\John Addison - A Bridge Too Far (Kritzerland KR 20017-1) [FLAC]\05 Air Lift.wav
Pre-gap length 0:00:02.00
Peak level 99.2 % Extraction speed 1.2 X Track quality 100.0 % Test CRC A50A26E4 Copy CRC A50A26E4 Accurately ripped (confidence 2) [AB12D343] (AR v2) Copy OK
Track 6
Filename C:\John Addison - A Bridge Too Far (Kritzerland KR 20017-1) [FLAC]\06 Hospital Tent.wav
Pre-gap length 0:00:02.00
Peak level 50.9 % Extraction speed 1.2 X Track quality 100.0 % Test CRC 998508DC Copy CRC 998508DC Accurately ripped (confidence 2) [A15AF6C7] (AR v2) Copy OK
Track 7
Filename C:\John Addison - A Bridge Too Far (Kritzerland KR 20017-1) [FLAC]\07 Arnhem.wav
Pre-gap length 0:00:02.00
Peak level 98.8 % Extraction speed 1.2 X Track quality 100.0 % Test CRC 1838A4FC Copy CRC 1838A4FC Accurately ripped (confidence 2) [C2823D10] (AR v2) Copy OK
Track 8
Filename C:\John Addison - A Bridge Too Far (Kritzerland KR 20017-1) [FLAC]\08 Nijmegen Bridge.wav
Pre-gap length 0:00:02.00
Peak level 95.9 % Extraction speed 1.2 X Track quality 100.0 % Test CRC 0854821A Copy CRC 0854821A Accurately ripped (confidence 2) [D5CD2601] (AR v2) Copy OK
Track 9
Filename C:\John Addison - A Bridge Too Far (Kritzerland KR 20017-1) [FLAC]\09 March Of The Paratroopers.wav
Pre-gap length 0:00:02.00
Peak level 99.9 % Extraction speed 1.4 X Track quality 100.0 % Test CRC 1225C4DC Copy CRC 1225C4DC Accurately ripped (confidence 2) [FE51D5BA] (AR v2) Copy OK
Track 10
Filename C:\John Addison - A Bridge Too Far (Kritzerland KR 20017-1) [FLAC]\10 Bailey Bridge.wav
Pre-gap length 0:00:02.00
Peak level 94.4 % Extraction speed 1.2 X Track quality 99.9 % Test CRC F05BA138 Copy CRC F05BA138 Accurately ripped (confidence 2) [12BD31E8] (AR v2) Copy OK
Track 11
Filename C:\John Addison - A Bridge Too Far (Kritzerland KR 20017-1) [FLAC]\11 Human Roadblock.wav
Pre-gap length 0:00:02.00
Peak level 81.4 % Extraction speed 1.0 X Track quality 99.8 % Test CRC 36B3B35A Copy CRC 36B3B35A Accurately ripped (confidence 2) [466431AA] (AR v2) Copy OK
Track 12
Filename C:\John Addison - A Bridge Too Far (Kritzerland KR 20017-1) [FLAC]\12 Futile Mission.wav
Pre-gap length 0:00:02.00
Peak level 87.6 % Extraction speed 1.5 X Track quality 100.0 % Test CRC 7788D663 Copy CRC 7788D663 Accurately ripped (confidence 2) [08B05E40] (AR v2) Copy OK
Track 13
Filename C:\John Addison - A Bridge Too Far (Kritzerland KR 20017-1) [FLAC]\13 The Waal River.wav
Pre-gap length 0:00:02.00
Peak level 89.0 % Extraction speed 1.5 X Track quality 100.0 % Test CRC 959FA3E9 Copy CRC 959FA3E9 Accurately ripped (confidence 2) [80F9E671] (AR v2) Copy OK
Track 14
Filename C:\John Addison - A Bridge Too Far (Kritzerland KR 20017-1) [FLAC]\14 Arnhem Destroyed.wav
Pre-gap length 0:00:02.00
Peak level 74.5 % Extraction speed 1.6 X Track quality 100.0 % Test CRC F7E0C761 Copy CRC F7E0C761 Accurately ripped (confidence 2) [2A99EA21] (AR v2) Copy OK
Track 15
Filename C:\John Addison - A Bridge Too Far (Kritzerland KR 20017-1) [FLAC]\15 Retreat.wav
Pre-gap length 0:00:02.00
Peak level 66.3 % Extraction speed 1.5 X Track quality 100.0 % Test CRC 3369FA36 Copy CRC 3369FA36 Accurately ripped (confidence 2) [54E72A29] (AR v2) Copy OK
Track 16
Filename C:\John Addison - A Bridge Too Far (Kritzerland KR 20017-1) [FLAC]\16 A Bridge Too Far March.wav
Pre-gap length 0:00:02.00
Peak level 89.6 % Extraction speed 1.5 X Track quality 100.0 % Test CRC 381FE1E6 Copy CRC 381FE1E6 Accurately ripped (confidence 2) [811B2C07] (AR v2) Copy OK
All tracks accurately ripped
No errors occurred
End of status report
---- CUETools DB Plugin V2.1.3
[CTDB TOCID: cOc4Eyz5KDaTfn3nZ4.qVoQjIO0-] found, Submit result: cOc4Eyz5KDaTfn3nZ4.qVoQjIO0- has been confirmed[1d3e6374] (1/1) Accurately ripped
==== Log checksum 86162386A866D0CDD381819A0C763777567F6F40A0679EEDC572D6C1B0E4027A ====

Содержание индексной карты (.CUE)

REM GENRE SoundtrackREM DATE 2010REM DISCID EF08DA10REM COMMENT "ExactAudioCopy v1.0b3"FILE "01 Overture.wav" WAVE TRACK 01 AUDIO FLAGS DCP INDEX 01 00:00:00 TRACK 02 AUDIO FLAGS DCP INDEX 00 03:35:54FILE "02 A Dutch Rhapsody.wav" WAVE INDEX 01 00:00:00 TRACK 03 AUDIO FLAGS DCP INDEX 00 02:10:15FILE "03 Before The Holocaust.wav" WAVE INDEX 01 00:00:00 TRACK 04 AUDIO FLAGS DCP INDEX 00 02:24:58FILE "04 Underground Resistance.wav" WAVE INDEX 01 00:00:00 TRACK 05 AUDIO FLAGS DCP INDEX 00 02:53:17FILE "05 Air Lift.wav" WAVE INDEX 01 00:00:00 TRACK 06 AUDIO FLAGS DCP INDEX 00 02:37:58FILE "06 Hospital Tent.wav" WAVE INDEX 01 00:00:00 TRACK 07 AUDIO FLAGS DCP INDEX 00 01:55:19FILE "07 Arnhem.wav" WAVE INDEX 01 00:00:00 TRACK 08 AUDIO FLAGS DCP INDEX 00 01:53:18FILE "08 Nijmegen Bridge.wav" WAVE INDEX 01 00:00:00 TRACK 09 AUDIO FLAGS DCP INDEX 00 01:38:07FILE "09 March Of The Paratroopers.wav" WAVE INDEX 01 00:00:00 TRACK 10 AUDIO FLAGS DCP INDEX 00 02:29:18FILE "10 Bailey Bridge.wav" WAVE INDEX 01 00:00:00 TRACK 11 AUDIO FLAGS DCP INDEX 00 02:50:23FILE "11 Human Roadblock.wav" WAVE INDEX 01 00:00:00 TRACK 12 AUDIO FLAGS DCP INDEX 00 01:36:20FILE "12 Futile Mission.wav" WAVE INDEX 01 00:00:00 TRACK 13 AUDIO FLAGS DCP INDEX 00 02:58:15FILE "13 The Waal River.wav" WAVE INDEX 01 00:00:00 TRACK 14 AUDIO FLAGS DCP INDEX 00 01:55:19FILE "14 Arnhem Destroyed.wav" WAVE INDEX 01 00:00:00 TRACK 15 AUDIO FLAGS DCP INDEX 00 02:26:19FILE "15 Retreat.wav" WAVE INDEX 01 00:00:00 TRACK 16 AUDIO FLAGS DCP INDEX 00 02:02:26FILE "16 A Bridge Too Far March.wav" WAVE INDEX 01 00:00:00

Лог проверки качества

-----------------------
DON'T MODIFY THIS FILE
-----------------------
PERFORMER: auCDtect Task Manager, ver. 1.6.0 RC1 build 1.6.0.1Copyright (c) 2008-2010 y-soft. All rights reservedhttp://y-soft.org
ANALYZER: auCDtect: CD records authenticity detector, version 0.8.2Copyright (c) 2004 Oleg Berngardt. All rights reserved.Copyright (c) 2004 Alexander Djourik. All rights reserved.
FILE: 16 A Bridge Too Far March.flac Size: 11854938 Hash: B0E08AE4A6E2AF36DEDBFB472834D342 Accuracy: -m0 Conclusion: CDDA 100% Signature: 7DD16C5868F26CD8E95EDE16B016576C8A555900FILE: 15 Retreat.flac Size: 10707366 Hash: 7DCB08421226BB7D5D6B0BABFBE6F86E Accuracy: -m0 Conclusion: CDDA 100% Signature: 735B6DD8CDAD1F7DB63D508B19A9CF397AB5F732FILE: 14 Arnhem Destroyed.flac Size: 13138773 Hash: 6FD60DB8034310939A78E882D7524C05 Accuracy: -m0 Conclusion: CDDA 100% Signature: 316AEB2F805200D9E767AB9360FD7CFB34B26790FILE: 13 The Waal River.flac Size: 11653728 Hash: 9AA72D9B1274CE9EDAF306391F7FE009 Accuracy: -m0 Conclusion: CDDA 99% Signature: 04A15656494DBEF9F5AF8F796E0E75C73D5868C6FILE: 12 Futile Mission.flac Size: 17089129 Hash: 8950DD884EF491494541333160483D0C Accuracy: -m0 Conclusion: CDDA 100% Signature: 4EDC3DD85ADC4C74C4CF15E8A2C047EEBCF88F17FILE: 11 Human Roadblock.flac Size: 9145874 Hash: 9D54BCE429825F5292FFFA3D6A0E10AE Accuracy: -m0 Conclusion: CDDA 100% Signature: E97A7717274D7250BFC4A740FCBE935A25B027E7FILE: 10 Bailey Bridge.flac Size: 18426509 Hash: E37A8A3E28513009A785BC4D88E57A0C Accuracy: -m0 Conclusion: CDDA 100% Signature: ACCE9519ABC3FBA8525A580C48A2B044B028B82FFILE: 09 March Of The Paratroopers.flac Size: 16202297 Hash: EB656823C61C527FAA17AA210B419752 Accuracy: -m0 Conclusion: CDDA 100% Signature: F552C74D16EAD93C0178873CEC0EAD4FF50107F9FILE: 08 Nijmegen Bridge.flac Size: 10632728 Hash: F7446EC7F7FF2527C16F98B699DF983B Accuracy: -m0 Conclusion: CDDA 100% Signature: A84DA316110D196CB141B93E58EA8A28F4D9CAB9FILE: 07 Arnhem.flac Size: 11003203 Hash: C7D8031D2808180C17ED45DC32AD4318 Accuracy: -m0 Conclusion: CDDA 99% Signature: 4C687F258BE700E69B72F6BB6E05A9C43362D9D9FILE: 06 Hospital Tent.flac Size: 9287771 Hash: D820631525BFD5E320C0FFD1F0F3AFC6 Accuracy: -m0 Conclusion: CDDA 100% Signature: 0AFCD23D7A7A08B49336526EFBFA90CDBBA0FAB6FILE: 05 Air Lift.flac Size: 17705150 Hash: 4B8103EE06545FD61B03BC07AC3207B5 Accuracy: -m0 Conclusion: CDDA 100% Signature: 840AF4B547D6DCAC6839B730F1354447CB7E6296FILE: 04 Underground Resistance.flac Size: 16787910 Hash: 600EB8C312933E79BE0E3E5C179EA69D Accuracy: -m0 Conclusion: CDDA 100% Signature: 881F9A471BCE1C05D6D66A5AD9B5AA05F120D631FILE: 03 Before The Holocaust.flac Size: 14702103 Hash: 3B59F52B91EF3F7E704B37D20510860C Accuracy: -m0 Conclusion: CDDA 100% Signature: 2F4087EEE09E0AECBEA545936D95EFBAC1B704B9FILE: 02 A Dutch Rhapsody.flac Size: 11391173 Hash: 4A2C0E45C1C07D6D497D0D8B79CCEC71 Accuracy: -m0 Conclusion: CDDA 100% Signature: 6028BBB008915FBDA70DB0B67641E1D713C70823FILE: 01 Overture.flac Size: 23683836 Hash: DC27FDAEA341861299495D9490882762 Accuracy: -m0 Conclusion: CDDA 100% Signature: 84FBCE1D608F40876DD6EB4DE1D26D4F70D9B379

Скриншот спектра частот

[teatrix.ru].t10378.torrent 
Торрент: Зарегистрирован [ 2015-11-01 20:51 ] · 31444AA9E839F6435F1E34A61878DF7E1605CEF2

Скачать .torrent

Скачать

21 KB

Статус: проверено
Скачан: 0 раз
Размер: 239 MB
terms.php



Быстрый ответ

Имя:

      
Для отправки сообщений необходимо включить JavaScript
Показать сообщения:    

Текущее время: 10-Дек 04:12

Часовой пояс: UTC + 3


Вы можете начинать темы
Вы можете отвечать на сообщения
Вы не можете редактировать свои сообщения
Вы не можете удалять свои сообщения
Вы не можете голосовать в опросах
Вы не можете прикреплять файлы к сообщениям
Вы можете скачивать файлы