(Rock, Soundtrack) Дела семейные / В интересном положении / The Family Way [Variations Concertantes Opus 1] {1967, Philips, Germany, 454 230-2} (by Paul McCartney) - 1996 (1967), FLAC (image+.cue), lossless


Статистика раздачи [Обновить пиров]
Размер:  238 MB   |    Зарегистрирован:  1 год 1 месяц   |    Скачан:  0 раз

Полного источника не было: Никогда

 
   
 
 
 

[Цитировать]

Paul McCartney - The Family Way. Variations Concertantes Opus 1
Жанр: Rock, Soundtrack
Год выпуска диска: 1996
Год выпуска фильма: 1967
Страна-производитель диска: Germany
Издатель (лейбл): Philips
Номер по каталогу: 454 230-2
Аудиокодек: FLAC (*.flac)
Тип рипа: image+.cue
Битрейт аудио: lossless
Продолжительность: 00:57:55
Источник (релизер): Собственный
Наличие сканов в содержимом раздачи: да (JPG, 600dpi, 11Mb)-Треклист:
01. The Family Way - Variation No. 1 - 3:15
02. The Family Way - Variation No. 2 - 2:01
03. The Family Way - Variation No. 3 - 2:01
04. The Family Way - Variation No. 4 - 3:00
05. The Family Way - Variation No. 5 - 2:25
06. The Family Way - Variation No. 6 - 0:52
07. The Family Way - Variation No. 7 - 3:19
08. The Family Way - Variation No. 8 - 2:52
09. The Family Way - Variation No. 9 - 2:50
10. Hymn to the Child - 4:13
11. Reminiscences - Double March (Bobino) - Theme - 0:59
12. Reminiscences - Double March (Bobino) - Variation I - 2:00
13. Reminiscences - Double March (Bobino) - Variation II - 1:49
14. Reminiscences - Double March (Bobino) - Variation III - 2:31
15. Reminiscences - Double March (Bobino) - Variation IV - 1:48
16. Reminiscences - Double March (Bobino) - Variation V - 1:43
17. Reminiscences - Le Capitaine Bonhomme - 2:48
18. Reminiscences - Le Pirate Maboule - 3:53
19. Reminiscences - Sol Et Gobelet - 3:30
20. Reminiscences - Grujot Et Delicat - 2:47
21. Reminiscences - Monsieur Surprise - 2:23
22. Children of Sarajevo - 4:56
-

Лог создания рипа (EAC)

Exact Audio Copy V1.0 beta 3 from 29. August 2011
EAC extraction logfile from 24. October 2014, 19:45
Paul McCartney / The Family Way
Used drive : ATAPI iHAS124 B Adapter: 1 ID: 0
Read mode : SecureUtilize accurate stream : YesDefeat audio cache : YesMake use of C2 pointers : No
Read offset correction : 6Overread into Lead-In and Lead-Out : NoFill up missing offset samples with silence : YesDelete leading and trailing silent blocks : NoNull samples used in CRC calculations : YesUsed interface : Installed external ASPI interface
Used output format : User Defined EncoderSelected bitrate : 128 kBit/sQuality : HighAdd ID3 tag : YesCommand line compressor : C:\Program Files (x86)\Exact Audio Copy\Flac\flac.exeAdditional command line options : -V -8 -T "Date=%year%" -T "Genre=%genre%" %source%
TOC of the extracted CD
Track | Start | Length | Start sector | End sector --------------------------------------------------------- 1 | 0:00.33 | 3:15.00 | 33 | 14657 2 | 3:15.33 | 2:01.00 | 14658 | 23732 3 | 5:16.33 | 2:00.67 | 23733 | 32799 4 | 7:17.25 | 3:00.08 | 32800 | 46307 5 | 10:17.33 | 2:25.00 | 46308 | 57182 6 | 12:42.33 | 0:52.00 | 57183 | 61082 7 | 13:34.33 | 3:19.00 | 61083 | 76007 8 | 16:53.33 | 2:52.00 | 76008 | 88907 9 | 19:45.33 | 2:50.00 | 88908 | 101657 10 | 22:35.33 | 4:13.00 | 101658 | 120632 11 | 26:48.33 | 0:59.00 | 120633 | 125057 12 | 27:47.33 | 2:00.00 | 125058 | 134057 13 | 29:47.33 | 1:49.00 | 134058 | 142232 14 | 31:36.33 | 2:31.00 | 142233 | 153557 15 | 34:07.33 | 1:48.00 | 153558 | 161657 16 | 35:55.33 | 1:43.00 | 161658 | 169382 17 | 37:38.33 | 2:48.00 | 169383 | 181982 18 | 40:26.33 | 3:53.00 | 181983 | 199457 19 | 44:19.33 | 3:30.00 | 199458 | 215207 20 | 47:49.33 | 2:47.00 | 215208 | 227732 21 | 50:36.33 | 2:23.00 | 227733 | 238457 22 | 52:59.33 | 4:56.00 | 238458 | 260657
Range status and errors
Selected range
Filename G:\CD\Paul McCartney - The Family Way.wav
Peak level 84.7 % Extraction speed 3.2 X Range quality 100.0 % Test CRC 69F2FFC9 Copy CRC 69F2FFC9 Copy OK
No errors occurred
AccurateRip summary
Track 1 accurately ripped (confidence 2) [E5E99213] (AR v2)Track 2 accurately ripped (confidence 2) [69971DD9] (AR v2)Track 3 accurately ripped (confidence 2) [3D305A9C] (AR v2)Track 4 accurately ripped (confidence 2) [F096356C] (AR v2)Track 5 accurately ripped (confidence 2) [211A1D3F] (AR v2)Track 6 accurately ripped (confidence 2) [9008DA6A] (AR v2)Track 7 accurately ripped (confidence 2) [1469BB56] (AR v2)Track 8 accurately ripped (confidence 2) [FEBD6CE1] (AR v2)Track 9 accurately ripped (confidence 2) [E92BC891] (AR v2)Track 10 accurately ripped (confidence 2) [86DC7AB8] (AR v2)Track 11 accurately ripped (confidence 2) [C8415613] (AR v2)Track 12 accurately ripped (confidence 2) [A09F00D1] (AR v2)Track 13 accurately ripped (confidence 2) [7B32F483] (AR v2)Track 14 accurately ripped (confidence 2) [AFD1830C] (AR v2)Track 15 accurately ripped (confidence 2) [F0EEAA34] (AR v2)Track 16 accurately ripped (confidence 2) [723F5A18] (AR v2)Track 17 accurately ripped (confidence 2) [7C7F3549] (AR v2)Track 18 accurately ripped (confidence 2) [7D617260] (AR v2)Track 19 accurately ripped (confidence 2) [F8BD2279] (AR v2)Track 20 accurately ripped (confidence 2) [9CD4EBB2] (AR v2)Track 21 accurately ripped (confidence 2) [7E522D98] (AR v2)Track 22 accurately ripped (confidence 2) [95541C97] (AR v2)
All tracks accurately ripped
End of status report
---- CUETools DB Plugin V2.1.3
[CTDB TOCID: G.e84pBWyhu.ecWLCmLjDg55g2c-] disk not present in database, Submit result: discs with pregaps not supported in this protocol version
==== Log checksum 84D091480C20E27B59D6112DA1E6A958B33BF119801BC24883E4072E7C945012 ====

Rear, CD, CD Matrix

-
[teatrix.ru].t10379.torrent 
Торрент: Зарегистрирован [ 2015-11-01 20:51 ] · 972ED781358BA236787802FD66A89EEB58504767

Скачать .torrent

Скачать

20 KB

Статус: проверено
Скачан: 0 раз
Размер: 238 MB
terms.php



Быстрый ответ

Имя:

      
Для отправки сообщений необходимо включить JavaScript
Показать сообщения:    

Текущее время: 03-Дек 09:51

Часовой пояс: UTC + 3


Вы можете начинать темы
Вы можете отвечать на сообщения
Вы не можете редактировать свои сообщения
Вы не можете удалять свои сообщения
Вы не можете голосовать в опросах
Вы не можете прикреплять файлы к сообщениям
Вы можете скачивать файлы