(Score) Оно / Stephen King's It (by Richard Bellis) - 2011 (1990), FLAC (image+.cue), lossless


Статистика раздачи [Обновить пиров]
Размер:  543 MB   |    Зарегистрирован:  1 год 1 месяц   |    Скачан:  0 раз

Полного источника не было: Никогда

 
   
 
 
 

[Цитировать]

Оно / Stephen King's It
Жанр: Score
Композитор: Richard Bellis
Год выпуска диска: 2011
Год выпуска фильма: 1990
Производитель диска: USA
Издатель (лейбл): Intrada
Номер по каталогу: ISC 184
Аудиокодек: FLAC (*.flac)
Тип рипа: image+.cue
Битрейт аудио: lossless
Продолжительность: 01:38.31 (50.54+47.37)
Источник: собственный рип
Наличие сканов в содержимом раздачи: да (600 dpi)
Треклист

Disc 1

01. Main Title Part I [01:53.47]
02. Enter The Clown [03:05.69]
03. Georgie Dies [04:17.70]
04. Ben Gets The News [00:52.39]
05. Punks [02:18.34]
06. I Hate It Here [01:55.31]
07. Bedroom Jazz Source [02:25.43]
08. The Slap [01:46.10]
09. Die If You Try [04:03.03]
10. Richie's Talk Show Play-Off [00:35.25]
11. The Beast - First Encounter [02:06.05]
12. Mike Remembers [00:58.31]
13. Mike Joins The Group [05:08.08]
14. Pennywise [00:40.62]
15. Circus Source [01:11.02]
16. Target Practice [02:52.35]
17. The Sewer Hole [03:14.45]
18. Stan Gets Nabbed [04:27.50]
19. The Fog [03:24.48]
20. The Pact [01:44.00]
21. Stan's Suicide [00:49.63]
22. End Credits Part I [01:02.44]

Отчёт EAC

Exact Audio Copy V1.0 beta 3 from 29. August 2011
EAC extraction logfile from 25. March 2013, 20:35
Richard Bellis / Stephen King's It (Disc 1)
Used drive : TSSTcorpCDDVDW SH-S202H Adapter: 0 ID: 0
Read mode : SecureUtilize accurate stream : YesDefeat audio cache : YesMake use of C2 pointers : No
Read offset correction : 6Overread into Lead-In and Lead-Out : NoFill up missing offset samples with silence : YesDelete leading and trailing silent blocks : NoNull samples used in CRC calculations : YesUsed interface : Native Win32 interface for Win NT & 2000
Used output format : Internal WAV RoutinesSample format : 44.100 Hz; 16 Bit; Stereo
TOC of the extracted CD
Track | Start | Length | Start sector | End sector --------------------------------------------------------- 1 | 0:00.00 | 1:53.47 | 0 | 8521 2 | 1:53.47 | 3:05.69 | 8522 | 22465 3 | 4:59.41 | 4:17.70 | 22466 | 41810 4 | 9:17.36 | 0:52.39 | 41811 | 45749 5 | 10:10.00 | 2:18.34 | 45750 | 56133 6 | 12:28.34 | 1:55.31 | 56134 | 64789 7 | 14:23.65 | 2:25.43 | 64790 | 75707 8 | 16:49.33 | 1:46.10 | 75708 | 83667 9 | 18:35.43 | 4:03.03 | 83668 | 101895 10 | 22:38.46 | 0:35.25 | 101896 | 104545 11 | 23:13.71 | 2:06.05 | 104546 | 114000 12 | 25:20.01 | 0:58.31 | 114001 | 118381 13 | 26:18.32 | 5:08.08 | 118382 | 141489 14 | 31:26.40 | 0:40.62 | 141490 | 144551 15 | 32:07.27 | 1:11.02 | 144552 | 149878 16 | 33:18.29 | 2:52.35 | 149879 | 162813 17 | 36:10.64 | 3:14.45 | 162814 | 177408 18 | 39:25.34 | 4:27.50 | 177409 | 197483 19 | 43:53.09 | 3:24.48 | 197484 | 212831 20 | 47:17.57 | 1:44.00 | 212832 | 220631 21 | 49:01.57 | 0:49.63 | 220632 | 224369 22 | 49:51.45 | 1:02.44 | 224370 | 229063
Range status and errors
Selected range
Filename D:\Richard Bellis - Stephen King's It\Richard Bellis - Stephen King's It (Disc 1).wav
Peak level 100.0 % Extraction speed 7.5 X Range quality 100.0 % Test CRC BA81869B Copy CRC BA81869B Copy OK
No errors occurred
AccurateRip summary
Track 1 accurately ripped (confidence 2) [59F86C77] (AR v1)Track 2 accurately ripped (confidence 2) [D091F3CF] (AR v1)Track 3 accurately ripped (confidence 2) [EF14B027] (AR v1)Track 4 accurately ripped (confidence 2) [4EDD81D6] (AR v1)Track 5 accurately ripped (confidence 2) [C19DDF27] (AR v1)Track 6 accurately ripped (confidence 2) [AC823AC1] (AR v1)Track 7 accurately ripped (confidence 2) [951FC577] (AR v1)Track 8 accurately ripped (confidence 2) [E8D8AEA5] (AR v1)Track 9 accurately ripped (confidence 2) [B3FE95F3] (AR v1)Track 10 accurately ripped (confidence 2) [F8DBFD25] (AR v1)Track 11 accurately ripped (confidence 2) [3CAB6177] (AR v1)Track 12 accurately ripped (confidence 2) [EAB74934] (AR v1)Track 13 accurately ripped (confidence 2) [3644A26F] (AR v1)Track 14 accurately ripped (confidence 2) [B23372F7] (AR v1)Track 15 accurately ripped (confidence 2) [73E3A124] (AR v1)Track 16 accurately ripped (confidence 2) [18CF8DE5] (AR v1)Track 17 accurately ripped (confidence 2) [8B606F9F] (AR v1)Track 18 accurately ripped (confidence 2) [C9B2A37D] (AR v1)Track 19 not present in databaseTrack 20 not present in databaseTrack 21 not present in databaseTrack 22 not present in database
18 трек(и) скопированы точно 4 трек(и) не содержатся в базе AccurateRip
Some tracks could not be verified as accurate
End of status report
==== Log checksum B6C75157D7846D707B6A4828D09BF3CB1CE94889524986DF8F88EB0C6963B7F6 ====

Disc 2

01. Main Title Part II [01:52.41]
02. The Graves [01:49.00]
03. Library Balloons [02:53.70]
04. Ben's Flashback [00:35.72]
05. Skeleton On The Pond [00:40.71]
06. Gullory's Muzak [01:28.74]
07. Hydrox [02:50.37]
08. Audra [01:45.53]
09. Fortune Cookie [01:54.28]
10. Silver Flyer [02:22.37]
11. Leftover Stan [01:53.46]
12. Henry And Belch [02:20.34]
13. Every Thirty Years [01:54.69]
14. Audra Arrives [02:03.37]
15. This Time It's Not For Real [04:25.68]
16. The Smell Of Death [01:59.03]
17. Something's Coming [03:59.33]
18. The Spider's Web [05:11.72]
19. Hi Ho Silver [04:33.02]
20. End Credits Part II [01:01.22]

Отчёт EAC

Exact Audio Copy V1.0 beta 3 from 29. August 2011
EAC extraction logfile from 25. March 2013, 20:50
Richard Bellis / Stephen King's It (Disc 2)
Used drive : TSSTcorpCDDVDW SH-S202H Adapter: 0 ID: 0
Read mode : SecureUtilize accurate stream : YesDefeat audio cache : YesMake use of C2 pointers : No
Read offset correction : 6Overread into Lead-In and Lead-Out : NoFill up missing offset samples with silence : YesDelete leading and trailing silent blocks : NoNull samples used in CRC calculations : YesUsed interface : Native Win32 interface for Win NT & 2000
Used output format : Internal WAV RoutinesSample format : 44.100 Hz; 16 Bit; Stereo
TOC of the extracted CD
Track | Start | Length | Start sector | End sector --------------------------------------------------------- 1 | 0:00.00 | 1:52.41 | 0 | 8440 2 | 1:52.41 | 1:49.00 | 8441 | 16615 3 | 3:41.41 | 2:53.70 | 16616 | 29660 4 | 6:35.36 | 0:35.72 | 29661 | 32357 5 | 7:11.33 | 0:40.71 | 32358 | 35428 6 | 7:52.29 | 1:28.74 | 35429 | 42102 7 | 9:21.28 | 2:50.37 | 42103 | 54889 8 | 12:11.65 | 1:45.53 | 54890 | 62817 9 | 13:57.43 | 1:54.28 | 62818 | 71395 10 | 15:51.71 | 2:22.37 | 71396 | 82082 11 | 18:14.33 | 1:53.46 | 82083 | 90603 12 | 20:08.04 | 2:20.34 | 90604 | 101137 13 | 22:28.38 | 1:54.69 | 101138 | 109756 14 | 24:23.32 | 2:03.37 | 109757 | 119018 15 | 26:26.69 | 4:25.68 | 119019 | 138961 16 | 30:52.62 | 1:59.03 | 138962 | 147889 17 | 32:51.65 | 3:59.33 | 147890 | 165847 18 | 36:51.23 | 5:11.72 | 165848 | 189244 19 | 42:03.20 | 4:33.02 | 189245 | 209721 20 | 46:36.22 | 1:01.22 | 209722 | 214318
Range status and errors
Selected range
Filename D:\Richard Bellis - Stephen King's It\Richard Bellis - Stephen King's It (Disc 2).wav
Peak level 85.8 % Extraction speed 7.4 X Range quality 100.0 % Test CRC 879FD3A1 Copy CRC 879FD3A1 Copy OK
No errors occurred
AccurateRip summary
Track 1 accurately ripped (confidence 2) [BEEE0672] (AR v1)Track 2 accurately ripped (confidence 2) [602518D2] (AR v1)Track 3 accurately ripped (confidence 2) [CB1BDFEE] (AR v1)Track 4 accurately ripped (confidence 2) [6102BEEE] (AR v1)Track 5 accurately ripped (confidence 2) [456DA1D8] (AR v1)Track 6 accurately ripped (confidence 2) [49484D9E] (AR v1)Track 7 accurately ripped (confidence 2) [EC251182] (AR v1)Track 8 accurately ripped (confidence 2) [44CAAFA0] (AR v1)Track 9 accurately ripped (confidence 2) [F048BA1E] (AR v1)Track 10 accurately ripped (confidence 2) [5EDCB512] (AR v1)Track 11 accurately ripped (confidence 2) [D50D5F6F] (AR v1)Track 12 accurately ripped (confidence 2) [4D2C62A4] (AR v1)Track 13 accurately ripped (confidence 2) [DE00F504] (AR v1)Track 14 accurately ripped (confidence 2) [43802F87] (AR v1)Track 15 accurately ripped (confidence 2) [E9E835D6] (AR v1)Track 16 accurately ripped (confidence 2) [38E66156] (AR v1)Track 17 accurately ripped (confidence 2) [7CE5D6B0] (AR v1)Track 18 accurately ripped (confidence 2) [F7D188E1] (AR v1)Track 19 accurately ripped (confidence 2) [A359D6C1] (AR v1)Track 20 accurately ripped (confidence 2) [A141FC25] (AR v1)
All tracks accurately ripped
End of status report
==== Log checksum D316F227422A40070990F0DC7FDD5E1A55186E412865DCD03CEA237132FCA6AF ====

Информация об альбоме от Composer's fan

Фанаты могут спорить сколь угодно, но я по-прежнему считаю, что длинные произведения Кинга просто созданы для ТВ!
Судите сами - многие вещи трудно уместить в 1,5-2 часа кино времени. Иное дело ТВ - можно снять две серии в 1,5 часа, и рассказать практически всю основную сюжетную линию.
Так было и Салемскими вампирами, так было и с культовым Оно, полная версия музыки к которому мы предлагаем сегодня.
Талантливый композитор Ричард Беллис написал очень запоминающуюся музыку. Хотя это и был теле-проект, композитор подошел к нему со всей ответственностью, написав несколько ключевых тем.
Две из них - классика жанра - заглавная тема, впервые звучащая на титрах и тема Пеннивайза, мотивы которой звучат в самом начале фильма, затем мы слышим ее в качестве source-музыки, и, наконец, во время финальных титров (если вы их, конечно, не пропускаете).
Но ведь это не все - есть и лирическая тема, этакая "всепобеждающая сила любви", тема панков и т.д.
Надеемся, что любители Кинга в частности, данного жанра в целом, а также просто любители хорошей музыки, по достоинству оценят работу Беллиса.
-
[teatrix.ru].t10380.torrent 
Торрент: Зарегистрирован [ 2015-11-01 20:51 ] · 54EC9E2DEC67599C9F92E448ED8AF13021BC209E

Скачать .torrent

Скачать

12 KB

Статус: проверено
Скачан: 0 раз
Размер: 543 MB
terms.php



Быстрый ответ

Имя:

      
Для отправки сообщений необходимо включить JavaScript
Показать сообщения:    

Текущее время: 05-Дек 17:31

Часовой пояс: UTC + 3


Вы можете начинать темы
Вы можете отвечать на сообщения
Вы не можете редактировать свои сообщения
Вы не можете удалять свои сообщения
Вы не можете голосовать в опросах
Вы не можете прикреплять файлы к сообщениям
Вы можете скачивать файлы