(Score) Полтергейст 2: Обратная сторона / Poltergeist II: The Other Side (by Jerry Goldsmith) - 2013 (1986), FLAC (image+.cue), lossless


Статистика раздачи [Обновить пиров]
Размер:  504 MB   |    Зарегистрирован:  1 год 1 месяц   |    Скачан:  1 раз

Полного источника не было: 11 месяцев 19 дней

 
   
 
 
 

[Цитировать]

Полтергейст 2: Обратная сторона / Poltergeist II: The Other Side
Жанр: Score
Композитор: Jerry Goldsmith
Год выпуска диска: 2013
Год выпуска фильма: 1986
Производитель диска: USA
Издатель (лейбл): Kritzerland
Номер по каталогу: KR 20026-6
Аудиокодек: FLAC (*.flac)
Тип рипа: image+.cue
Битрейт аудио: lossless
Продолжительность: 01:34.52 (1:04.05+30.46)
Источник: собственный рип
Наличие сканов в содержимом раздачи: да (600 dpi)
Треклист

Disc 1

01. The Power [07:51.72]
02. Things [02:01.51]
03. The Mall [02:13.57]
04. The Past [00:29.35]
05. Late Call [03:28.61]
06. The Dream [00:40.43]
07. Clouds / It's No Use [03:41.27]
08. Take Care [00:33.62]
09. Butterflies [00:53.72]
10. The Visitor [06:42.68]
11. Wild Braces [02:21.61]
12. Leave Us Alone [04:16.00]
13. The Smoke [04:48.26]
14. The Drink [00:50.45]
15. The Worm / Out Of The Ceiling [08:09.27]
16. Faces / Back To Cuesta Verde [03:18.59]
17. Reaching Out [08:34.50]
18. End Title (Carol Anne's Theme) [03:06.44]

Отчёт EAC

Exact Audio Copy V1.0 beta 3 from 29. August 2011
EAC extraction logfile from 13. October 2013, 14:08
Jerry Goldsmith / Poltergeist II: The Other Side (Disc 1)
Used drive : TSSTcorpCDDVDW SH-S202H Adapter: 0 ID: 0
Read mode : SecureUtilize accurate stream : YesDefeat audio cache : YesMake use of C2 pointers : No
Read offset correction : 6Overread into Lead-In and Lead-Out : NoFill up missing offset samples with silence : YesDelete leading and trailing silent blocks : NoNull samples used in CRC calculations : YesUsed interface : Native Win32 interface for Win NT & 2000
Used output format : Internal WAV RoutinesSample format : 44.100 Hz; 16 Bit; Stereo
TOC of the extracted CD
Track | Start | Length | Start sector | End sector --------------------------------------------------------- 1 | 0:00.00 | 7:51.72 | 0 | 35396 2 | 7:51.72 | 2:01.51 | 35397 | 44522 3 | 9:53.48 | 2:13.57 | 44523 | 54554 4 | 12:07.30 | 0:29.35 | 54555 | 56764 5 | 12:36.65 | 3:28.61 | 56765 | 72425 6 | 16:05.51 | 0:40.43 | 72426 | 75468 7 | 16:46.19 | 3:41.27 | 75469 | 92070 8 | 20:27.46 | 0:33.62 | 92071 | 94607 9 | 21:01.33 | 0:53.72 | 94608 | 98654 10 | 21:55.30 | 6:42.68 | 98655 | 128872 11 | 28:38.23 | 2:21.61 | 128873 | 139508 12 | 31:00.09 | 4:16.00 | 139509 | 158708 13 | 35:16.09 | 4:48.26 | 158709 | 180334 14 | 40:04.35 | 0:50.45 | 180335 | 184129 15 | 40:55.05 | 8:09.27 | 184130 | 220831 16 | 49:04.32 | 3:18.59 | 220832 | 235740 17 | 52:23.16 | 8:34.50 | 235741 | 274340 18 | 60:57.66 | 3:06.44 | 274341 | 288334
Range status and errors
Selected range
Filename D:\Jerry Goldsmith - Poltergeist II- The Other Side\Jerry Goldsmith - Poltergeist II- The Other Side (Disc 1).wav
Peak level 99.9 % Extraction speed 7.8 X Range quality 100.0 % Test CRC 2952A333 Copy CRC 2952A333 Copy OK
No errors occurred
AccurateRip summary
Track 1 accurately ripped (confidence 1) [C665E865] (AR v2)Track 2 accurately ripped (confidence 1) [EC800BF3] (AR v2)Track 3 accurately ripped (confidence 1) [609EBFB5] (AR v2)Track 4 accurately ripped (confidence 1) [784771E7] (AR v2)Track 5 accurately ripped (confidence 1) [D11AC631] (AR v2)Track 6 accurately ripped (confidence 1) [B257E20F] (AR v2)Track 7 accurately ripped (confidence 1) [A04F1B9C] (AR v2)Track 8 accurately ripped (confidence 1) [05836443] (AR v2)Track 9 accurately ripped (confidence 1) [42552CEE] (AR v2)Track 10 accurately ripped (confidence 1) [3A69E388] (AR v2)Track 11 accurately ripped (confidence 1) [CB7ABAF6] (AR v2)Track 12 accurately ripped (confidence 1) [406C7701] (AR v2)Track 13 accurately ripped (confidence 1) [3B3EAC19] (AR v2)Track 14 accurately ripped (confidence 1) [2CCA7519] (AR v2)Track 15 accurately ripped (confidence 1) [6C2D042A] (AR v2)Track 16 accurately ripped (confidence 1) [C5C74F60] (AR v2)Track 17 accurately ripped (confidence 1) [D36247D5] (AR v2)Track 18 accurately ripped (confidence 1) [91807B5B] (AR v2)
All tracks accurately ripped
End of status report
==== Log checksum 7C978C82829C1F183C4706CE52B8797515798D38C375B12632A3AB3688EC3131 ====

Disc 2

01. Wild Braces (Film Version) [02:21.61]
02. The Worm (Film Version) [08:09.27]
03. The Visitor (Without Choir) [06:42.68]
04. The Smoke (Without Choir) [04:48.26]
05. The Dream (Without Choir) [00:40.51]
06. Late Call (With Toy Telephone Sound Effect) [03:27.57]
07. It's No Use (Choir Track) [01:04.53]
08. The Star-Spangled Banner / End Title (Carol Anne's Theme) (Orchestra Only) [03:30.35]

Отчёт EAC

Exact Audio Copy V1.0 beta 3 from 29. August 2011
EAC extraction logfile from 13. October 2013, 14:32
Jerry Goldsmith / Poltergeist II: The Other Side (Disc 2)
Used drive : TSSTcorpCDDVDW SH-S202H Adapter: 0 ID: 0
Read mode : SecureUtilize accurate stream : YesDefeat audio cache : YesMake use of C2 pointers : No
Read offset correction : 6Overread into Lead-In and Lead-Out : NoFill up missing offset samples with silence : YesDelete leading and trailing silent blocks : NoNull samples used in CRC calculations : YesUsed interface : Native Win32 interface for Win NT & 2000
Used output format : Internal WAV RoutinesSample format : 44.100 Hz; 16 Bit; Stereo
TOC of the extracted CD
Track | Start | Length | Start sector | End sector --------------------------------------------------------- 1 | 0:00.00 | 2:21.61 | 0 | 10635 2 | 2:21.61 | 8:09.27 | 10636 | 47337 3 | 10:31.13 | 6:42.68 | 47338 | 77555 4 | 17:14.06 | 4:48.26 | 77556 | 99181 5 | 22:02.32 | 0:40.51 | 99182 | 102232 6 | 22:43.08 | 3:27.57 | 102233 | 117814 7 | 26:10.65 | 1:04.53 | 117815 | 122667 8 | 27:15.43 | 3:30.35 | 122668 | 138452
Range status and errors
Selected range
Filename D:\Jerry Goldsmith - Poltergeist II- The Other Side\Jerry Goldsmith - Poltergeist II- The Other Side (Disc 2).wav
Peak level 99.9 % Extraction speed 2.6 X Range quality 100.0 % Test CRC F88F9252 Copy CRC F88F9252 Copy OK
No errors occurred
AccurateRip summary
Track 1 accurately ripped (confidence 1) [7233302C] (AR v2)Track 2 accurately ripped (confidence 1) [A40DB2B6] (AR v2)Track 3 accurately ripped (confidence 1) [A60BEE05] (AR v2)Track 4 accurately ripped (confidence 1) [148BEBBD] (AR v2)Track 5 accurately ripped (confidence 1) [12274164] (AR v2)Track 6 accurately ripped (confidence 1) [2073D7DD] (AR v2)Track 7 accurately ripped (confidence 1) [5019299A] (AR v2)Track 8 accurately ripped (confidence 1) [73D0F8CE] (AR v2)
All tracks accurately ripped
End of status report
==== Log checksum 6CD4ABD6F94DCCB55C19466FE2A26986BA1B56BCFE020A4BF2B6F0C9852BD16D ====

Информация об альбоме от Composer's fan

Что уж тут говорить - многие киноманы назовут Вам кучу примеров, когда продолжения оказывались хуже оригиналов.
Не избежал этой участи и второй фильм из серии Полтергейст. И если до сих пор однозначно считается классикой не только жанра, но и кинематографа в целом, про продолжения этого, увы, сказать нельзя. Хотя и у этого фильма есть свои любители.
В чем же дело, спросите вы. Может, в отсутствии Спилберга? Или в т.н. "Проклятии Полтергейста" (смерть актеров в процессе или по окончании съемок фильмов), которое явно "скомкало" концовку?
Кто знает, кто знает...
Можно сказать лишь одно - на качестве музыки ни один из перечисленных вариантов не сказался.
Джерри Голдсмит написал для второй части именно ту музыку, которая идеально подходила для картины. С одной стороны, это и возвращение к старым темам первого фильма, с другой - добавление новых мелодий (не могу не выделить "оменовскую" версию классического гимна God Is In His Holy Temple).
В партитуре Маэстро мы все чаще слышим синтезаторы (вновь обращаю внимание, что в первом фильме, где было столько невероятных звуков, вся музыка была записана исключительно "живыми" инструментами), которые еще больше усиливают восприятие музыки.
Ранее музыка ко второму Полтергейсту была доступна в трех вариантах - 29 минут он Интрады, вышедшие в 1986 году, затем они же выпустили более полную версию в 1993 году. 10 лет спустя Varese выпустили свою "Deluxe" версию. Но, как обычно бывает, пара треков из первого издания не попала на второй, пара треков из второго не попала в третий... Ну и по традиции, пара треков, звучащих в фильме, вообще не попала ни в одно из изданий.
Теперь все исправлено. ВСЯ музыка, как она звучит в фильме, + трек с игрушечным телефоном, + треки без хора, + только хор (чтобы разобрать, что же они поют).
-
[teatrix.ru].t10381.torrent 
Торрент: Зарегистрирован [ 2015-11-01 20:51 ] · 7C3D8ACBB57FD6EF0BE41C233501A59A133CF777

Скачать .torrent

Скачать

21 KB

Статус: проверено
Скачан: 1 раз
Размер: 504 MB
terms.php



Быстрый ответ

Имя:

      
Для отправки сообщений необходимо включить JavaScript
Показать сообщения:    

Текущее время: 04-Дек 13:15

Часовой пояс: UTC + 3


Вы можете начинать темы
Вы можете отвечать на сообщения
Вы не можете редактировать свои сообщения
Вы не можете удалять свои сообщения
Вы не можете голосовать в опросах
Вы не можете прикреплять файлы к сообщениям
Вы можете скачивать файлы