(Score) Идеальный муж / An Ideal Husband (by Charlie Mole) - 1999, FLAC (tracks+.cue), lossless


Статистика раздачи [Обновить пиров]
Размер:  265 MB   |    Зарегистрирован:  1 год 1 месяц   |    Скачан:  0 раз

Полного источника не было: Никогда

 
   
 
 
 

[Цитировать]

Идеальный муж / An Ideal Husband-Жанр: Score
Композитор: Charlie Mole
Год выпуска диска: 1999
Производитель диска: Disctronics Manufacturing, UK
Издатель (лейбл): BMG Soundtracks
Номер по каталогу: 74321 669222-Аудиокодек: FLAC (*.flac)
Тип рипа: tracks+.cue
Битрейт аудио: lossless
Продолжительность: 00:50:03
Источник: собственный рип
Наличие сканов в содержимом раздачи: да, 600dpi-Ссылки: Кинопоиск | IMDB | Wikipedia | SoundtrackCollector

Треклист

01. An ideal Husband [0:03:58.02]
02. An excellent Scheme [0:02:17.35]
03. Dance of the Mandolins (Serenade des Mandolins) [0:01:50.43]
04. The Ballroom [0:03:18.60]
05. The Music Room [0:00:58.37]
06. Robert and Gertrude [0:02:15.08]
07. Imperfect Past [0:01:01.30]
08. The Gospel of Gold [0:02:57.70]
09. First Night Party [0:03:01.22]
10. "Until Tonight!" [0:01:35.48]
11. The worst is yet to come [0:03:35.62]
12. Arthur's House [0:02:29.30]
13. Creatures of Compromise [0:02:01.05]
14. Arrival at Parliament [0:01:01.50]
15. Robert's Speech [0:02:11.15]
16. A Parting Gift [0:03:09.45]
17. The London Season [0:01:22.73]
18. "Is it a Proposal?" [0:01:18.37]
19. The Kiss [0:02:16.58]
20. Deceived [0:01:40.30]
21. "The Truth is I lied" (Serenade des Mandolins) [0:02:45.07]
22. The Wedding [0:02:56.63]

Лог создания рипа

Exact Audio Copy V1.0 beta 3 from 29. August 2011
EAC extraction logfile from 27. October 2014, 21:52
Charlie Mole / An Ideal Husband
Used drive : PLEXTOR CD-R PX-230A Adapter: 1 ID: 0
Read mode : SecureUtilize accurate stream : YesDefeat audio cache : YesMake use of C2 pointers : No
Read offset correction : 738Overread into Lead-In and Lead-Out : NoFill up missing offset samples with silence : YesDelete leading and trailing silent blocks : NoNull samples used in CRC calculations : YesUsed interface : Native Win32 interface for Win NT & 2000Gap handling : Appended to previous track
Used output format : User Defined EncoderSelected bitrate : 896 kBit/sQuality : HighAdd ID3 tag : NoCommand line compressor : C:\Program Files\Exact Audio Copy\FLAC\FLAC.EXEAdditional command line options : -6 -V -T "ARTIST=%artist%" -T "TITLE=%title%" -T "ALBUM=%albumtitle%" -T "DATE=%year%"-T "TRACKNUMBER=%tracknr%" -T "GENRE=%genre%" -T "COMMENT=%comment%" -T "ALBUMARTIST=%albuminterpret%" -T "COMPOSER=%composer%"-T "DISCNUMBER=%cdnumber%" -T "TOTALDISCS=%totalcds%" -T "TOTALTRACKS=%numtracks%" %source% -o %dest%
TOC of the extracted CD
Track | Start | Length | Start sector | End sector --------------------------------------------------------- 1 | 0:00.00 | 3:58.02 | 0 | 17851 2 | 3:58.02 | 2:17.35 | 17852 | 28161 3 | 6:15.37 | 1:50.43 | 28162 | 36454 4 | 8:06.05 | 3:18.60 | 36455 | 51364 5 | 11:24.65 | 0:58.37 | 51365 | 55751 6 | 12:23.27 | 2:15.08 | 55752 | 65884 7 | 14:38.35 | 1:01.30 | 65885 | 70489 8 | 15:39.65 | 2:57.70 | 70490 | 83834 9 | 18:37.60 | 3:01.22 | 83835 | 97431 10 | 21:39.07 | 1:35.48 | 97432 | 104604 11 | 23:14.55 | 3:35.62 | 104605 | 120791 12 | 26:50.42 | 2:29.30 | 120792 | 131996 13 | 29:19.72 | 2:01.05 | 131997 | 141076 14 | 31:21.02 | 1:01.50 | 141077 | 145701 15 | 32:22.52 | 2:11.15 | 145702 | 155541 16 | 34:33.67 | 3:09.45 | 155542 | 169761 17 | 37:43.37 | 1:22.73 | 169762 | 175984 18 | 39:06.35 | 1:18.37 | 175985 | 181871 19 | 40:24.72 | 2:16.58 | 181872 | 192129 20 | 42:41.55 | 1:40.30 | 192130 | 199659 21 | 44:22.10 | 2:45.07 | 199660 | 212041 22 | 47:07.17 | 2:56.63 | 212042 | 225304
Track 1
Filename C:\Music\01 - Charlie Mole - An ideal Husband.wav
Pre-gap length 0:00:02.00
Peak level 78.4 % Extraction speed 4.3 X Track quality 99.9 % Test CRC 19B360C6 Copy CRC 19B360C6 Accurately ripped (confidence 1) [A50CAE01] (AR v2) Copy OK
Track 2
Filename C:\Music\02 - Charlie Mole - An excellent Scheme.wav
Pre-gap length 0:00:00.42
Peak level 61.3 % Extraction speed 3.9 X Track quality 99.9 % Test CRC 5E505D01 Copy CRC 5E505D01 Accurately ripped (confidence 1) [6594165F] (AR v2) Copy OK
Track 3
Filename C:\Music\03 - Charlie Mole - Dance of the Mandolins (Serenade des Mandolins).wav
Pre-gap length 0:00:19.72
Peak level 72.9 % Extraction speed 3.1 X Track quality 99.9 % Test CRC 3C4E7BB5 Copy CRC 3C4E7BB5 Accurately ripped (confidence 1) [0A5B3D38] (AR v2) Copy OK
Track 4
Filename C:\Music\04 - Charlie Mole - The Ballroom.wav
Pre-gap length 0:00:00.45
Peak level 68.2 % Extraction speed 5.0 X Track quality 100.0 % Test CRC 9657F2BE Copy CRC 9657F2BE Accurately ripped (confidence 1) [104CBFCC] (AR v2) Copy OK
Track 5
Filename C:\Music\05 - Charlie Mole - The Music Room.wav
Peak level 53.3 % Extraction speed 4.2 X Track quality 100.0 % Test CRC DA75B360 Copy CRC DA75B360 Accurately ripped (confidence 1) [716D257A] (AR v2) Copy OK
Track 6
Filename C:\Music\06 - Charlie Mole - Robert and Gertrude.wav
Pre-gap length 0:00:01.32
Peak level 70.6 % Extraction speed 4.2 X Track quality 99.9 % Test CRC 501B92BE Copy CRC 501B92BE Accurately ripped (confidence 1) [E83897C0] (AR v2) Copy OK
Track 7
Filename C:\Music\07 - Charlie Mole - Imperfect Past.wav
Pre-gap length 0:00:21.03
Peak level 74.8 % Extraction speed 3.1 X Track quality 99.8 % Test CRC 4A1651AB Copy CRC 4A1651AB Accurately ripped (confidence 1) [68A282F2] (AR v2) Copy OK
Track 8
Filename C:\Music\08 - Charlie Mole - The Gospel of Gold.wav
Pre-gap length 0:00:01.70
Peak level 45.1 % Extraction speed 4.6 X Track quality 99.9 % Test CRC BC5ABB09 Copy CRC BC5ABB09 Accurately ripped (confidence 1) [FD67A92E] (AR v2) Copy OK
Track 9
Filename C:\Music\09 - Charlie Mole - First Night Party.wav
Pre-gap length 0:00:01.45
Peak level 51.7 % Extraction speed 4.2 X Track quality 100.0 % Test CRC 9F0C649B Copy CRC 9F0C649B Accurately ripped (confidence 1) [73631012] (AR v2) Copy OK
Track 10
Filename C:\Music\10 - Charlie Mole - ''Until Tonight!''.wav
Pre-gap length 0:00:10.15
Peak level 58.5 % Extraction speed 4.7 X Track quality 100.0 % Test CRC C75B4550 Copy CRC C75B4550 Accurately ripped (confidence 1) [61A3B39D] (AR v2) Copy OK
Track 11
Filename C:\Music\11 - Charlie Mole - The worst is yet to come.wav
Pre-gap length 0:00:01.65
Peak level 74.1 % Extraction speed 5.3 X Track quality 100.0 % Test CRC 73C61A33 Copy CRC 73C61A33 Accurately ripped (confidence 1) [C1707DA9] (AR v2) Copy OK
Track 12
Filename C:\Music\12 - Charlie Mole - Arthur's House.wav
Pre-gap length 0:00:01.47
Peak level 98.7 % Extraction speed 3.9 X Track quality 99.9 % Test CRC C43C0D7D Copy CRC C43C0D7D Accurately ripped (confidence 1) [BFA9D6FF] (AR v2) Copy OK
Track 13
Filename C:\Music\13 - Charlie Mole - Creatures of Compromise.wav
Pre-gap length 0:00:01.25
Peak level 54.2 % Extraction speed 3.2 X Track quality 100.0 % Test CRC 64DF0C29 Copy CRC 64DF0C29 Accurately ripped (confidence 1) [0E5C7FBD] (AR v2) Copy OK
Track 14
Filename C:\Music\14 - Charlie Mole - Arrival at Parliament.wav
Pre-gap length 0:00:01.15
Peak level 67.2 % Extraction speed 3.9 X Track quality 100.0 % Test CRC 54E817A6 Copy CRC 54E817A6 Accurately ripped (confidence 1) [04720377] (AR v2) Copy OK
Track 15
Filename C:\Music\15 - Charlie Mole - Robert's Speech.wav
Peak level 77.8 % Extraction speed 5.0 X Track quality 100.0 % Test CRC 08875A0D Copy CRC 08875A0D Accurately ripped (confidence 1) [0B051BC4] (AR v2) Copy OK
Track 16
Filename C:\Music\16 - Charlie Mole - A Parting Gift.wav
Pre-gap length 0:00:01.47
Peak level 58.7 % Extraction speed 4.5 X Track quality 100.0 % Test CRC 3483A285 Copy CRC 3483A285 Accurately ripped (confidence 1) [1DE53024] (AR v2) Copy OK
Track 17
Filename C:\Music\17 - Charlie Mole - The London Season.wav
Pre-gap length 0:00:10.42
Peak level 68.9 % Extraction speed 3.1 X Track quality 99.8 % Test CRC C7FD13BD Copy CRC C7FD13BD Accurately ripped (confidence 1) [3AA69E33] (AR v2) Copy OK
Track 18
Filename C:\Music\18 - Charlie Mole - ''Is it a Proposal''.wav
Pre-gap length 0:00:01.50
Peak level 74.3 % Extraction speed 3.5 X Track quality 100.0 % Test CRC A11B4FED Copy CRC A11B4FED Accurately ripped (confidence 1) [0A0542C2] (AR v2) Copy OK
Track 19
Filename C:\Music\19 - Charlie Mole - The Kiss.wav
Pre-gap length 0:00:01.52
Peak level 60.2 % Extraction speed 3.3 X Track quality 99.9 % Test CRC D73CB770 Copy CRC D73CB770 Accurately ripped (confidence 1) [39E754F3] (AR v2) Copy OK
Track 20
Filename C:\Music\20 - Charlie Mole - Deceived.wav
Pre-gap length 0:00:01.48
Peak level 39.8 % Extraction speed 4.9 X Track quality 100.0 % Test CRC BF2C9940 Copy CRC BF2C9940 Accurately ripped (confidence 1) [79FF8A7C] (AR v2) Copy OK
Track 21
Filename C:\Music\21 - Charlie Mole - ''The Truth is I lied'' (Serenade des Mandolins).wav
Pre-gap length 0:00:24.33
Peak level 57.4 % Extraction speed 4.0 X Track quality 100.0 % Test CRC D5AF921F Copy CRC D5AF921F Accurately ripped (confidence 1) [32EC13DF] (AR v2) Copy OK
Track 22
Filename C:\Music\22 - Charlie Mole - The Wedding.wav
Peak level 85.6 % Extraction speed 4.1 X Track quality 100.0 % Test CRC FE07A96A Copy CRC FE07A96A Accurately ripped (confidence 1) [24440941] (AR v2) Copy OK
All tracks accurately ripped
No errors occurred
End of status report
==== Log checksum A9867BB4AF5F57839B86F6790424B23C310484D327B889A32EC5CA0993166A4C ====

Содержание индексной карты (.CUE)

REM GENRE SoundtrackREM DATE 1999REM DISCID 460BBC16REM COMMENT "ExactAudioCopy v1.0b3"PERFORMER "Charlie Mole"TITLE "An Ideal Husband"FILE "01 - Charlie Mole - An ideal Husband.wav" WAVE TRACK 01 AUDIO TITLE "An ideal Husband" PERFORMER "Charlie Mole" INDEX 01 00:00:00 TRACK 02 AUDIO TITLE "An excellent Scheme" PERFORMER "Charlie Mole" INDEX 00 03:57:35FILE "02 - Charlie Mole - An excellent Scheme.wav" WAVE INDEX 01 00:00:00 TRACK 03 AUDIO TITLE "Dance of the Mandolins (Serenade des Mandolins)" PERFORMER "Charlie Mole" INDEX 00 01:57:38FILE "03 - Charlie Mole - Dance of the Mandolins (Serenade des Mandolins).wav" WAVE INDEX 01 00:00:00 TRACK 04 AUDIO TITLE "The Ballroom" PERFORMER "Charlie Mole" INDEX 00 01:49:73FILE "04 - Charlie Mole - The Ballroom.wav" WAVE INDEX 01 00:00:00FILE "05 - Charlie Mole - The Music Room.wav" WAVE TRACK 05 AUDIO TITLE "The Music Room" PERFORMER "Charlie Mole" INDEX 01 00:00:00 TRACK 06 AUDIO TITLE "Robert and Gertrude" PERFORMER "Charlie Mole" INDEX 00 00:57:05FILE "06 - Charlie Mole - Robert and Gertrude.wav" WAVE INDEX 01 00:00:00 TRACK 07 AUDIO TITLE "Imperfect Past" PERFORMER "Charlie Mole" INDEX 00 01:54:05FILE "07 - Charlie Mole - Imperfect Past.wav" WAVE INDEX 01 00:00:00 TRACK 08 AUDIO TITLE "The Gospel of Gold" PERFORMER "Charlie Mole" INDEX 00 00:59:35FILE "08 - Charlie Mole - The Gospel of Gold.wav" WAVE INDEX 01 00:00:00 TRACK 09 AUDIO TITLE "First Night Party" PERFORMER "Charlie Mole" INDEX 00 02:56:25FILE "09 - Charlie Mole - First Night Party.wav" WAVE INDEX 01 00:00:00 TRACK 10 AUDIO TITLE "'Until Tonight!'" PERFORMER "Charlie Mole" INDEX 00 02:51:07FILE "10 - Charlie Mole - ''Until Tonight!''.wav" WAVE INDEX 01 00:00:00 TRACK 11 AUDIO TITLE "The worst is yet to come" PERFORMER "Charlie Mole" INDEX 00 01:33:58FILE "11 - Charlie Mole - The worst is yet to come.wav" WAVE INDEX 01 00:00:00 TRACK 12 AUDIO TITLE "Arthur's House" PERFORMER "Charlie Mole" INDEX 00 03:34:15FILE "12 - Charlie Mole - Arthur's House.wav" WAVE INDEX 01 00:00:00 TRACK 13 AUDIO TITLE "Creatures of Compromise" PERFORMER "Charlie Mole" INDEX 00 02:28:05FILE "13 - Charlie Mole - Creatures of Compromise.wav" WAVE INDEX 01 00:00:00 TRACK 14 AUDIO TITLE "Arrival at Parliament" PERFORMER "Charlie Mole" INDEX 00 01:59:65FILE "14 - Charlie Mole - Arrival at Parliament.wav" WAVE INDEX 01 00:00:00FILE "15 - Charlie Mole - Robert's Speech.wav" WAVE TRACK 15 AUDIO TITLE "Robert's Speech" PERFORMER "Charlie Mole" INDEX 01 00:00:00 TRACK 16 AUDIO TITLE "A Parting Gift" PERFORMER "Charlie Mole" INDEX 00 02:09:43FILE "16 - Charlie Mole - A Parting Gift.wav" WAVE INDEX 01 00:00:00 TRACK 17 AUDIO TITLE "The London Season" PERFORMER "Charlie Mole" INDEX 00 02:59:03FILE "17 - Charlie Mole - The London Season.wav" WAVE INDEX 01 00:00:00 TRACK 18 AUDIO TITLE "'Is it a Proposal?'" PERFORMER "Charlie Mole" INDEX 00 01:21:23FILE "18 - Charlie Mole - ''Is it a Proposal''.wav" WAVE INDEX 01 00:00:00 TRACK 19 AUDIO TITLE "The Kiss" PERFORMER "Charlie Mole" INDEX 00 01:16:60FILE "19 - Charlie Mole - The Kiss.wav" WAVE INDEX 01 00:00:00 TRACK 20 AUDIO TITLE "Deceived" PERFORMER "Charlie Mole" INDEX 00 02:15:10FILE "20 - Charlie Mole - Deceived.wav" WAVE INDEX 01 00:00:00 TRACK 21 AUDIO TITLE "'The Truth is I lied' (Serenade des Mandolins)" PERFORMER "Charlie Mole" INDEX 00 01:15:72FILE "21 - Charlie Mole - ''The Truth is I lied'' (Serenade des Mandolins).wav" WAVE INDEX 01 00:00:00FILE "22 - Charlie Mole - The Wedding.wav" WAVE TRACK 22 AUDIO TITLE "The Wedding" PERFORMER "Charlie Mole" INDEX 01 00:00:00
[teatrix.ru].t10382.torrent 
Торрент: Зарегистрирован [ 2015-11-01 20:51 ] · E04F3C69C3EE4D0B5C6DBDF02CD85D8387BF572B

Скачать .torrent

Скачать

23 KB

Статус: проверено
Скачан: 0 раз
Размер: 265 MB
terms.php



Быстрый ответ

Имя:

      
Для отправки сообщений необходимо включить JavaScript
Показать сообщения:    

Текущее время: 03-Дек 22:46

Часовой пояс: UTC + 3


Вы можете начинать темы
Вы можете отвечать на сообщения
Вы не можете редактировать свои сообщения
Вы не можете удалять свои сообщения
Вы не можете голосовать в опросах
Вы не можете прикреплять файлы к сообщениям
Вы можете скачивать файлы