(Soundtrack) Любимцы Америки / America's Sweethearts - 2001, FLAC (tracks+.cue), lossless


Статистика раздачи [Обновить пиров]
Размер:  341 MB   |    Зарегистрирован:  1 год 1 месяц   |    Скачан:  0 раз

Полного источника не было: Никогда

 
   
 
 
 

[Цитировать]

Любимцы Америки / America's Sweethearts-Жанр: Soundtrack
Год выпуска диска: 2001
Производитель диска: USA
Издатель (лейбл): Atlantic
Номер по каталогу: 7567-83495-2-Аудиокодек: FLAC (*.flac)
Тип рипа: tracks+.cue
Битрейт аудио: lossless
Продолжительность: 00:48:43
Источник: what.cd / dirto
Наличие сканов в содержимом раздачи: да

Треклист

01. Kelly Levesque - Some Hearts (4:05)
02. The Corrs - All The Love In The World [Remix] (3:57)
03. Clara's Star - Walk With Me (3:29)
04. Geri Halliwell - Perhaps, Perhaps, Perhaps (2:22)
05. Scapegoat Wax - Space To Share (4:08)
06. Franky X Perez - American Classic (4:50)
07. Mark Knopfler - Gravy Train (4:39)
08. Invertigo - Chances Are (3:58)
09. Anika Moa - Falling In Love Again (3:50)
10. Doyle Bramhall II & Smokestack - Send Some Love (3:52)
11. Bekka Bramlett - We All Fall Down (4:31)
12. James Newton Howard - Those Were Good Times [Orchestral Suite] (5:02)

Лог создания рипа

X Lossless Decoder version 20120226 (139.1)
XLD extraction logfile from 2012-03-29 00:24:04 +0000
Various Artists / America's Sweethearts
Used drive : HL-DT-ST DVDRW GA32N (revision KE06)
Ripper mode : XLD Secure RipperDisable audio cache : OK for the drive with a cache less than 1375KiBMake use of C2 pointers : NORead offset correction : 103Max retry count : 100Gap status : Analyzed, Appended
TOC of the extracted CD Track | Start | Length | Start sector | End sector --------------------------------------------------------- 1 | 00:00:00 | 04:05:27 | 0 | 18401 2 | 04:05:27 | 03:56:73 | 18402 | 36174 3 | 08:02:25 | 03:28:65 | 36175 | 51839 4 | 11:31:15 | 02:21:52 | 51840 | 62466 5 | 13:52:67 | 04:08:30 | 62467 | 81096 6 | 18:01:22 | 04:50:10 | 81097 | 102856 7 | 22:51:32 | 04:39:23 | 102857 | 123804 8 | 27:30:55 | 03:58:02 | 123805 | 141656 9 | 31:28:57 | 03:49:68 | 141657 | 158899 10 | 35:18:50 | 03:52:07 | 158900 | 176306 11 | 39:10:57 | 04:30:43 | 176307 | 196599 12 | 43:41:25 | 05:01:70 | 196600 | 219244
AccurateRip Summary Track 01 : OK (AR2, confidence 1) Track 02 : OK (AR2, confidence 1) Track 03 : OK (AR2, confidence 1) Track 04 : OK (AR2, confidence 1) Track 05 : OK (AR2, confidence 1) Track 06 : OK (AR2, confidence 1) Track 07 : OK (AR2, confidence 1) Track 08 : OK (AR2, confidence 1) Track 09 : OK (AR2, confidence 1) Track 10 : OK (AR2, confidence 1) Track 11 : OK (AR2, confidence 1) Track 12 : OK (AR2, confidence 1) ->All tracks accurately ripped.
All Tracks Album gain : -9.23 dB Peak : 0.999969 Statistics Read error : 0 Jitter error (maybe fixed) : 0 Retry sector count : 0 Damaged sector count : 0
Track 01 Filename : /Volumes/HD/Uploads/what.cd/VA - America's Sweethearts (2001) [FLAC]/01 Kelly Levesque - Some Hearts.flac Pre-gap length : 00:02:00
Track gain : -11.55 dB Peak : 0.999969 CRC32 hash (test run) : 905E3EA5 CRC32 hash : 905E3EA5 CRC32 hash (skip zero) : 2E62C187 AccurateRip signature : DD8CADDD ->Accurately ripped! (AR2, confidence 1) Statistics Read error : 0 Jitter error (maybe fixed) : 0 Retry sector count : 0 Damaged sector count : 0
Track 02 Filename : /Volumes/HD/Uploads/what.cd/VA - America's Sweethearts (2001) [FLAC]/02 The Corrs - All the Love in the World (remix).flac Pre-gap length : 00:00:10
Track gain : -9.34 dB Peak : 0.960419 CRC32 hash (test run) : 6D716953 CRC32 hash : 6D716953 CRC32 hash (skip zero) : 8D908FDE AccurateRip signature : 87BFE463 ->Accurately ripped! (AR2, confidence 1) Statistics Read error : 0 Jitter error (maybe fixed) : 0 Retry sector count : 0 Damaged sector count : 0
Track 03 Filename : /Volumes/HD/Uploads/what.cd/VA - America's Sweethearts (2001) [FLAC]/03 Clara's Star - Walk with Me.flac Pre-gap length : 00:01:58
Track gain : -9.08 dB Peak : 0.999969 CRC32 hash (test run) : B293F36B CRC32 hash : B293F36B CRC32 hash (skip zero) : 97AF01B7 AccurateRip signature : 22D7F241 ->Accurately ripped! (AR2, confidence 1) Statistics Read error : 0 Jitter error (maybe fixed) : 0 Retry sector count : 0 Damaged sector count : 0
Track 04 Filename : /Volumes/HD/Uploads/what.cd/VA - America's Sweethearts (2001) [FLAC]/04 Geri Halliwell - Perhaps, Perhaps, Perhaps.flac Pre-gap length : 00:03:10
Track gain : -7.92 dB Peak : 0.999969 CRC32 hash (test run) : 9D3E06F8 CRC32 hash : 9D3E06F8 CRC32 hash (skip zero) : F26C1B9E AccurateRip signature : A74B6076 ->Accurately ripped! (AR2, confidence 1) Statistics Read error : 0 Jitter error (maybe fixed) : 0 Retry sector count : 0 Damaged sector count : 0
Track 05 Filename : /Volumes/HD/Uploads/what.cd/VA - America's Sweethearts (2001) [FLAC]/05 Scapegoat Wax - Space to Share.flac Pre-gap length : 00:02:22
Track gain : -7.23 dB Peak : 0.999969 CRC32 hash (test run) : 9F6F47E7 CRC32 hash : 9F6F47E7 CRC32 hash (skip zero) : ED2A44BF AccurateRip signature : 70C7AF6A ->Accurately ripped! (AR2, confidence 1) Statistics Read error : 0 Jitter error (maybe fixed) : 0 Retry sector count : 0 Damaged sector count : 0
Track 06 Filename : /Volumes/HD/Uploads/what.cd/VA - America's Sweethearts (2001) [FLAC]/06 Franky X Perez - American Classic.flac Pre-gap length : 00:02:46
Track gain : -8.95 dB Peak : 0.999969 CRC32 hash (test run) : 5619056E CRC32 hash : 5619056E CRC32 hash (skip zero) : D86EA4FE AccurateRip signature : EAC384D5 ->Accurately ripped! (AR2, confidence 1) Statistics Read error : 0 Jitter error (maybe fixed) : 0 Retry sector count : 0 Damaged sector count : 0
Track 07 Filename : /Volumes/HD/Uploads/what.cd/VA - America's Sweethearts (2001) [FLAC]/07 Mark Knopfler - Gravy Train.flac Pre-gap length : 00:01:12
Track gain : -9.10 dB Peak : 0.999969 CRC32 hash (test run) : F7A06379 CRC32 hash : F7A06379 CRC32 hash (skip zero) : 6C22D6AF AccurateRip signature : 7AACB001 ->Accurately ripped! (AR2, confidence 1) Statistics Read error : 0 Jitter error (maybe fixed) : 0 Retry sector count : 0 Damaged sector count : 0
Track 08 Filename : /Volumes/HD/Uploads/what.cd/VA - America's Sweethearts (2001) [FLAC]/08 Invertigo - Chances Are.flac Pre-gap length : 00:01:08
Track gain : -9.62 dB Peak : 0.999969 CRC32 hash (test run) : 7FAA1FC9 CRC32 hash : 7FAA1FC9 CRC32 hash (skip zero) : 815D1CA6 AccurateRip signature : 967ACD80 ->Accurately ripped! (AR2, confidence 1) Statistics Read error : 0 Jitter error (maybe fixed) : 0 Retry sector count : 0 Damaged sector count : 0
Track 09 Filename : /Volumes/HD/Uploads/what.cd/VA - America's Sweethearts (2001) [FLAC]/09 Anika Moa - Falling in Love Again.flac Pre-gap length : 00:01:42
Track gain : -7.76 dB Peak : 0.954407 CRC32 hash (test run) : 6AF89FB3 CRC32 hash : 6AF89FB3 CRC32 hash (skip zero) : 7748EE41 AccurateRip signature : CFF65ABB ->Accurately ripped! (AR2, confidence 1) Statistics Read error : 0 Jitter error (maybe fixed) : 0 Retry sector count : 0 Damaged sector count : 0
Track 10 Filename : /Volumes/HD/Uploads/what.cd/VA - America's Sweethearts (2001) [FLAC]/10 Doyle Bramhall II & Smokestack - Send Some Love.flac Pre-gap length : 00:01:53
Track gain : -9.08 dB Peak : 0.999969 CRC32 hash (test run) : E7936A8D CRC32 hash : E7936A8D CRC32 hash (skip zero) : DE2E3728 AccurateRip signature : 385DEACA ->Accurately ripped! (AR2, confidence 1) Statistics Read error : 0 Jitter error (maybe fixed) : 0 Retry sector count : 0 Damaged sector count : 0
Track 11 Filename : /Volumes/HD/Uploads/what.cd/VA - America's Sweethearts (2001) [FLAC]/11 Bekka Bramlett - We All Fall Down.flac Pre-gap length : 00:02:25
Track gain : -4.51 dB Peak : 0.999969 CRC32 hash (test run) : 2E6A2133 CRC32 hash : 2E6A2133 CRC32 hash (skip zero) : CD4C1832 AccurateRip signature : 33ED16AE ->Accurately ripped! (AR2, confidence 1) Statistics Read error : 0 Jitter error (maybe fixed) : 0 Retry sector count : 0 Damaged sector count : 0
Track 12 Filename : /Volumes/HD/Uploads/what.cd/VA - America's Sweethearts (2001) [FLAC]/12 James Newton Howard - Those Were Good Times (Orchestral Suite).flac Pre-gap length : 00:03:58
Track gain : -5.96 dB Peak : 0.999969 CRC32 hash (test run) : 5F2C760E CRC32 hash : 5F2C760E CRC32 hash (skip zero) : B2458E67 AccurateRip signature : 685562E1 ->Accurately ripped! (AR2, confidence 1) Statistics Read error : 0 Jitter error (maybe fixed) : 0 Retry sector count : 0 Damaged sector count : 0
No errors occurred
End of status report

Содержание индексной карты (.CUE)

TITLE "America's Sweethearts"PERFORMER "Various Artists"CATALOG 0075678349522REM GENRE "Soundtrack"REM DATE "2001-10-15"REM DISCNUMBER 1REM TOTALDISCS 1REM DISCID 980B6B0CREM REPLAYGAIN_ALBUM_GAIN -9.23 dBREM REPLAYGAIN_ALBUM_PEAK 0.999969FILE "01 Kelly Levesque - Some Hearts.flac" WAVE TRACK 01 AUDIO TITLE "Some Hearts" PERFORMER "Kelly Levesque" SONGWRITER "Diane Warren" ISRC USRE10101205 REM REPLAYGAIN_TRACK_GAIN -11.55 dB REM REPLAYGAIN_TRACK_PEAK 0.999969 INDEX 01 00:00:00 TRACK 02 AUDIO TITLE "All the Love in the World (remix)" PERFORMER "The Corrs" SONGWRITER "Andrea Corr, Caroline Corr, James Corr, Sharon Corr, R.J. Lange" ISRC USAT20102082 REM REPLAYGAIN_TRACK_GAIN -9.34 dB REM REPLAYGAIN_TRACK_PEAK 0.960419 INDEX 00 04:05:17FILE "02 The Corrs - All the Love in the World (remix).flac" WAVE INDEX 01 00:00:00 TRACK 03 AUDIO TITLE "Walk with Me" PERFORMER "Clara's Star" SONGWRITER "Keith Valpone, Walter Brandt, William Brandt" ISRC USAT20104456 REM REPLAYGAIN_TRACK_GAIN -9.08 dB REM REPLAYGAIN_TRACK_PEAK 0.999969 INDEX 00 03:55:15FILE "03 Clara's Star - Walk with Me.flac" WAVE INDEX 01 00:00:00 TRACK 04 AUDIO TITLE "Perhaps, Perhaps, Perhaps" PERFORMER "Geri Halliwell" SONGWRITER "Joseph Davies, Osvaldo Farres" ISRC GBAYE0000122 REM REPLAYGAIN_TRACK_GAIN -7.92 dB REM REPLAYGAIN_TRACK_PEAK 0.999969 INDEX 00 03:25:55FILE "04 Geri Halliwell - Perhaps, Perhaps, Perhaps.flac" WAVE INDEX 01 00:00:00 TRACK 05 AUDIO TITLE "Space to Share" PERFORMER "Scapegoat Wax" SONGWRITER "Marty James, Eric Valentine" ISRC USGRR0000034 REM REPLAYGAIN_TRACK_GAIN -7.23 dB REM REPLAYGAIN_TRACK_PEAK 0.999969 INDEX 00 02:19:30FILE "05 Scapegoat Wax - Space to Share.flac" WAVE INDEX 01 00:00:00 TRACK 06 AUDIO TITLE "American Classic" PERFORMER "Franky X Perez" SONGWRITER "Franky X Perez" ISRC USAT20104457 REM REPLAYGAIN_TRACK_GAIN -8.95 dB REM REPLAYGAIN_TRACK_PEAK 0.999969 INDEX 00 04:05:59FILE "06 Franky X Perez - American Classic.flac" WAVE INDEX 01 00:00:00 TRACK 07 AUDIO TITLE "Gravy Train" PERFORMER "Mark Knopfler" SONGWRITER "Mark Knopfler" ISRC GBF089600008 REM REPLAYGAIN_TRACK_GAIN -9.10 dB REM REPLAYGAIN_TRACK_PEAK 0.999969 INDEX 00 04:48:73FILE "07 Mark Knopfler - Gravy Train.flac" WAVE INDEX 01 00:00:00 TRACK 08 AUDIO TITLE "Chances Are" PERFORMER "Invertigo" SONGWRITER "Vincent Leigh, James Leigh" ISRC USAT20104357 REM REPLAYGAIN_TRACK_GAIN -9.62 dB REM REPLAYGAIN_TRACK_PEAK 0.999969 INDEX 00 04:38:15FILE "08 Invertigo - Chances Are.flac" WAVE INDEX 01 00:00:00 TRACK 09 AUDIO TITLE "Falling in Love Again" PERFORMER "Anika Moa" SONGWRITER "Anika Moa, James Reid" ISRC USAT20104455 REM REPLAYGAIN_TRACK_GAIN -7.76 dB REM REPLAYGAIN_TRACK_PEAK 0.954407 INDEX 00 03:56:35FILE "09 Anika Moa - Falling in Love Again.flac" WAVE INDEX 01 00:00:00 TRACK 10 AUDIO TITLE "Send Some Love" PERFORMER "Doyle Bramhall II & Smokestack" SONGWRITER "Doyle Bramhall II" ISRC USRC10100962 REM REPLAYGAIN_TRACK_GAIN -9.08 dB REM REPLAYGAIN_TRACK_PEAK 0.999969 INDEX 00 03:48:15FILE "10 Doyle Bramhall II & Smokestack - Send Some Love.flac" WAVE INDEX 01 00:00:00 TRACK 11 AUDIO TITLE "We All Fall Down" PERFORMER "Bekka Bramlett" SONGWRITER "Annie Roboff" ISRC USAT20104352 REM REPLAYGAIN_TRACK_GAIN -4.51 dB REM REPLAYGAIN_TRACK_PEAK 0.999969 INDEX 00 03:49:57FILE "11 Bekka Bramlett - We All Fall Down.flac" WAVE INDEX 01 00:00:00 TRACK 12 AUDIO TITLE "Those Were Good Times (Orchestral Suite)" PERFORMER "James Newton Howard" SONGWRITER "James Newton Howard" ISRC USAT20104353 REM REPLAYGAIN_TRACK_GAIN -5.96 dB REM REPLAYGAIN_TRACK_PEAK 0.999969 INDEX 00 04:26:60FILE "12 James Newton Howard - Those Were Good Times (Orchestral Suite).flac" WAVE INDEX 01 00:00:00
[teatrix.ru].t10383.torrent 
Торрент: Зарегистрирован [ 2015-11-01 20:51 ] · 0DF937BC68E3DBF62FB29D1B599B2D05D491A817

Скачать .torrent

Скачать

15 KB

Статус: проверено
Скачан: 0 раз
Размер: 341 MB
terms.php



Быстрый ответ

Имя:

      
Для отправки сообщений необходимо включить JavaScript
Показать сообщения:    

Текущее время: 03-Дек 18:43

Часовой пояс: UTC + 3


Вы можете начинать темы
Вы можете отвечать на сообщения
Вы не можете редактировать свои сообщения
Вы не можете удалять свои сообщения
Вы не можете голосовать в опросах
Вы не можете прикреплять файлы к сообщениям
Вы можете скачивать файлы