(Soundtrack) Ходячие мертвецы / The Walking Dead, vol. 2 - 2014 (2010-2014), FLAC (tracks+.cue), lossless


Статистика раздачи [Обновить пиров]
Размер:  100 MB   |    Зарегистрирован:  1 год 1 месяц   |    Скачан:  2 раза

Полного источника не было: 1 месяц 15 дней

 
   
 
 
 

[Цитировать]

Ходячие мертвецы / The Walking Dead
Жанр: Soundtrack
Год выпуска диска: 2014
Год выпуска фильма: 2010-2014
Страна-производитель диска: USA
Издатель (лейбл): Universal Republic Records
Номер по каталогу: B0020410-02
Аудиокодек: FLAC (*.flac)
Тип рипа: tracks+.cue
Битрейт аудио: lossless
Продолжительность: 17:28
Источник: what.cd
Наличие сканов в содержимом раздачи: нет
Треклист:

01. Portugal. The Man - Heavy Games (3:19)
02. Sharon Van Etten - Serpents (Basement) (4:11)
03. Lee Dewyze - Blackbird Song (4:16)
04. A.C. Newman - Be Not So Fearful (2:20)
05. Ben Nichols - This Old Death (3:23)

Лог создания рипа

Exact Audio Copy V1.0 beta 3 from 29. August 2011
EAC extraction logfile from 28. March 2014, 15:46
Various Artists / The Walking Dead, Original Soundtrack - Vol. 2
Used drive : Optiarc BD RW BD-5300S Adapter: 3 ID: 1
Read mode : SecureUtilize accurate stream : YesDefeat audio cache : YesMake use of C2 pointers : No
Read offset correction : 6Overread into Lead-In and Lead-Out : NoFill up missing offset samples with silence : YesDelete leading and trailing silent blocks : NoNull samples used in CRC calculations : YesUsed interface : Native Win32 interface for Win NT & 2000Gap handling : Appended to previous track
Used output format : User Defined EncoderSelected bitrate : 128 kBit/sQuality : HighAdd ID3 tag : YesCommand line compressor : C:\Program Files (x86)\Exact Audio Copy\Flac\flac.exeAdditional command line options : -V -8 -T "Genre=%genre%" -T "Artist=%artist%" -T "Title=%title%" -T "Album=%albumtitle%" -T "Date=%year%" -T "Tracknumber=%tracknr%" -T "Comment=%comment%" %source%
TOC of the extracted CD
Track | Start | Length | Start sector | End sector --------------------------------------------------------- 1 | 0:00.00 | 3:18.50 | 0 | 14899 2 | 3:18.50 | 4:10.41 | 14900 | 33690 3 | 7:29.16 | 4:16.23 | 33691 | 52913 4 | 11:45.39 | 2:19.62 | 52914 | 63400 5 | 14:05.26 | 3:23.16 | 63401 | 78641
Track 1
Filename D:\01 Portugal. The Man - Heavy Games.wav
Pre-gap length 0:00:02.00
Peak level 99.8 % Extraction speed 4.8 X Track quality 100.0 % Test CRC 76AFB70C Copy CRC 76AFB70C Track not present in AccurateRip database Copy OK
Track 2
Filename D:\02 Sharon Van Etten - Serpents (Basement).wav
Peak level 99.8 % Extraction speed 5.4 X Track quality 100.0 % Test CRC 3C9DC015 Copy CRC 3C9DC015 Track not present in AccurateRip database Copy OK
Track 3
Filename D:\03 Lee Dewyze - Blackbird Song.wav
Pre-gap length 0:00:01.45
Peak level 95.5 % Extraction speed 4.9 X Track quality 99.9 % Test CRC 979FCC4A Copy CRC 979FCC4A Track not present in AccurateRip database Copy OK
Track 4
Filename D:\04 A.C. Newman - Be Not So Fearful.wav
Pre-gap length 0:00:01.45
Peak level 89.1 % Extraction speed 5.4 X Track quality 100.0 % Test CRC B42461D6 Copy CRC B42461D6 Track not present in AccurateRip database Copy OK
Track 5
Filename D:\05 Ben Nichols - This Old Death.wav
Pre-gap length 0:00:01.11
Peak level 96.5 % Extraction speed 4.9 X Track quality 99.9 % Test CRC 4C3D186F Copy CRC 4C3D186F Track not present in AccurateRip database Copy OK
None of the tracks are present in the AccurateRip database
No errors occurred
End of status report
==== Log checksum 6B0D496FAE0E39D888E1C0780C63A38F69B67C78DBC9F2C813C7D3AFBBE2339F ====

Содержание индексной карты (.CUE)

REM GENRE SoundtrackREM DATE 2014REM DISCID 2F041805REM COMMENT "ExactAudioCopy v1.0b3"CATALOG 0602537781515PERFORMER "Various Artists"TITLE "The Walking Dead, Original Soundtrack - Vol. 2"FILE "01 Portugal. The Man - Heavy Games.wav" WAVE TRACK 01 AUDIO TITLE "Heavy Games" PERFORMER "Portugal. The Man" ISRC USAT21400748 INDEX 01 00:00:00FILE "02 Sharon Van Etten - Serpents (Basement).wav" WAVE TRACK 02 AUDIO TITLE "Serpents (Basement)" PERFORMER "Sharon Van Etten" ISRC USUG11300865 INDEX 01 00:00:00 TRACK 03 AUDIO TITLE "Blackbird Song" PERFORMER "Lee Dewyze" ISRC USVG21403526 INDEX 00 04:08:71FILE "03 Lee Dewyze - Blackbird Song.wav" WAVE INDEX 01 00:00:00 TRACK 04 AUDIO TITLE "Be Not So Fearful" PERFORMER "A.C. Newman" ISRC USMTD1404790 INDEX 00 04:14:53FILE "04 A.C. Newman - Be Not So Fearful.wav" WAVE INDEX 01 00:00:00 TRACK 05 AUDIO TITLE "This Old Death" PERFORMER "Ben Nichols" ISRC QMAS71400001 INDEX 00 02:18:51FILE "05 Ben Nichols - This Old Death.wav" WAVE INDEX 01 00:00:00

Лог проверки качества

AUDIOCHECKER v2.0 beta (build 457) - by Dester - opdester@freemail.hu~~~~~~~~~~~~~~~~~~~~~~~~~~~~~~~~~~-=== НЕ РЕДАКТИРУЙТЕ ЭТОТ ФАЙЛ! ===-
Путь: ...\The Walking Dead - VA - 2014
1 -=- 01 Portugal. The Man - Heavy Games.flac -=- CDDA (100%)2 -=- 02 Sharon Van Etten - Serpents (Basement).flac -=- CDDA (100%)3 -=- 03 Lee Dewyze - Blackbird Song.flac -=- CDDA (100%)4 -=- 04 A.C. Newman - Be Not So Fearful.flac -=- CDDA (100%)5 -=- 05 Ben Nichols - This Old Death.flac -=- CDDA (99%)
Сводка 99,80% CDDA
41885572

CUETools log

[CUETools log; Date: 26.10.2014 20:48:41; Version: 2.1.2a][CTDB TOCID: xsiSQDoYJ2F.jcVmplTWRBsVI5c-] found. [ CTDBID ] Status [d685c2d6] (1/1) Accurately ripped[AccurateRip ID: 0003b75c-0011437b-2f041805] found.Track [ CRC ] Status 01 [07cd8e21] (0/5) No match but offset 02 [c4c09f26] (0/5) No match but offset 03 [1260c0f4] (0/5) No match but offset 04 [1e55e846] (0/5) No match but offset 05 [131be36a] (0/5) No match but offsetAccurateRip v2: 01 [c3f8047e] (5/5) Accurately ripped 02 [cf89e429] (5/5) Accurately ripped 03 [0b91231d] (5/5) Accurately ripped 04 [f817cb9e] (5/5) Accurately ripped 05 [b07cc672] (5/5) Accurately ripped
Track Peak [ CRC32 ] [W/O NULL] [ LOG ] -- 99,8 [AD648FDD] [30F21A3F] 01 99,8 [76AFB70C] [13BEA996] CRC32 02 99,8 [3C9DC015] [2BFAD5DE] CRC32 03 95,5 [979FCC4A] [517197DF] CRC32 04 89,1 [B42461D6] [D97860D8] CRC32 05 96,5 [4C3D186F] [36C642CA] CRC32
[teatrix.ru].t10387.torrent 
Торрент: Зарегистрирован [ 2015-11-01 20:51 ] · 00F172E1A146EEA17FAFBD627C49E46E1B1D3B66

Скачать .torrent

Скачать

17 KB

Статус: проверено
Скачан: 2 раз
Размер: 100 MB
terms.php



Быстрый ответ

Имя:

      
Для отправки сообщений необходимо включить JavaScript
Показать сообщения:    

Текущее время: 08-Дек 03:10

Часовой пояс: UTC + 3


Вы можете начинать темы
Вы можете отвечать на сообщения
Вы не можете редактировать свои сообщения
Вы не можете удалять свои сообщения
Вы не можете голосовать в опросах
Вы не можете прикреплять файлы к сообщениям
Вы можете скачивать файлы