(Score) Стрела / Arrow (by Blake Neely) - 2013 (2012), FLAC (tracks), lossless


Статистика раздачи [Обновить пиров]
Размер:  338 MB   |    Зарегистрирован:  1 год 1 месяц   |    Скачан:  0 раз

Полного источника не было: Никогда

 
   
 
 
 

[Цитировать]

Стрела / Arrow
Название альбома: Arrow - Original Television Soundtrack: Season 1
Жанр: Score
Композитор: Blake Neely
Год выпуска диска: 2013
Год выпуска фильма: 2012
Страна-производитель диска: USA
Издатель (лейбл): Water Tower Music
Номер по каталогу: 0794043172083
Аудиокодек: FLAC (*.flac)
Тип рипа: tracks
Битрейт аудио: lossless
Продолжительность: 114 minutes
Источник: Download
Наличие сканов в содержимом раздачи: нет
Треклист:
1. Five Years (1:54)
2. Returning Home / Scars (2:53)
3. City in Ruin (1:20)
4. Setting up the Lair (2:27)
5. Loss and Regrets (2:38)
6. On the List (1:40)
7. Vigilante Justice (2:10)
8. Honor Thy Father (1:45)
9. Inhospitable Island / Deathstroke (2:09)
10. I Forgot Who I Was (4:00)
11. Train and Hunt (2:38)
12. Betrayed by Those You Love (1:51)
13. Chasing the Hood (2:27)
14. Damaged (1:39)
15. The Dark Archer / It Is I Who Failed This City (3:31)
16. Working Together but Alone (1:53)
17. The Count (2:02)
18. Friends in Arms (2:36)
19. Trust but Verify (2:37)
20. Join Us (1:55)
21. Trusting a Friend, Saving an Enemy (1:57)
22. Sins of the Father (1:27)
23. I Can't Lose You Twice (3:17)
24. Search for Salvation (3:29)
25. Shado Sees an Emerging Hero (1:57)
26. Unfinished Business / Saving Walter (2:29)
27. A Way off the Island (2:15)
28. Sacrifice (4:52)
29. Oliver Queen Suite (47:)

Лог создания рипа

[CUETools log; Date: 10/20/2014 2:10:54 AM; Version: 2.1.5][CTDB TOCID: 7Tgae4cyTYhdniR0mJJaNZlE7bM-] found.Track | CTDB Status 1 | (3/3) Accurately ripped 2 | (3/3) Accurately ripped 3 | (3/3) Accurately ripped 4 | (3/3) Accurately ripped 5 | (3/3) Accurately ripped 6 | (3/3) Accurately ripped 7 | (3/3) Accurately ripped 8 | (3/3) Accurately ripped 9 | (3/3) Accurately ripped 10 | (3/3) Accurately ripped 11 | (3/3) Accurately ripped 12 | (3/3) Accurately ripped 13 | (3/3) Accurately ripped 14 | (3/3) Accurately ripped 15 | (3/3) Accurately ripped 16 | (3/3) Accurately ripped 17 | (3/3) Accurately ripped 18 | (3/3) Accurately ripped 19 | (3/3) Accurately ripped 20 | (3/3) Accurately ripped 21 | (3/3) Accurately ripped 22 | (3/3) Accurately ripped 23 | (3/3) Accurately ripped 24 | (3/3) Accurately ripped 25 | (3/3) Accurately ripped 26 | (3/3) Accurately ripped 27 | (3/3) Accurately ripped 28 | (3/3) Accurately ripped 29 | (3/3) Accurately ripped[AccurateRip ID: 004599a0-05af0855-9e123d1d] found.Track [ CRC | V2 ] Status 01 [9c6537b3|320ae886] (0+1/1) Accurately ripped 02 [ea70ab3d|5a862453] (0+1/1) Accurately ripped 03 [2b1909b9|4a17a8b7] (0+1/1) Accurately ripped 04 [37399979|e1787cc5] (0+1/1) Accurately ripped 05 [960a68e2|2ca2920f] (0+1/1) Accurately ripped 06 [8ed25386|f2eaffa6] (0+1/1) Accurately ripped 07 [51fa81b5|d35ed470] (0+1/1) Accurately ripped 08 [34828852|bcabac7c] (0+1/1) Accurately ripped 09 [ad00f81e|315ea5e7] (0+1/1) Accurately ripped 10 [01591f65|96164125] (0+1/1) Accurately ripped 11 [6ed4d931|a497500a] (0+1/1) Accurately ripped 12 [dfcfa93e|1d8decae] (0+1/1) Accurately ripped 13 [1d047411|648150dd] (0+1/1) Accurately ripped 14 [f269ee32|5cc6e175] (0+1/1) Accurately ripped 15 [8b04c2fe|d51d8462] (0+1/1) Accurately ripped 16 [5f9e66dc|6c6fc5cc] (0+1/1) Accurately ripped 17 [86cbba7f|9f5997a9] (0+1/1) Accurately ripped 18 [34739fab|1990afcb] (0+1/1) Accurately ripped 19 [ed642aa0|21fc359c] (0+1/1) Accurately ripped 20 [2840f43f|86f259ee] (0+1/1) Accurately ripped 21 [9be41c8d|1628af79] (0+1/1) Accurately ripped 22 [a9d2e497|af194e67] (0+1/1) Accurately ripped 23 [57da47dd|993edc76] (0+1/1) Accurately ripped 24 [11f2b086|f866547a] (0+1/1) Accurately ripped 25 [04eed636|a9d5e5a9] (0+1/1) Accurately ripped 26 [0ad03239|d7787038] (0+1/1) Accurately ripped 27 [0ebe5d46|3acc1b88] (0+1/1) Accurately ripped 28 [b5e8c8c4|2afa880a] (0+1/1) Accurately ripped 29 [69790f0f|bf260458] (0+1/1) Accurately ripped
Track Peak [ CRC32 ] [W/O NULL] -- 95.3 [58AD5ED1] [8BD16E2F] 01 94.0 [C82BC14B] [766E4BA7] 02 94.4 [F1A6468E] [74166CCD] 03 94.4 [D6CB93CF] [1AE1224D] 04 91.6 [74554637] [BEDE57F0] 05 94.6 [DF45917E] [E0238319] 06 93.3 [16FC7278] [A8E948BC] 07 93.4 [AEDBAF57] [D0B5C908] 08 37.0 [0387E815] [07B7933F] 09 94.6 [6A5138F9] [82DCB3CC] 10 94.4 [A1B8F1BE] [4BA9ABEF] 11 95.3 [FF13B45D] [DD229D11] 12 90.1 [3196A246] [B07448D5] 13 90.8 [76998047] [D005803B] 14 91.4 [1DB1C971] [04CA17D0] 15 93.5 [F7517D42] [6F7CC1C6] 16 79.2 [9EB7CF7B] [1AE682AD] 17 93.3 [AD1ED987] [76CD42BD] 18 93.6 [28A347F5] [5BF26C61] 19 93.4 [AFA6DCB0] [62703691] 20 93.3 [2802AF2F] [21CDE9FC] 21 93.4 [FE9D83FD] [6311E136] 22 93.3 [BF8427EC] [C5953CB2] 23 93.3 [4059A0FA] [A051AA21] 24 93.3 [62535BFE] [B558B808] 25 93.3 [9191D2E5] [6C9C9C2E] 26 91.5 [68F3B9AE] [A7F400DF] 27 93.3 [420C7891] [0180F060] 28 93.4 [6016FB8E] [61A7C64D] 29 94.3 [C9EE8FF1] [820D9687]

Содержание индексной карты (.CUE)

REM COMMENT "CUETools generated dummy CUE sheet"FILE "01. Five Years.flac" WAVE TRACK 01 AUDIO INDEX 01 00:00:00FILE "02. Returning Home ; Scars.flac" WAVE TRACK 02 AUDIO INDEX 01 00:00:00FILE "03. City In Ruin.flac" WAVE TRACK 03 AUDIO INDEX 01 00:00:00FILE "04. Setting Up the Lair.flac" WAVE TRACK 04 AUDIO INDEX 01 00:00:00FILE "05. Loss and Regrets.flac" WAVE TRACK 05 AUDIO INDEX 01 00:00:00FILE "06. On the List.flac" WAVE TRACK 06 AUDIO INDEX 01 00:00:00FILE "07. Vigilante Justice.flac" WAVE TRACK 07 AUDIO INDEX 01 00:00:00FILE "08. Honor Thy Father.flac" WAVE TRACK 08 AUDIO INDEX 01 00:00:00FILE "09. Inhospitable Island ; Deathstroke.flac" WAVE TRACK 09 AUDIO INDEX 01 00:00:00FILE "10. I Forgot Who I Was.flac" WAVE TRACK 10 AUDIO INDEX 01 00:00:00FILE "11. Train and Hunt.flac" WAVE TRACK 11 AUDIO INDEX 01 00:00:00FILE "12. Betrayed By Those You Love.flac" WAVE TRACK 12 AUDIO INDEX 01 00:00:00FILE "13. Chasing the Hood.flac" WAVE TRACK 13 AUDIO INDEX 01 00:00:00FILE "14. Damaged.flac" WAVE TRACK 14 AUDIO INDEX 01 00:00:00FILE "15. The Dark Archer ; It Is I Who Failed This City.flac" WAVE TRACK 15 AUDIO INDEX 01 00:00:00FILE "16. Working Together But Alone.flac" WAVE TRACK 16 AUDIO INDEX 01 00:00:00FILE "17. The Count.flac" WAVE TRACK 17 AUDIO INDEX 01 00:00:00FILE "18. Friends In Arms.flac" WAVE TRACK 18 AUDIO INDEX 01 00:00:00FILE "19. Trust But Verify.flac" WAVE TRACK 19 AUDIO INDEX 01 00:00:00FILE "20. Join Us.flac" WAVE TRACK 20 AUDIO INDEX 01 00:00:00FILE "21. Trusting a Friend, Saving an Enemy.flac" WAVE TRACK 21 AUDIO INDEX 01 00:00:00FILE "22. Sins of the Father.flac" WAVE TRACK 22 AUDIO INDEX 01 00:00:00FILE "23. I Can't Lose You Twice.flac" WAVE TRACK 23 AUDIO INDEX 01 00:00:00FILE "24. Search For Salvation.flac" WAVE TRACK 24 AUDIO INDEX 01 00:00:00FILE "25. Shado Sees an Emerging Hero.flac" WAVE TRACK 25 AUDIO INDEX 01 00:00:00FILE "26. Unfinished Business ; Saving Walter.flac" WAVE TRACK 26 AUDIO INDEX 01 00:00:00FILE "27. A Way Off the Island.flac" WAVE TRACK 27 AUDIO INDEX 01 00:00:00FILE "28. Sacrifice.flac" WAVE TRACK 28 AUDIO INDEX 01 00:00:00FILE "29. Oliver Queen Suite.flac" WAVE TRACK 29 AUDIO INDEX 01 00:00:00

Лог проверки качества

AUDIOCHECKER v2.0 beta (build 457) - by Dester - opdester@freemail.hu~~~~~~~~~~~~~~~~~~~~~~~~~~~~~~~~~~
Started at: Friday, 17. 10. 2014. - 0:39.5329 files found
01 -===- C:\Users\Desktop\Blake Neely - Arrow£ºSeason 1 (Original Television Soundtrack) (2013) [flac]\01. Five Years.flac Extracted successfully Conclusion: this track is CDDA with probability 100% Tempfile successfully deleted.
02 -===- C:\Users\Desktop\Blake Neely - Arrow£ºSeason 1 (Original Television Soundtrack) (2013) [flac]\02. Returning Home ; Scars.flac Extracted successfully Conclusion: this track is CDDA with probability 100% Tempfile successfully deleted.
03 -===- C:\Users\Desktop\Blake Neely - Arrow£ºSeason 1 (Original Television Soundtrack) (2013) [flac]\03. City In Ruin.flac Extracted successfully Conclusion: this track is CDDA with probability 100% Tempfile successfully deleted.
04 -===- C:\Users\Desktop\Blake Neely - Arrow£ºSeason 1 (Original Television Soundtrack) (2013) [flac]\04. Setting Up the Lair.flac Extracted successfully Conclusion: this track is CDDA with probability 100% Tempfile successfully deleted.
05 -===- C:\Users\Desktop\Blake Neely - Arrow£ºSeason 1 (Original Television Soundtrack) (2013) [flac]\05. Loss and Regrets.flac Extracted successfully Conclusion: this track is CDDA with probability 99% Tempfile successfully deleted.
06 -===- C:\Users\Desktop\Blake Neely - Arrow£ºSeason 1 (Original Television Soundtrack) (2013) [flac]\06. On the List.flac Extracted successfully Conclusion: this track is CDDA with probability 100% Tempfile successfully deleted.
07 -===- C:\Users\Desktop\Blake Neely - Arrow£ºSeason 1 (Original Television Soundtrack) (2013) [flac]\07. Vigilante Justice.flac Extracted successfully Conclusion: this track is CDDA with probability 100% Tempfile successfully deleted.
08 -===- C:\Users\Desktop\Blake Neely - Arrow£ºSeason 1 (Original Television Soundtrack) (2013) [flac]\08. Honor Thy Father.flac Extracted successfully Conclusion: this track is CDDA with probability 100% Tempfile successfully deleted.
09 -===- C:\Users\Desktop\Blake Neely - Arrow£ºSeason 1 (Original Television Soundtrack) (2013) [flac]\09. Inhospitable Island ; Deathstroke.flac Extracted successfully Conclusion: this track is CDDA with probability 100% Tempfile successfully deleted.
10 -===- C:\Users\Desktop\Blake Neely - Arrow£ºSeason 1 (Original Television Soundtrack) (2013) [flac]\10. I Forgot Who I Was.flac Extracted successfully Conclusion: this track is CDDA with probability 100% Tempfile successfully deleted.
11 -===- C:\Users\Desktop\Blake Neely - Arrow£ºSeason 1 (Original Television Soundtrack) (2013) [flac]\11. Train and Hunt.flac Extracted successfully Conclusion: this track is CDDA with probability 100% Tempfile successfully deleted.
12 -===- C:\Users\Desktop\Blake Neely - Arrow£ºSeason 1 (Original Television Soundtrack) (2013) [flac]\12. Betrayed By Those You Love.flac Extracted successfully Conclusion: this track is CDDA with probability 100% Tempfile successfully deleted.
13 -===- C:\Users\Desktop\Blake Neely - Arrow£ºSeason 1 (Original Television Soundtrack) (2013) [flac]\13. Chasing the Hood.flac Extracted successfully Conclusion: this track is CDDA with probability 100% Tempfile successfully deleted.
14 -===- C:\Users\Desktop\Blake Neely - Arrow£ºSeason 1 (Original Television Soundtrack) (2013) [flac]\14. Damaged.flac Extracted successfully Conclusion: this track is CDDA with probability 100% Tempfile successfully deleted.
15 -===- C:\Users\Desktop\Blake Neely - Arrow£ºSeason 1 (Original Television Soundtrack) (2013) [flac]\15. The Dark Archer ; It Is I Who Failed This City.flac Extracted successfully Conclusion: this track is CDDA with probability 100% Tempfile successfully deleted.
16 -===- C:\Users\Desktop\Blake Neely - Arrow£ºSeason 1 (Original Television Soundtrack) (2013) [flac]\16. Working Together But Alone.flac Extracted successfully Conclusion: this track is CDDA with probability 100% Tempfile successfully deleted.
17 -===- C:\Users\Desktop\Blake Neely - Arrow£ºSeason 1 (Original Television Soundtrack) (2013) [flac]\17. The Count.flac Extracted successfully Conclusion: this track is CDDA with probability 100% Tempfile successfully deleted.
18 -===- C:\Users\Desktop\Blake Neely - Arrow£ºSeason 1 (Original Television Soundtrack) (2013) [flac]\18. Friends In Arms.flac Extracted successfully Conclusion: this track is CDDA with probability 100% Tempfile successfully deleted.
19 -===- C:\Users\Desktop\Blake Neely - Arrow£ºSeason 1 (Original Television Soundtrack) (2013) [flac]\19. Trust But Verify.flac Extracted successfully Conclusion: this track is CDDA with probability 100% Tempfile successfully deleted.
20 -===- C:\Users\Desktop\Blake Neely - Arrow£ºSeason 1 (Original Television Soundtrack) (2013) [flac]\20. Join Us.flac Extracted successfully Conclusion: this track is CDDA with probability 100% Tempfile successfully deleted.
21 -===- C:\Users\Desktop\Blake Neely - Arrow£ºSeason 1 (Original Television Soundtrack) (2013) [flac]\21. Trusting a Friend, Saving an Enemy.flac Extracted successfully Conclusion: this track is CDDA with probability 100% Tempfile successfully deleted.
22 -===- C:\Users\Desktop\Blake Neely - Arrow£ºSeason 1 (Original Television Soundtrack) (2013) [flac]\22. Sins of the Father.flac Extracted successfully Conclusion: this track is CDDA with probability 100% Tempfile successfully deleted.
23 -===- C:\Users\Desktop\Blake Neely - Arrow£ºSeason 1 (Original Television Soundtrack) (2013) [flac]\23. I Can't Lose You Twice.flac Extracted successfully Conclusion: this track is CDDA with probability 100% Tempfile successfully deleted.
24 -===- C:\Users\Desktop\Blake Neely - Arrow£ºSeason 1 (Original Television Soundtrack) (2013) [flac]\24. Search For Salvation.flac Extracted successfully Conclusion: this track is CDDA with probability 100% Tempfile successfully deleted.
25 -===- C:\Users\Desktop\Blake Neely - Arrow£ºSeason 1 (Original Television Soundtrack) (2013) [flac]\25. Shado Sees an Emerging Hero.flac Extracted successfully Conclusion: this track is CDDA with probability 100% Tempfile successfully deleted.
26 -===- C:\Users\Desktop\Blake Neely - Arrow£ºSeason 1 (Original Television Soundtrack) (2013) [flac]\26. Unfinished Business ; Saving Walter.flac Extracted successfully Conclusion: this track is CDDA with probability 100% Tempfile successfully deleted.
27 -===- C:\Users\Desktop\Blake Neely - Arrow£ºSeason 1 (Original Television Soundtrack) (2013) [flac]\27. A Way Off the Island.flac Extracted successfully Conclusion: this track is CDDA with probability 100% Tempfile successfully deleted.
28 -===- C:\Users\Desktop\Blake Neely - Arrow£ºSeason 1 (Original Television Soundtrack) (2013) [flac]\28. Sacrifice.flac Extracted successfully Conclusion: this track is CDDA with probability 100% Tempfile successfully deleted.
29 -===- C:\Users\Desktop\Blake Neely - Arrow£ºSeason 1 (Original Television Soundtrack) (2013) [flac]\29. Oliver Queen Suite.flac Extracted successfully Conclusion: this track is CDDA with probability 100% Tempfile successfully deleted.
Finished at: Friday, 17. 10. 2014. - 1:00.45 (operation time: 0:20.51)
[teatrix.ru].t10388.torrent 
Торрент: Зарегистрирован [ 2015-11-01 20:51 ] · 18B19D2222D3025129386D5C9C241A91572637C8

Скачать .torrent

Скачать

15 KB

Статус: проверено
Скачан: 0 раз
Размер: 338 MB
terms.php



Быстрый ответ

Имя:

      
Для отправки сообщений необходимо включить JavaScript
Показать сообщения:    

Текущее время: 10-Дек 23:31

Часовой пояс: UTC + 3


Вы можете начинать темы
Вы можете отвечать на сообщения
Вы не можете редактировать свои сообщения
Вы не можете удалять свои сообщения
Вы не можете голосовать в опросах
Вы не можете прикреплять файлы к сообщениям
Вы можете скачивать файлы