(Score) Битва за планету Терра / Battle For Terra [Promotional Score] (Abel Korzeniowski) - 2009 (2007), FLAC (tracks) lossless


Статистика раздачи [Обновить пиров]
Размер:  226 MB   |    Зарегистрирован:  1 год 1 месяц   |    Скачан:  1 раз

Полного источника не было: 4 месяца 19 дней

 
   
 
 
 

[Цитировать]

Битва за планету Терра / Battle For Terra
Жанр: Score
Композитор: Abel Korzeniowski
Год выпуска диска: 2009
Год выпуска фильма: 2007
Издатель (лейбл): Abel Korzeniowski
Номер по каталогу:
Аудиокодек: FLAC
Тип рипа: tracks
Битрейт аудио: lossless
Продолжительность: 00:43:38
Источник: what.cd
Наличие сканов в содержимом раздачи: да
Треклист:
01. Abel Korzeniowski - Life On Terra-First Strike (5:21) [802 Kb/s]
02. Abel Korzeniowski - Journey Through Space (2:33) [717 Kb/s]
03. Abel Korzeniowski - Flying With Whales (4:32) [729 Kb/s]
04. Abel Korzeniowski - Ceremony Of Life (1:38) [651 Kb/s]
05. Abel Korzeniowski - Oxygen Tent (2:07) [581 Kb/s]
06. Abel Korzeniowski - Hijacking The Ship (3:59) [705 Kb/s]
07. Abel Korzeniowski - Low B (3:56) [730 Kb/s]
08. Abel Korzeniowski - General Hemmer (1:30) [659 Kb/s]
09. Abel Korzeniowski - The Ultimate Test (2:05) [627 Kb/s]
10. Abel Korzeniowski - Mala Finds Father (1:14) [688 Kb/s]
11. Abel Korzeniowski - War Begins (4:16) [731 Kb/s]
12. Abel Korzeniowski - Battle (3:20) [818 Kb/s]
13. Abel Korzeniowski - Destroying The Terraformer (3:20) [735 Kb/s]
14. Abel Korzeniowski - Epilogue (3:46) [723 Kb/s]

Отчёт foo_dr CD:

foobar2000 1.3.2 / Замер динамического диапазона (DR) 1.1.1Дата отчёта: 2014-10-21 19:56:16
--------------------------------------------------------------------------------Анализ: Abel Korzeniowski / Battle for Terra--------------------------------------------------------------------------------
DR Пики RMS Продолжительность трека--------------------------------------------------------------------------------DR8 -0.48 дБ -11.32 дБ 5:21 01-Life On Terra-First StrikeDR8 -0.50 дБ -13.28 дБ 2:33 02-Journey Through SpaceDR11 -0.47 дБ -15.21 дБ 4:32 03-Flying With WhalesDR11 -0.51 дБ -15.95 дБ 1:38 04-Ceremony Of LifeDR11 -0.50 дБ -16.19 дБ 2:07 05-Oxygen TentDR9 -0.09 дБ -14.09 дБ 3:59 06-Hijacking The ShipDR10 -0.50 дБ -16.42 дБ 3:56 07-Low BDR9 -0.50 дБ -14.33 дБ 1:30 08-General HemmerDR11 -0.04 дБ -15.84 дБ 2:05 09-The Ultimate TestDR8 -0.31 дБ -13.12 дБ 1:14 10-Mala Finds FatherDR10 -0.41 дБ -14.83 дБ 4:16 11-War BeginsDR8 -0.50 дБ -11.55 дБ 3:20 12-BattleDR7 -0.49 дБ -10.85 дБ 3:20 13-Destroying The TerraformerDR10 -0.09 дБ -14.51 дБ 3:46 14-Epilogue--------------------------------------------------------------------------------
Количество треков: 14Реальные значения DR: DR9
Частота: 44100 ГцКаналов: 2Разрядность: 16Битрейт: 723 кбит/сКодек: FLAC================================================================================

Скриншот спектра частот

Дополнительная информация

Абель- польский композитор, известный благодаря своей работе над саундтреками к фильмам «Битва за планету Терра», «Одинокий мужчина» и многим другим, известным в Польше и по всему миру, картинам. За своё творчество он был номинирован на премию Золотой Глобус, премии International Film Music Critics Association Award и AFT Award, отмечен Международным Сообществом Киноманов (International Cinephile Society).
Его уникальный, изысканный и сложный стиль комбинирует классическую оркестровую музыку с элементами современной электроники и ambient.
Абель Корженевски родился в Кракове 18 июля 1972 года, закончил престижную Краковскую Академию Музыки, постигая знания её мастеров игры на виолончели и практикуясь в музыкальной композиции. За его изысканиями пристально следил известный композитор Кристофер Пендерки.
В Польше Абель писал оркестровую симфоническую музыку, а также сопровождение к театральным постановкам и фильмам. Самой интересной и трудоёмкой его работой была музыка к показу картины Фритца Ланга «Metropolis» 1927ого года. Там же он получил «Золотых львов» на 25ом Ежегодном Польском Кинофестивале за музыку к «Большому Животному» («Big Animal») Киселовски.
В 2006 Абель переехал из Кракова в Лос-Анджелес, Калифорния, где начал работу с Джорджем Клуни, Питером Бергом и Стивеном Соденбергом над выпуском фильма «PU-239». Фильм был поставлен Скоттом Бёрнсом (Scott Z. Burns), по мотивам рассказа Кена Калфуса.
[teatrix.ru].t10390.torrent 
Торрент: Зарегистрирован [ 2015-11-01 20:51 ] · E0EA3E71BA2342B7A71C34C416D9D9851AB535DD

Скачать .torrent

Скачать

19 KB

Статус: проверено
Скачан: 1 раз
Размер: 226 MB
terms.php



Быстрый ответ

Имя:

      
Для отправки сообщений необходимо включить JavaScript
Показать сообщения:    

Текущее время: 07-Дек 13:33

Часовой пояс: UTC + 3


Вы можете начинать темы
Вы можете отвечать на сообщения
Вы не можете редактировать свои сообщения
Вы не можете удалять свои сообщения
Вы не можете голосовать в опросах
Вы не можете прикреплять файлы к сообщениям
Вы можете скачивать файлы