(Score / Soundtrack) Тень / The Shadow (by Jerry Goldsmith) - 1994, FLAC (tracks+.cue), lossless


Статистика раздачи [Обновить пиров]
Размер:  233 MB   |    Зарегистрирован:  1 год 1 месяц   |    Скачан:  3 раза

Полного источника не было: 1 день 8 часов

 
   
 
 
 

[Цитировать]

Тень / The Shadow-Жанр: Score / Soundtrack
Композитор: Jerry Goldsmith
Год выпуска диска: 1994
Страна-производитель диска: USA
Издатель (лейбл): Arista Records
Номер по каталогу: 07822 18763 2-Аудиокодек: FLAC (*.flac)
Тип рипа: tracks+.cue
Битрейт аудио: lossless
Продолжительность: 00:46:16
Источник: lztr / aturdido
Наличие сканов в содержимом раздачи: да-

Треклист

1. The Shadow Knows... 1994 (vocalisation by Alec Baldwin) (0:08)
2. Original Sin (Theme from The Shadow) (written by Jim Steinman, performed by Taylor Dayne) (6:27)
3. The Poppy Fields (Main Title) (3:16)
4. Some Kind of Mystery (written by Diane Warren, performed by Sinoa) (3:48)
5. The Sanctum (3:33)
6. Who Are You? (4:02)
7. Chest Pains (3:26)
8. The Knife (3:05)
9. The Hotel (5:53) )
10. The Tank (4:08)
11. Frontal Lobotomy (2:28)
12. Original Sin (Film Mix) (written by Jim Steinman, performed by Taylor Dayne) (5:02)
13. Who Knows What Evil Lurks in the Hearts of Men? (Orson Welles) (0:29)

Лог создания рипа

EAC extraction logfile from 12. January 2008, 23:18 for CDVarious / The Shadow
Used drive : HL-DT-STDVD-ROM GDR8163B Adapter: 0 ID: 0Read mode : Secure with NO C2, accurate stream, disable cacheRead offset correction : 102Overread into Lead-In and Lead-Out : No
Used output format : C:\Archivos de programa\FLAC\flac.exe (User Defined Encoder) 128 kBit/s Additional command line options : -8 -V -T "ARTIST=%a" -T "TITLE=%t" -T "ALBUM=%g" -T "DATE=%y" -T "TRACKNUMBER=%n" -T "GENRE=%m" -T "COMMENT=EAC FLAC -8" %s
Other options : Fill up missing offset samples with silence : Yes Delete leading and trailing silent blocks : No Native Win32 interface for Win NT & 2000
Track 1 Filename G:\Jerry Goldsmith - The Shadow (1994) [FLAC]\disc\01 - Alec Baldwin - The Shadow Knows... 1994.wav
Pre-gap length 0:00:02.00
Peak level 29.6 % Track quality 100.0 % Test CRC 8DB33606 Copy CRC 8DB33606 Copy OK
Track 2 Filename G:\Jerry Goldsmith - The Shadow (1994) [FLAC]\disc\02 - Taylor Dayne - Original Sin (Theme from The Shadow).wav
Peak level 50.1 % Track quality 100.0 % Test CRC FB8A9FF3 Copy CRC FB8A9FF3 Copy OK
Track 3 Filename G:\Jerry Goldsmith - The Shadow (1994) [FLAC]\disc\03 - Jerry Goldsmith - The Poppy Fields (Main Title).wav
Pre-gap length 0:00:01.44
Peak level 90.1 % Track quality 99.9 % Test CRC 844D153A Copy CRC 844D153A Copy OK
Track 4 Filename G:\Jerry Goldsmith - The Shadow (1994) [FLAC]\disc\04 - Sinoa - Some Kind of Mystery.wav
Pre-gap length 0:00:03.30
Peak level 51.8 % Track quality 100.0 % Test CRC 8C2A9F01 Copy CRC 8C2A9F01 Copy OK
Track 5 Filename G:\Jerry Goldsmith - The Shadow (1994) [FLAC]\disc\05 - Jerry Goldsmith - The Sanctum.wav
Pre-gap length 0:00:02.48
Peak level 66.9 % Track quality 99.9 % Test CRC 6AB265DA Copy CRC 6AB265DA Copy OK
Track 6 Filename G:\Jerry Goldsmith - The Shadow (1994) [FLAC]\disc\06 - Jerry Goldsmith - Who Are You .wav
Pre-gap length 0:00:03.14
Peak level 62.5 % Track quality 100.0 % Test CRC 8D158785 Copy CRC 8D158785 Copy OK
Track 7 Filename G:\Jerry Goldsmith - The Shadow (1994) [FLAC]\disc\07 - Jerry Goldsmith - Chest Pains.wav
Pre-gap length 0:00:02.42
Peak level 83.7 % Track quality 100.0 % Test CRC CAF1FABC Copy CRC CAF1FABC Copy OK
Track 8 Filename G:\Jerry Goldsmith - The Shadow (1994) [FLAC]\disc\08 - Jerry Goldsmith - The Knife.wav
Pre-gap length 0:00:02.25
Peak level 70.1 % Track quality 100.0 % Test CRC 726D6F52 Copy CRC 726D6F52 Copy OK
Track 9 Filename G:\Jerry Goldsmith - The Shadow (1994) [FLAC]\disc\09 - Jerry Goldsmith - The Hotel.wav
Pre-gap length 0:00:02.70
Peak level 69.3 % Track quality 100.0 % Test CRC C68F407D Copy CRC C68F407D Copy OK
Track 10 Filename G:\Jerry Goldsmith - The Shadow (1994) [FLAC]\disc\10 - Jerry Goldsmith - The Tank.wav
Pre-gap length 0:00:02.34
Peak level 99.2 % Track quality 100.0 % Test CRC 0F1F0E8D Copy CRC 0F1F0E8D Copy OK
Track 11 Filename G:\Jerry Goldsmith - The Shadow (1994) [FLAC]\disc\11 - Jerry Goldsmith - Frontal Lobotomy.wav
Pre-gap length 0:00:02.12
Peak level 98.6 % Track quality 100.0 % Test CRC B583BE97 Copy CRC B583BE97 Copy OK
Track 12 Filename G:\Jerry Goldsmith - The Shadow (1994) [FLAC]\disc\12 - Taylor Dayne - Original Sin (Theme from The Shadow) Film Mix.wav
Pre-gap length 0:00:02.34
Peak level 54.3 % Track quality 100.0 % Test CRC 60F42315 Copy CRC 60F42315 Copy OK
Track 13 Filename G:\Jerry Goldsmith - The Shadow (1994) [FLAC]\disc\13 - Orson Welles - The Shadow Radio Show 1937- Who Knows What Evil Lurks in the Hearts of Men .wav
Pre-gap length 0:00:01.40
Peak level 58.4 % Track quality 100.0 % Test CRC 7081B197 Copy CRC 7081B197 Copy OK
No errors occured
End of status report

Содержание индексной карты (.CUE)

REM GENRE SoundtrackREM DATE 1994REM DISCID A50AD70DREM COMMENT "ExactAudioCopy v0.95b3"PERFORMER "Jerry Goldsmith"TITLE "The Shadow"FILE "01 - Alec Baldwin - The Shadow Knows... 1994.wav" WAVE TRACK 01 AUDIO TITLE "The Shadow Knows... 1994" PERFORMER "Alec Baldwin" INDEX 01 00:00:00FILE "02 - Taylor Dayne - Original Sin (Theme from The Shadow).wav" WAVE TRACK 02 AUDIO TITLE "Original Sin (Theme from The Shadow)" PERFORMER "Taylor Dayne" INDEX 01 00:00:00 TRACK 03 AUDIO TITLE "The Poppy Fields (Main Title)" PERFORMER "Jerry Goldsmith" INDEX 00 06:23:25FILE "03 - Jerry Goldsmith - The Poppy Fields (Main Title).wav" WAVE INDEX 01 00:00:00 TRACK 04 AUDIO TITLE "Some Kind of Mystery" PERFORMER "Sinoa" INDEX 00 03:16:69FILE "04 - Sinoa - Some Kind of Mystery.wav" WAVE INDEX 01 00:00:00 TRACK 05 AUDIO TITLE "The Sanctum" PERFORMER "Jerry Goldsmith" INDEX 00 03:32:09FILE "05 - Jerry Goldsmith - The Sanctum.wav" WAVE INDEX 01 00:00:00 TRACK 06 AUDIO TITLE "Who Are You?" PERFORMER "Jerry Goldsmith" INDEX 00 03:33:49FILE "06 - Jerry Goldsmith - Who Are You .wav" WAVE INDEX 01 00:00:00 TRACK 07 AUDIO TITLE "Chest Pains" PERFORMER "Jerry Goldsmith" INDEX 00 04:03:03FILE "07 - Jerry Goldsmith - Chest Pains.wav" WAVE INDEX 01 00:00:00 TRACK 08 AUDIO TITLE "The Knife" PERFORMER "Jerry Goldsmith" INDEX 00 03:26:31FILE "08 - Jerry Goldsmith - The Knife.wav" WAVE INDEX 01 00:00:00 TRACK 09 AUDIO TITLE "The Hotel" PERFORMER "Jerry Goldsmith" INDEX 00 03:04:72FILE "09 - Jerry Goldsmith - The Hotel.wav" WAVE INDEX 01 00:00:00 TRACK 10 AUDIO TITLE "The Tank" PERFORMER "Jerry Goldsmith" INDEX 00 05:53:67FILE "10 - Jerry Goldsmith - The Tank.wav" WAVE INDEX 01 00:00:00 TRACK 11 AUDIO TITLE "Frontal Lobotomy" PERFORMER "Jerry Goldsmith" INDEX 00 04:05:51FILE "11 - Jerry Goldsmith - Frontal Lobotomy.wav" WAVE INDEX 01 00:00:00 TRACK 12 AUDIO TITLE "Original Sin (Theme from The Shadow) Film Mix" PERFORMER "Taylor Dayne" INDEX 00 02:28:59FILE "12 - Taylor Dayne - Original Sin (Theme from The Shadow) Film Mix.wav" WAVE INDEX 01 00:00:00 TRACK 13 AUDIO TITLE "The Shadow Radio Show 1937: Who Knows What Evil Lurks in the Hearts of Men?" PERFORMER "Orson Welles" INDEX 00 05:21:65FILE "13 - Orson Welles - The Shadow Radio Show 1937- Who Knows What Evil Lurks in the Hearts of Men .wav" WAVE INDEX 01 00:00:00
[teatrix.ru].t10391.torrent 
Торрент: Зарегистрирован [ 2015-11-01 20:51 ] · A92EFB093AEA4B47B71029B9FE12864C1FAE8CBC

Скачать .torrent

Скачать

20 KB

Статус: проверено
Скачан: 3 раз
Размер: 233 MB
terms.php



Быстрый ответ

Имя:

      
Для отправки сообщений необходимо включить JavaScript
Показать сообщения:    

Текущее время: 11-Дек 11:08

Часовой пояс: UTC + 3


Вы можете начинать темы
Вы можете отвечать на сообщения
Вы не можете редактировать свои сообщения
Вы не можете удалять свои сообщения
Вы не можете голосовать в опросах
Вы не можете прикреплять файлы к сообщениям
Вы можете скачивать файлы