(Score) Music for Drama (I Served the English King, Kafka, the Tempest, Antigone) (Abel Korzeniowski) {WEB} - 2005, FLAC (tracks) lossless


Статистика раздачи [Обновить пиров]
Размер:  227 MB   |    Зарегистрирован:  1 год 1 месяц   |    Скачан:  0 раз

Полного источника не было: Никогда

 
   
 
 
 

[Цитировать]

Music for Drama
Жанр: Score
Композитор: Abel Korzeniowski
Год выпуска диска: 2005
Издатель (лейбл): Abel Korzeniowski
Номер по каталогу: A634479077944
Аудиокодек: FLAC
Тип рипа: tracks
Битрейт аудио: lossless
Продолжительность: 00:45:16
Источник: what.cd
Наличие сканов в содержимом раздачи: да
Треклист:
01. Abel Korzeniowski - Danube (3:34) [780 Kb/s]
02. Abel Korzeniowski - Slava (5:13) [759 Kb/s]
03. Abel Korzeniowski - Dumka (4:31) [656 Kb/s]
04. Abel Korzeniowski - Tango (3:53) [736 Kb/s]
05. Abel Korzeniowski - Memoirs (4:20) [613 Kb/s]
06. Abel Korzeniowski - Intermezzo (2:55) [525 Kb/s]
07. Abel Korzeniowski - Amalia (3:19) [516 Kb/s]
08. Abel Korzeniowski - Song of Time (3:49) [653 Kb/s]
09. Abel Korzeniowski - Ariel's Dance (3:20) [755 Kb/s]
10. Abel Korzeniowski - Ariel's Tears (4:02) [631 Kb/s]
11. Abel Korzeniowski - Dance of the Tempest (2:12) [692 Kb/s]
12. Abel Korzeniowski - Stasimon I (4:06) [761 Kb/s]

Отчёт foo_dr CD:

foobar2000 1.3.2 / Замер динамического диапазона (DR) 1.1.1Дата отчёта: 2014-10-21 19:56:40
--------------------------------------------------------------------------------Анализ: Abel Korzeniowski / Music for Drama--------------------------------------------------------------------------------
DR Пики RMS Продолжительность трека--------------------------------------------------------------------------------DR11 -0.10 дБ -15.16 дБ 3:34 01-DanubeDR10 -0.10 дБ -14.50 дБ 5:13 02-SlavaDR11 -6.76 дБ -22.61 дБ 4:31 03-DumkaDR15 -0.10 дБ -17.81 дБ 3:53 04-TangoDR12 0.00 дБ -16.63 дБ 4:20 05-MemoirsDR11 0.00 дБ -17.53 дБ 2:55 06-IntermezzoDR11 0.00 дБ -16.65 дБ 3:19 07-AmaliaDR12 -3.01 дБ -19.95 дБ 3:49 08-Song of TimeDR11 -5.06 дБ -19.37 дБ 3:20 09-Ariel's DanceDR13 -5.65 дБ -21.44 дБ 4:02 10-Ariel's TearsDR10 -6.15 дБ -18.43 дБ 2:12 11-Dance of the TempestDR8 -0.02 дБ -11.57 дБ 4:06 12-Stasimon I--------------------------------------------------------------------------------
Количество треков: 12Реальные значения DR: DR11
Частота: 44100 ГцКаналов: 2Разрядность: 16Битрейт: 761 кбит/сКодек: FLAC================================================================================

Скриншот спектра частот

Дополнительная информация

Абель- польский композитор, известный благодаря своей работе над саундтреками к фильмам «Битва за планету Терра», «Одинокий мужчина» и многим другим, известным в Польше и по всему миру, картинам. За своё творчество он был номинирован на премию Золотой Глобус, премии International Film Music Critics Association Award и AFT Award, отмечен Международным Сообществом Киноманов (International Cinephile Society).
Его уникальный, изысканный и сложный стиль комбинирует классическую оркестровую музыку с элементами современной электроники и ambient.
Абель Корженевски родился в Кракове 18 июля 1972 года, закончил престижную Краковскую Академию Музыки, постигая знания её мастеров игры на виолончели и практикуясь в музыкальной композиции. За его изысканиями пристально следил известный композитор Кристофер Пендерки.
В Польше Абель писал оркестровую симфоническую музыку, а также сопровождение к театральным постановкам и фильмам. Самой интересной и трудоёмкой его работой была музыка к показу картины Фритца Ланга «Metropolis» 1927ого года. Там же он получил «Золотых львов» на 25ом Ежегодном Польском Кинофестивале за музыку к «Большому Животному» («Big Animal») Киселовски.
В 2006 Абель переехал из Кракова в Лос-Анджелес, Калифорния, где начал работу с Джорджем Клуни, Питером Бергом и Стивеном Соденбергом над выпуском фильма «PU-239». Фильм был поставлен Скоттом Бёрнсом (Scott Z. Burns), по мотивам рассказа Кена Калфуса.
[teatrix.ru].t10392.torrent 
Торрент: Зарегистрирован [ 2015-11-01 20:51 ] · 828F84F273DF57C4614EA99B56EA9AB583AD26CA

Скачать .torrent

Скачать

19 KB

Статус: проверено
Скачан: 0 раз
Размер: 227 MB
terms.php



Быстрый ответ

Имя:

      
Для отправки сообщений необходимо включить JavaScript
Показать сообщения:    

Текущее время: 04-Дек 02:51

Часовой пояс: UTC + 3


Вы можете начинать темы
Вы можете отвечать на сообщения
Вы не можете редактировать свои сообщения
Вы не можете удалять свои сообщения
Вы не можете голосовать в опросах
Вы не можете прикреплять файлы к сообщениям
Вы можете скачивать файлы