(Score) Ангел в Кракове / An Angel in Cracow / Aniol w Krakowie (Abel Korzeniowski) {WEB} - 2002, FLAC (tracks) lossless


Статистика раздачи [Обновить пиров]
Размер:  164 MB   |    Зарегистрирован:  1 год 1 месяц   |    Скачан:  1 раз

Полного источника не было: 2 месяца 16 дней

 
   
 
 
 

[Цитировать]

Ангел в Кракове / An Angel in Cracow / Aniol w Krakowie
Жанр: Score
Композитор: Abel Korzeniowski
Год выпуска диска: 2002
Издатель (лейбл): Abel Korzeniowski
Номер по каталогу: A634479077937
Аудиокодек: FLAC
Тип рипа: tracks
Битрейт аудио: lossless
Продолжительность: 00:33:45
Источник: what.cd
Наличие сканов в содержимом раздачи: да
Треклист:
01. Abel Korzeniowski - Clouds (4:14) [715 Kb/s]
02. Abel Korzeniowski - Road (2:23) [608 Kb/s]
03. Abel Korzeniowski - In Between (3:20) [672 Kb/s]
04. Abel Korzeniowski - Most Beautiful Day (3:28) [626 Kb/s]
05. Abel Korzeniowski - Death (3:21) [596 Kb/s]
06. Abel Korzeniowski - At the Grave (3:26) [601 Kb/s]
07. Abel Korzeniowski - Meadow (2:06) [675 Kb/s]
08. Abel Korzeniowski - Bossa Nova (2:03) [661 Kb/s]
09. Abel Korzeniowski - Ramona (2:49) [576 Kb/s]
10. Abel Korzeniowski - Ecce Homo (2:12) [800 Kb/s]
11. Abel Korzeniowski - Clouds - Remixed (4:21) [658 Kb/s]

Отчёт foo_dr CD:

foobar2000 1.3.2 / Замер динамического диапазона (DR) 1.1.1Дата отчёта: 2014-10-21 19:55:57
--------------------------------------------------------------------------------Анализ: Abel Korzeniowski / An Angel in Cracow--------------------------------------------------------------------------------
DR Пики RMS Продолжительность трека--------------------------------------------------------------------------------DR11 -0.38 дБ -15.26 дБ 4:14 01-CloudsDR11 -1.30 дБ -17.17 дБ 2:23 02-RoadDR11 -0.49 дБ -16.23 дБ 3:20 03-In BetweenDR12 -1.07 дБ -20.83 дБ 3:28 04-Most Beautiful DayDR13 -0.20 дБ -19.32 дБ 3:21 05-DeathDR12 -1.30 дБ -21.87 дБ 3:26 06-At the GraveDR9 -3.68 дБ -18.76 дБ 2:06 07-MeadowDR15 -1.82 дБ -20.14 дБ 2:03 08-Bossa NovaDR14 -4.02 дБ -22.38 дБ 2:49 09-RamonaDR12 -1.08 дБ -16.36 дБ 2:12 10-Ecce HomoDR12 -1.10 дБ -18.15 дБ 4:21 11-Clouds - Remixed--------------------------------------------------------------------------------
Количество треков: 11Реальные значения DR: DR12
Частота: 44100 ГцКаналов: 2Разрядность: 16Битрейт: 658 кбит/сКодек: FLAC================================================================================

Скриншот спектра частот

Дополнительная информация

Абель- польский композитор, известный благодаря своей работе над саундтреками к фильмам «Битва за планету Терра», «Одинокий мужчина» и многим другим, известным в Польше и по всему миру, картинам. За своё творчество он был номинирован на премию Золотой Глобус, премии International Film Music Critics Association Award и AFT Award, отмечен Международным Сообществом Киноманов (International Cinephile Society).
Его уникальный, изысканный и сложный стиль комбинирует классическую оркестровую музыку с элементами современной электроники и ambient.
Абель Корженевски родился в Кракове 18 июля 1972 года, закончил престижную Краковскую Академию Музыки, постигая знания её мастеров игры на виолончели и практикуясь в музыкальной композиции. За его изысканиями пристально следил известный композитор Кристофер Пендерки.
В Польше Абель писал оркестровую симфоническую музыку, а также сопровождение к театральным постановкам и фильмам. Самой интересной и трудоёмкой его работой была музыка к показу картины Фритца Ланга «Metropolis» 1927ого года. Там же он получил «Золотых львов» на 25ом Ежегодном Польском Кинофестивале за музыку к «Большому Животному» («Big Animal») Киселовски.
В 2006 Абель переехал из Кракова в Лос-Анджелес, Калифорния, где начал работу с Джорджем Клуни, Питером Бергом и Стивеном Соденбергом над выпуском фильма «PU-239». Фильм был поставлен Скоттом Бёрнсом (Scott Z. Burns), по мотивам рассказа Кена Калфуса.
[teatrix.ru].t10393.torrent 
Торрент: Зарегистрирован [ 2015-11-01 20:51 ] · 8607B20898E5771FF860F9496890FEDDFF128777

Скачать .torrent

Скачать

14 KB

Статус: проверено
Скачан: 1 раз
Размер: 164 MB
terms.php



Быстрый ответ

Имя:

      
Для отправки сообщений необходимо включить JavaScript
Показать сообщения:    

Текущее время: 07-Дек 00:54

Часовой пояс: UTC + 3


Вы можете начинать темы
Вы можете отвечать на сообщения
Вы не можете редактировать свои сообщения
Вы не можете удалять свои сообщения
Вы не можете голосовать в опросах
Вы не можете прикреплять файлы к сообщениям
Вы можете скачивать файлы