(Score) Бэтмен: Нападение на Аркхэм / Batman: Assault on Arkham (by Robert J. Kral) - 2014, FLAC (tracks+.cue), lossless


Статистика раздачи [Обновить пиров]
Размер:  342 MB   |    Зарегистрирован:  1 год 1 месяц   |    Скачан:  0 раз

Полного источника не было: Никогда

 
   
 
 
 

[Цитировать]

Бэтмен: Нападение на Аркхэм / Batman: Assault on Arkham- Жанр: Score
Композитор: Robert J. Kral
Год выпуска диска: 2014
Страна-производитель диска: USA
Издатель (лейбл): La-La Land Records
Номер по каталогу: LLLCD 1316
Аудиокодек: FLAC (*.flac)
Тип рипа: tracks+.cue
Битрейт аудио: lossless
Продолжительность: 00:57:55
Источник: CD / forums.ffshrine.org / KevinG
Наличие сканов в содержимом раздачи: да

Треклист

01 - Nigma's Confrontation / It's Batman
02 - Criminal Montage
03 - Task Force Indoctrination
04 - Dropping Down
05 - Gearing Up / Beer Room Challenge
06 - Yahtzee!
07 - Harley Arrested to Arkham
08 - Infiltrating Arkham and Joker Assault
09 - Killer Frost's Kiss and Black Spider's Microwave
10 - Harley Bait and King Shark's Work
11 - Suicide Squad in the Big House
12 - Batman's Gotham and Property Room Access
13 - Batman Fights Suicide Squad
14 - Riddler Proposes a Cure
15 - Joker's Out / Suicide Squad vs SCU
16 - Shocking Solution
17 - Joker Attacks Batman
18 - Prisoners Released
19 - Chopper Fight / Poison Ivy / The Batplane
20 - Chopper Crash
21 - Harley's Rage
22 - Final Confrontations
23 - Batman: Assault on Arkham End Credits

Лог создания рипа

X Lossless Decoder version 20140504 (147.0)
XLD extraction logfile from 2014-08-31 12:08:03 -0500
Robert J. Kral / Batman: Assault on Gotham (LLLCD 2014)
Used drive : TSSTcorp BDDVDW SE-506CB (revision TS00)Media type : Pressed CD
Ripper mode : CDParanoia III 10.2Disable audio cache : OK for the drive with a cache less than 2750KiBMake use of C2 pointers : NORead offset correction : 103Max retry count : 100Gap status : Analyzed, Appended
TOC of the extracted CD Track | Start | Length | Start sector | End sector --------------------------------------------------------- 1 | 00:00:00 | 03:12:43 | 0 | 14442 2 | 03:12:43 | 03:08:01 | 14443 | 28543 3 | 06:20:44 | 02:43:42 | 28544 | 40810 4 | 09:04:11 | 02:01:73 | 40811 | 49958 5 | 11:06:09 | 01:53:28 | 49959 | 58461 6 | 12:59:37 | 01:06:73 | 58462 | 63484 7 | 14:06:35 | 03:03:36 | 63485 | 77245 8 | 17:09:71 | 05:34:72 | 77246 | 102367 9 | 22:44:68 | 02:01:67 | 102368 | 111509 10 | 24:46:60 | 01:29:71 | 111510 | 118255 11 | 26:16:56 | 03:46:70 | 118256 | 135275 12 | 30:03:51 | 03:01:07 | 135276 | 148857 13 | 33:04:58 | 02:13:74 | 148858 | 158906 14 | 35:18:57 | 01:16:34 | 158907 | 164640 15 | 36:35:16 | 03:36:65 | 164641 | 180905 16 | 40:12:06 | 02:26:70 | 180906 | 191925 17 | 42:39:01 | 01:42:62 | 191926 | 199637 18 | 44:21:63 | 02:47:66 | 199638 | 212228 19 | 47:09:54 | 02:05:28 | 212229 | 221631 20 | 49:15:07 | 02:26:42 | 221632 | 232623 21 | 51:41:49 | 00:59:05 | 232624 | 237053 22 | 52:40:54 | 02:10:06 | 237054 | 246809 23 | 54:50:60 | 03:04:72 | 246810 | 260681
AccurateRip Summary Disc not found in AccurateRip DB.
All Tracks Statistics Read error : 0 Skipped (treated as error) : 0 Edge jitter error (maybe fixed) : 0 Atom jitter error (maybe fixed) : 6 Drift error (maybe fixed) : 0 Dropped bytes error (maybe fixed) : 0 Duplicated bytes error (maybe fixed) : 0
Track 01 Filename : /Users/kgpat/Desktop/Convert/BatmanAssaultOnArkhamFLAC/01 Robert J. Kral - Nigma's Confrontation / It's Batman.flac Pre-gap length : 00:02:00
CRC32 hash : 164C46C6 CRC32 hash (skip zero) : DEFF8A76 AccurateRip v1 signature : 388B1B8C AccurateRip v2 signature : E030261E ->Track not present in AccurateRip database. Statistics Read error : 0 Skipped (treated as error) : 0 Edge jitter error (maybe fixed) : 0 Atom jitter error (maybe fixed) : 0 Drift error (maybe fixed) : 0 Dropped bytes error (maybe fixed) : 0 Duplicated bytes error (maybe fixed) : 0
Track 02 Filename : /Users/kgpat/Desktop/Convert/BatmanAssaultOnArkhamFLAC/02 Robert J. Kral - Criminal Montage.flac Pre-gap length : 00:02:00
CRC32 hash : 6F255AFA CRC32 hash (skip zero) : 4B0973B7 AccurateRip v1 signature : 3CDACF5E AccurateRip v2 signature : B1D702EA ->Track not present in AccurateRip database. Statistics Read error : 0 Skipped (treated as error) : 0 Edge jitter error (maybe fixed) : 0 Atom jitter error (maybe fixed) : 0 Drift error (maybe fixed) : 0 Dropped bytes error (maybe fixed) : 0 Duplicated bytes error (maybe fixed) : 0
Track 03 Filename : /Users/kgpat/Desktop/Convert/BatmanAssaultOnArkhamFLAC/03 Robert J. Kral - Task Force Indoctrination.flac Pre-gap length : 00:02:00
CRC32 hash : EED8E5AF CRC32 hash (skip zero) : 45C0FFC8 AccurateRip v1 signature : 70DBAADF AccurateRip v2 signature : 2B141700 ->Track not present in AccurateRip database. Statistics Read error : 0 Skipped (treated as error) : 0 Edge jitter error (maybe fixed) : 0 Atom jitter error (maybe fixed) : 0 Drift error (maybe fixed) : 0 Dropped bytes error (maybe fixed) : 0 Duplicated bytes error (maybe fixed) : 0
Track 04 Filename : /Users/kgpat/Desktop/Convert/BatmanAssaultOnArkhamFLAC/04 Robert J. Kral - Dropping Down.flac Pre-gap length : 00:02:00
CRC32 hash : 210668AE CRC32 hash (skip zero) : 789B7C57 AccurateRip v1 signature : 73FA18E6 AccurateRip v2 signature : 44ADE252 ->Track not present in AccurateRip database. Statistics Read error : 0 Skipped (treated as error) : 0 Edge jitter error (maybe fixed) : 0 Atom jitter error (maybe fixed) : 0 Drift error (maybe fixed) : 0 Dropped bytes error (maybe fixed) : 0 Duplicated bytes error (maybe fixed) : 0
Track 05 Filename : /Users/kgpat/Desktop/Convert/BatmanAssaultOnArkhamFLAC/05 Robert J. Kral - Gearing Up / Beer Room Challenge.flac Pre-gap length : 00:02:00
CRC32 hash : 95364C85 CRC32 hash (skip zero) : D1511823 AccurateRip v1 signature : 835C8732 AccurateRip v2 signature : 166C8C12 ->Track not present in AccurateRip database. Statistics Read error : 0 Skipped (treated as error) : 0 Edge jitter error (maybe fixed) : 0 Atom jitter error (maybe fixed) : 0 Drift error (maybe fixed) : 0 Dropped bytes error (maybe fixed) : 0 Duplicated bytes error (maybe fixed) : 0
Track 06 Filename : /Users/kgpat/Desktop/Convert/BatmanAssaultOnArkhamFLAC/06 Robert J. Kral - Yahtzee!.flac Pre-gap length : 00:02:00
CRC32 hash : D821BEAB CRC32 hash (skip zero) : 5D6C353B AccurateRip v1 signature : A632C8A6 AccurateRip v2 signature : 0B5F7CD8 ->Track not present in AccurateRip database. Statistics Read error : 0 Skipped (treated as error) : 0 Edge jitter error (maybe fixed) : 0 Atom jitter error (maybe fixed) : 0 Drift error (maybe fixed) : 0 Dropped bytes error (maybe fixed) : 0 Duplicated bytes error (maybe fixed) : 0
Track 07 Filename : /Users/kgpat/Desktop/Convert/BatmanAssaultOnArkhamFLAC/07 Robert J. Kral - Harley Arrested to Arkham.flac Pre-gap length : 00:02:00
CRC32 hash : 69623DE7 CRC32 hash (skip zero) : E41AA28B AccurateRip v1 signature : 99165FF6 AccurateRip v2 signature : 51854659 ->Track not present in AccurateRip database. Statistics Read error : 0 Skipped (treated as error) : 0 Edge jitter error (maybe fixed) : 0 Atom jitter error (maybe fixed) : 0 Drift error (maybe fixed) : 0 Dropped bytes error (maybe fixed) : 0 Duplicated bytes error (maybe fixed) : 0
Track 08 Filename : /Users/kgpat/Desktop/Convert/BatmanAssaultOnArkhamFLAC/08 Robert J. Kral - Infiltrating Arkham & Joker Assault.flac Pre-gap length : 00:02:00
CRC32 hash : BDDCA187 CRC32 hash (skip zero) : 6C6BBBB2 AccurateRip v1 signature : 30B0045F AccurateRip v2 signature : 41B6B046 ->Track not present in AccurateRip database. Statistics Read error : 0 Skipped (treated as error) : 0 Edge jitter error (maybe fixed) : 0 Atom jitter error (maybe fixed) : 0 Drift error (maybe fixed) : 0 Dropped bytes error (maybe fixed) : 0 Duplicated bytes error (maybe fixed) : 0
Track 09 Filename : /Users/kgpat/Desktop/Convert/BatmanAssaultOnArkhamFLAC/09 Robert J. Kral - Killer Frost's Kiss & Black Spider's Microwave.flac Pre-gap length : 00:02:00
CRC32 hash : 6CE8FFF3 CRC32 hash (skip zero) : F5D131D7 AccurateRip v1 signature : E14EB9EB AccurateRip v2 signature : 51DD06C4 ->Track not present in AccurateRip database. Statistics Read error : 0 Skipped (treated as error) : 0 Edge jitter error (maybe fixed) : 0 Atom jitter error (maybe fixed) : 0 Drift error (maybe fixed) : 0 Dropped bytes error (maybe fixed) : 0 Duplicated bytes error (maybe fixed) : 0
Track 10 Filename : /Users/kgpat/Desktop/Convert/BatmanAssaultOnArkhamFLAC/10 Robert J. Kral - Harley Bait & King Shark's Work.flac Pre-gap length : 00:02:00
CRC32 hash : 2DBD9C58 CRC32 hash (skip zero) : 56B6F716 AccurateRip v1 signature : D5699B85 AccurateRip v2 signature : ED5EFFB0 ->Track not present in AccurateRip database. Statistics Read error : 0 Skipped (treated as error) : 0 Edge jitter error (maybe fixed) : 0 Atom jitter error (maybe fixed) : 0 Drift error (maybe fixed) : 0 Dropped bytes error (maybe fixed) : 0 Duplicated bytes error (maybe fixed) : 0
Track 11 Filename : /Users/kgpat/Desktop/Convert/BatmanAssaultOnArkhamFLAC/11 Robert J. Kral - Suicide Squad in the Big House.flac Pre-gap length : 00:02:00
CRC32 hash : 30348FAF CRC32 hash (skip zero) : 74DC76A6 AccurateRip v1 signature : B2CF9BB5 AccurateRip v2 signature : 4CCA1743 ->Track not present in AccurateRip database. Statistics Read error : 0 Skipped (treated as error) : 0 Edge jitter error (maybe fixed) : 0 Atom jitter error (maybe fixed) : 0 Drift error (maybe fixed) : 0 Dropped bytes error (maybe fixed) : 0 Duplicated bytes error (maybe fixed) : 0
Track 12 Filename : /Users/kgpat/Desktop/Convert/BatmanAssaultOnArkhamFLAC/12 Robert J. Kral - Batman's Gotham & Property Room Access.flac Pre-gap length : 00:02:00
CRC32 hash : 198FB143 CRC32 hash (skip zero) : 2D44D4A9 AccurateRip v1 signature : 3D2208C1 AccurateRip v2 signature : 2D835320 ->Track not present in AccurateRip database. Statistics Read error : 0 Skipped (treated as error) : 0 Edge jitter error (maybe fixed) : 0 Atom jitter error (maybe fixed) : 0 Drift error (maybe fixed) : 0 Dropped bytes error (maybe fixed) : 0 Duplicated bytes error (maybe fixed) : 0
Track 13 Filename : /Users/kgpat/Desktop/Convert/BatmanAssaultOnArkhamFLAC/13 Robert J. Kral - Batman Fights Suicide Squad.flac Pre-gap length : 00:02:00
CRC32 hash : 27C40ED6 CRC32 hash (skip zero) : 04544272 AccurateRip v1 signature : ED4C6B6C AccurateRip v2 signature : EF0AB6C9 ->Track not present in AccurateRip database. Statistics Read error : 0 Skipped (treated as error) : 0 Edge jitter error (maybe fixed) : 0 Atom jitter error (maybe fixed) : 0 Drift error (maybe fixed) : 0 Dropped bytes error (maybe fixed) : 0 Duplicated bytes error (maybe fixed) : 0
Track 14 Filename : /Users/kgpat/Desktop/Convert/BatmanAssaultOnArkhamFLAC/14 Robert J. Kral - Riddler Proposes a Cure.flac Pre-gap length : 00:02:00
CRC32 hash : 09E7D01F CRC32 hash (skip zero) : 3ACD9CB3 AccurateRip v1 signature : 3907E47B AccurateRip v2 signature : 97830581 ->Track not present in AccurateRip database. Statistics Read error : 0 Skipped (treated as error) : 0 Edge jitter error (maybe fixed) : 0 Atom jitter error (maybe fixed) : 0 Drift error (maybe fixed) : 0 Dropped bytes error (maybe fixed) : 0 Duplicated bytes error (maybe fixed) : 0
Track 15 Filename : /Users/kgpat/Desktop/Convert/BatmanAssaultOnArkhamFLAC/15 Robert J. Kral - Joker's Out / Suicide Squad vs SCU.flac Pre-gap length : 00:02:00
CRC32 hash : 45793A0C CRC32 hash (skip zero) : A8BD252D AccurateRip v1 signature : 4CCA922B AccurateRip v2 signature : C80F3691 ->Track not present in AccurateRip database. Statistics Read error : 0 Skipped (treated as error) : 0 Edge jitter error (maybe fixed) : 0 Atom jitter error (maybe fixed) : 0 Drift error (maybe fixed) : 0 Dropped bytes error (maybe fixed) : 0 Duplicated bytes error (maybe fixed) : 0
Track 16 Filename : /Users/kgpat/Desktop/Convert/BatmanAssaultOnArkhamFLAC/16 Robert J. Kral - Shocking Solution.flac Pre-gap length : 00:02:00
CRC32 hash : 5C9B915C CRC32 hash (skip zero) : FE6414FD AccurateRip v1 signature : 6D04CFB3 AccurateRip v2 signature : 5DACAFEA ->Track not present in AccurateRip database. Statistics Read error : 0 Skipped (treated as error) : 0 Edge jitter error (maybe fixed) : 0 Atom jitter error (maybe fixed) : 2 Drift error (maybe fixed) : 0 Dropped bytes error (maybe fixed) : 0 Duplicated bytes error (maybe fixed) : 0
Track 17 Filename : /Users/kgpat/Desktop/Convert/BatmanAssaultOnArkhamFLAC/17 Robert J. Kral - Joker Attacks Batman.flac Pre-gap length : 00:02:00
CRC32 hash : B21A097E CRC32 hash (skip zero) : F6824DFC AccurateRip v1 signature : A4FC1E78 AccurateRip v2 signature : 912FD95B ->Track not present in AccurateRip database. Statistics Read error : 0 Skipped (treated as error) : 0 Edge jitter error (maybe fixed) : 0 Atom jitter error (maybe fixed) : 0 Drift error (maybe fixed) : 0 Dropped bytes error (maybe fixed) : 0 Duplicated bytes error (maybe fixed) : 0
Track 18 Filename : /Users/kgpat/Desktop/Convert/BatmanAssaultOnArkhamFLAC/18 Robert J. Kral - Prisoners Released.flac Pre-gap length : 00:02:00
CRC32 hash : D8C65D16 CRC32 hash (skip zero) : 38089FE8 AccurateRip v1 signature : 9661EAEB AccurateRip v2 signature : C095FAB1 ->Track not present in AccurateRip database. Statistics Read error : 0 Skipped (treated as error) : 0 Edge jitter error (maybe fixed) : 0 Atom jitter error (maybe fixed) : 2 Drift error (maybe fixed) : 0 Dropped bytes error (maybe fixed) : 0 Duplicated bytes error (maybe fixed) : 0
Track 19 Filename : /Users/kgpat/Desktop/Convert/BatmanAssaultOnArkhamFLAC/19 Robert J. Kral - Chopper Fight / Poison Ivy / The Batplane.flac Pre-gap length : 00:02:00
CRC32 hash : 85973F57 CRC32 hash (skip zero) : E2075302 AccurateRip v1 signature : F0DA65F0 AccurateRip v2 signature : BA4CF60C ->Track not present in AccurateRip database. Statistics Read error : 0 Skipped (treated as error) : 0 Edge jitter error (maybe fixed) : 0 Atom jitter error (maybe fixed) : 0 Drift error (maybe fixed) : 0 Dropped bytes error (maybe fixed) : 0 Duplicated bytes error (maybe fixed) : 0
Track 20 Filename : /Users/kgpat/Desktop/Convert/BatmanAssaultOnArkhamFLAC/20 Robert J. Kral - Chopper Crash.flac Pre-gap length : 00:02:00
CRC32 hash : 44D651DE CRC32 hash (skip zero) : C3D45B02 AccurateRip v1 signature : 67810E33 AccurateRip v2 signature : 58E48388 ->Track not present in AccurateRip database. Statistics Read error : 0 Skipped (treated as error) : 0 Edge jitter error (maybe fixed) : 0 Atom jitter error (maybe fixed) : 0 Drift error (maybe fixed) : 0 Dropped bytes error (maybe fixed) : 0 Duplicated bytes error (maybe fixed) : 0
Track 21 Filename : /Users/kgpat/Desktop/Convert/BatmanAssaultOnArkhamFLAC/21 Robert J. Kral - Harley's Rage.flac Pre-gap length : 00:02:00
CRC32 hash : 6DFE6407 CRC32 hash (skip zero) : 4CA25B9A AccurateRip v1 signature : 46FC569E AccurateRip v2 signature : 9EFD643B ->Track not present in AccurateRip database. Statistics Read error : 0 Skipped (treated as error) : 0 Edge jitter error (maybe fixed) : 0 Atom jitter error (maybe fixed) : 0 Drift error (maybe fixed) : 0 Dropped bytes error (maybe fixed) : 0 Duplicated bytes error (maybe fixed) : 0
Track 22 Filename : /Users/kgpat/Desktop/Convert/BatmanAssaultOnArkhamFLAC/22 Robert J. Kral - Final Confrontations.flac Pre-gap length : 00:02:00
CRC32 hash : 2B26D9B5 CRC32 hash (skip zero) : D23067A0 AccurateRip v1 signature : 9AA505B9 AccurateRip v2 signature : C4BDD6DD ->Track not present in AccurateRip database. Statistics Read error : 0 Skipped (treated as error) : 0 Edge jitter error (maybe fixed) : 0 Atom jitter error (maybe fixed) : 0 Drift error (maybe fixed) : 0 Dropped bytes error (maybe fixed) : 0 Duplicated bytes error (maybe fixed) : 0
Track 23 Filename : /Users/kgpat/Desktop/Convert/BatmanAssaultOnArkhamFLAC/23 Robert J. Kral - Batman - Assault On Arkham End Credits.flac Pre-gap length : 00:02:00
CRC32 hash : 012595FA CRC32 hash (skip zero) : 5ED2862A AccurateRip v1 signature : 6960BEF7 AccurateRip v2 signature : F5AE0A63 ->Track not present in AccurateRip database. Statistics Read error : 0 Skipped (treated as error) : 0 Edge jitter error (maybe fixed) : 0 Atom jitter error (maybe fixed) : 2 Drift error (maybe fixed) : 0 Dropped bytes error (maybe fixed) : 0 Duplicated bytes error (maybe fixed) : 0
No errors occurred
End of status report

Содержание индексной карты (.CUE)

TITLE "Batman: Assault on Gotham (LLLCD 2014)"PERFORMER "Robert J. Kral"REM GENRE "Soundtrack"REM DATE "2014"REM DISCNUMBER 1REM TOTALDISCS 1REM DISCID 540D9317FILE "01 Robert J. Kral - Nigma's Confrontation - It's Batman.flac" WAVE TRACK 01 AUDIO TITLE "Nigma's Confrontation / It's Batman" SONGWRITER "Robert J. Kral" FLAGS DCP INDEX 01 00:00:00 TRACK 02 AUDIO TITLE "Criminal Montage" SONGWRITER "Robert J. Kral" FLAGS DCP INDEX 00 03:10:43FILE "02 Robert J. Kral - Criminal Montage.flac" WAVE INDEX 01 00:00:00 TRACK 03 AUDIO TITLE "Task Force Indoctrination" SONGWRITER "Robert J. Kral" FLAGS DCP INDEX 00 03:06:01FILE "03 Robert J. Kral - Task Force Indoctrination.flac" WAVE INDEX 01 00:00:00 TRACK 04 AUDIO TITLE "Dropping Down" SONGWRITER "Robert J. Kral" FLAGS DCP INDEX 00 02:41:42FILE "04 Robert J. Kral - Dropping Down.flac" WAVE INDEX 01 00:00:00 TRACK 05 AUDIO TITLE "Gearing Up / Beer Room Challenge" SONGWRITER "Robert J. Kral" FLAGS DCP INDEX 00 01:59:73FILE "05 Robert J. Kral - Gearing Up - Beer Room Challenge.flac" WAVE INDEX 01 00:00:00 TRACK 06 AUDIO TITLE "Yahtzee!" SONGWRITER "Robert J. Kral" FLAGS DCP INDEX 00 01:51:28FILE "06 Robert J. Kral - Yahtzee!.flac" WAVE INDEX 01 00:00:00 TRACK 07 AUDIO TITLE "Harley Arrested to Arkham" SONGWRITER "Robert J. Kral" FLAGS DCP INDEX 00 01:04:73FILE "07 Robert J. Kral - Harley Arrested to Arkham.flac" WAVE INDEX 01 00:00:00 TRACK 08 AUDIO TITLE "Infiltrating Arkham & Joker Assault" SONGWRITER "Robert J. Kral" FLAGS DCP INDEX 00 03:01:36FILE "08 Robert J. Kral - Infiltrating Arkham & Joker Assault.flac" WAVE INDEX 01 00:00:00 TRACK 09 AUDIO TITLE "Killer Frost's Kiss & Black Spider's Microwave" SONGWRITER "Robert J. Kral" FLAGS DCP INDEX 00 05:32:72FILE "09 Robert J. Kral - Killer Frost's Kiss & Black Spider's Microwave.flac" WAVE INDEX 01 00:00:00 TRACK 10 AUDIO TITLE "Harley Bait & King Shark's Work" SONGWRITER "Robert J. Kral" FLAGS DCP INDEX 00 01:59:67FILE "10 Robert J. Kral - Harley Bait & King Shark's Work.flac" WAVE INDEX 01 00:00:00 TRACK 11 AUDIO TITLE "Suicide Squad in the Big House" SONGWRITER "Robert J. Kral" FLAGS DCP INDEX 00 01:27:71FILE "11 Robert J. Kral - Suicide Squad in the Big House.flac" WAVE INDEX 01 00:00:00 TRACK 12 AUDIO TITLE "Batman's Gotham & Property Room Access" SONGWRITER "Robert J. Kral" FLAGS DCP INDEX 00 03:44:70FILE "12 Robert J. Kral - Batman's Gotham & Property Room Access.flac" WAVE INDEX 01 00:00:00 TRACK 13 AUDIO TITLE "Batman Fights Suicide Squad" SONGWRITER "Robert J. Kral" FLAGS DCP INDEX 00 02:59:07FILE "13 Robert J. Kral - Batman Fights Suicide Squad.flac" WAVE INDEX 01 00:00:00 TRACK 14 AUDIO TITLE "Riddler Proposes a Cure" SONGWRITER "Robert J. Kral" FLAGS DCP INDEX 00 02:11:74FILE "14 Robert J. Kral - Riddler Proposes a Cure.flac" WAVE INDEX 01 00:00:00 TRACK 15 AUDIO TITLE "Joker's Out / Suicide Squad vs SCU" SONGWRITER "Robert J. Kral" FLAGS DCP INDEX 00 01:14:34FILE "15 Robert J. Kral - Joker's Out - Suicide Squad vs SCU.flac" WAVE INDEX 01 00:00:00 TRACK 16 AUDIO TITLE "Shocking Solution" SONGWRITER "Robert J. Kral" FLAGS DCP INDEX 00 03:34:65FILE "16 Robert J. Kral - Shocking Solution.flac" WAVE INDEX 01 00:00:00 TRACK 17 AUDIO TITLE "Joker Attacks Batman" SONGWRITER "Robert J. Kral" FLAGS DCP INDEX 00 02:24:70FILE "17 Robert J. Kral - Joker Attacks Batman.flac" WAVE INDEX 01 00:00:00 TRACK 18 AUDIO TITLE "Prisoners Released" SONGWRITER "Robert J. Kral" FLAGS DCP INDEX 00 01:40:62FILE "18 Robert J. Kral - Prisoners Released.flac" WAVE INDEX 01 00:00:00 TRACK 19 AUDIO TITLE "Chopper Fight / Poison Ivy / The Batplane" SONGWRITER "Robert J. Kral" FLAGS DCP INDEX 00 02:45:66FILE "19 Robert J. Kral - Chopper Fight - Poison Ivy - The Batplane.flac" WAVE INDEX 01 00:00:00 TRACK 20 AUDIO TITLE "Chopper Crash" SONGWRITER "Robert J. Kral" FLAGS DCP INDEX 00 02:03:28FILE "20 Robert J. Kral - Chopper Crash.flac" WAVE INDEX 01 00:00:00 TRACK 21 AUDIO TITLE "Harley's Rage" SONGWRITER "Robert J. Kral" FLAGS DCP INDEX 00 02:24:42FILE "21 Robert J. Kral - Harley's Rage.flac" WAVE INDEX 01 00:00:00 TRACK 22 AUDIO TITLE "Final Confrontations" SONGWRITER "Robert J. Kral" FLAGS DCP INDEX 00 00:57:05FILE "22 Robert J. Kral - Final Confrontations.flac" WAVE INDEX 01 00:00:00 TRACK 23 AUDIO TITLE "Batman - Assault On Arkham End Credits" SONGWRITER "Robert J. Kral" FLAGS DCP INDEX 00 02:08:06FILE "23 Robert J. Kral - Batman - Assault On Arkham End Credits.flac" WAVE INDEX 01 00:00:00

Лог проверки качества

-----------------------
DON'T MODIFY THIS FILE
-----------------------
PERFORMER: auCDtect Task Manager, ver. 1.6.0 RC1 build 1.6.0.1Copyright (c) 2008-2010 y-soft. All rights reservedhttp://y-soft.org
ANALYZER: auCDtect: CD records authenticity detector, version 0.8.2Copyright (c) 2004 Oleg Berngardt. All rights reserved.Copyright (c) 2004 Alexander Djourik. All rights reserved.
FILE: 23 Robert J. Kral - Batman - Assault On Arkham End Credits.flac Size: 19651277 Hash: 4C48DE8A66EE4C8E28DF4AE9F9E13EF3 Accuracy: -m0 Conclusion: CDDA 100% Signature: 440B2E61DB392FD9B9D122DBB0FE06766F45702CFILE: 22 Robert J. Kral - Final Confrontations.flac Size: 13180990 Hash: 163A9C769DA214F00BD7727851BCC001 Accuracy: -m0 Conclusion: CDDA 100% Signature: 5AA43EE1F07E042B64F8633B64769B4B0DB9DD0CFILE: 21 Robert J. Kral - Harley's Rage.flac Size: 6430016 Hash: 62F63AEE5D8125682E598D4937CF9C81 Accuracy: -m0 Conclusion: CDDA 100% Signature: 43AD908658D621AEC82D33CD0E2A2A787615094AFILE: 20 Robert J. Kral - Chopper Crash.flac Size: 16726134 Hash: 0EA560AA7F30DDD4EDB6EF11F44BE1EF Accuracy: -m0 Conclusion: CDDA 100% Signature: 0596118C7F97AAF8DF0ACD6960451DFD8EDD9F8BFILE: 19 Robert J. Kral - Chopper Fight - Poison Ivy - The Batplane.flac Size: 13734181 Hash: DCBBA751E01F5D6F47F398A417EC24C3 Accuracy: -m0 Conclusion: CDDA 100% Signature: 029E1AA9B36A112D11C6F2B5FC681FDFD0092C07FILE: 18 Robert J. Kral - Prisoners Released.flac Size: 17876207 Hash: 497C9AB907CDACB231C94B28087C7E71 Accuracy: -m0 Conclusion: CDDA 100% Signature: CF3C43627FFB0C9447C9C4C70354D754E15F6437FILE: 17 Robert J. Kral - Joker Attacks Batman.flac Size: 10862624 Hash: 0EF09755EF31BBF140F1B584E4687ED8 Accuracy: -m0 Conclusion: CDDA 100% Signature: BCA0D2CB1416F2B38EA65A26EF9EC3785BAEE6EEFILE: 16 Robert J. Kral - Shocking Solution.flac Size: 14395825 Hash: C15ACCCE6BA9B8B26A400B3CB21EF257 Accuracy: -m0 Conclusion: CDDA 100% Signature: B0C16E5EC9F7C290B06E0954DA298AF75FEBD96FFILE: 15 Robert J. Kral - Joker's Out - Suicide Squad vs SCU.flac Size: 23766191 Hash: 473AE781CB099AEB5C3BD9CFF24A580F Accuracy: -m0 Conclusion: CDDA 100% Signature: D2596716D879B8B053E673229FC7D8256D0E59B8FILE: 14 Robert J. Kral - Riddler Proposes a Cure.flac Size: 5965275 Hash: B811065356C28DEC557ED3C69E91DDD6 Accuracy: -m0 Conclusion: CDDA 100% Signature: 49C39FD5CF274EB20437C47CB0541D27EA4F931FFILE: 13 Robert J. Kral - Batman Fights Suicide Squad.flac Size: 15432860 Hash: FC481D780876AD458B4CE84C09F51662 Accuracy: -m0 Conclusion: CDDA 99% Signature: 70BA11150B777D293804529A55C8B34DD67A325AFILE: 12 Robert J. Kral - Batman's Gotham & Property Room Access.flac Size: 15108980 Hash: F0C34071EB902E9F803B174F7E75C8D8 Accuracy: -m0 Conclusion: CDDA 100% Signature: 4756197E817381D3AAFD5E1A9719526B6DC6172FFILE: 11 Robert J. Kral - Suicide Squad in the Big House.flac Size: 23651370 Hash: D073C45D9735B6FE9E437F5A12E450FA Accuracy: -m0 Conclusion: CDDA 100% Signature: 8BF991755C8CF2D029454FCB3DD4166DAE9DA6F5FILE: 10 Robert J. Kral - Harley Bait & King Shark's Work.flac Size: 8214736 Hash: 17A2796301EF0F740618075B4E1157F3 Accuracy: -m0 Conclusion: CDDA 86% Signature: C44214FEAE1514D7273F10B077BB5F8C38A7042FFILE: 09 Robert J. Kral - Killer Frost's Kiss & Black Spider's Microwave.flac Size: 11661235 Hash: 2E6FC3F1CBAD7D88B36D6A12FC8C9694 Accuracy: -m0 Conclusion: CDDA 100% Signature: F7F522E829E61866793901C3ECF773F93A89B361FILE: 08 Robert J. Kral - Infiltrating Arkham & Joker Assault.flac Size: 36059602 Hash: B1D5F0A0F59C697AB2FEDCD39CE9DF40 Accuracy: -m0 Conclusion: CDDA 100% Signature: 6928ECFA913E28F915739EB2267CD607FCC0742EFILE: 07 Robert J. Kral - Harley Arrested to Arkham.flac Size: 15153370 Hash: DFEBDCE88A3D49E962EAEBECFC231A8F Accuracy: -m0 Conclusion: CDDA 100% Signature: 6A7F483B9DFF081276063950DA165F77942C93C6FILE: 06 Robert J. Kral - Yahtzee!.flac Size: 8173347 Hash: ACA4C1FFB0453445C1907F17CB872D82 Accuracy: -m0 Conclusion: CDDA 100% Signature: 4DD55632EC00CFB74707686836AEA14CBCF6B665FILE: 05 Robert J. Kral - Gearing Up - Beer Room Challenge.flac Size: 11672089 Hash: 069036B0246BBB79865ED62A31AE88AF Accuracy: -m0 Conclusion: CDDA 100% Signature: 513487208184424116D0337AE43B041DCA672CB0FILE: 04 Robert J. Kral - Dropping Down.flac Size: 10835018 Hash: 9A59DA3E1B58E9274B463EE1DA74BD2C Accuracy: -m0 Conclusion: CDDA 100% Signature: 1AB8C8B5273403221BDA49AD992A644E8AD0FB54FILE: 03 Robert J. Kral - Task Force Indoctrination.flac Size: 13166445 Hash: 9CFB983F3F15A9B6605603165B084623 Accuracy: -m0 Conclusion: CDDA 100% Signature: 84EE4128C2F6230D297CCFAD8E2EC51150AA2A7DFILE: 02 Robert J. Kral - Criminal Montage.flac Size: 21856224 Hash: CEF03B10BFD9660B1A42630CEF75D17A Accuracy: -m0 Conclusion: CDDA 100% Signature: 887205F4D364EBC3295C37C7180DD137CF64DE11FILE: 01 Robert J. Kral - Nigma's Confrontation - It's Batman.flac Size: 19077393 Hash: 882226CCB67104B22B8CB1EF99C1A838 Accuracy: -m0 Conclusion: CDDA 100% Signature: 9D69F8FA37F58D5B23660FA6BFB3810A88576FA0

Скриншот спектра частот

Доп. информация

Score: 65 (out of 100)
The following properties decreased the score:
No "Scan ReplayGain" info (does not affect audio data), -1 point [99]
Inconsistency in error sector(s) not found on every track, -5 points [94]
No test before copy on track 1, -1 points [93]
No test before copy on track 2, -1 points [92]
No test before copy on track 3, -1 points [91]
No test before copy on track 4, -1 points [90]
No test before copy on track 5, -1 points [89]
No test before copy on track 6, -1 points [88]
No test before copy on track 7, -1 points [87]
No test before copy on track 8, -1 points [86]
No test before copy on track 9, -1 points [85]
No test before copy on track 10, -1 points [84]
No test before copy on track 11, -1 points [83]
No test before copy on track 12, -1 points [82]
No test before copy on track 13, -1 points [81]
No test before copy on track 14, -1 points [80]
No test before copy on track 15, -1 points [79]
No test before copy on track 16, -1 points [78]
No test before copy on track 17, -1 points [77]
No test before copy on track 18, -1 points [76]
No test before copy on track 19, -1 points [75]
No test before copy on track 20, -1 points [74]
No test before copy on track 21, -1 points [73]
No test before copy on track 22, -1 points [72]
No test before copy on track 23, -1 points [71]
Incorrect read offset for drive. Correct offsets are: +6, 6 (Checked against the following drive(s): TSSTcorp BDDVDW SE-506CB), -5 points [66]
XLD Checksum plugin not installed (no XLD Signature present), -1 point [65]
[teatrix.ru].t10394.torrent 
Торрент: Зарегистрирован [ 2015-11-01 20:51 ] · FF70320C58459F24A39167518392C3411AD98398

Скачать .torrent

Скачать

16 KB

Статус: проверено
Скачан: 0 раз
Размер: 342 MB
terms.php



Быстрый ответ

Имя:

      
Для отправки сообщений необходимо включить JavaScript
Показать сообщения:    

Текущее время: 09-Дек 08:53

Часовой пояс: UTC + 3


Вы можете начинать темы
Вы можете отвечать на сообщения
Вы не можете редактировать свои сообщения
Вы не можете удалять свои сообщения
Вы не можете голосовать в опросах
Вы не можете прикреплять файлы к сообщениям
Вы можете скачивать файлы