(Score) Трансформеры: Эпоха истребления / Transformers: Age of Extinction (Steve Jablonsky) - 2014, FLAC (tracks+.cue), lossless


Статистика раздачи [Обновить пиров]
Размер:  374 MB   |    Зарегистрирован:  1 год 1 месяц   |    Скачан:  1 раз

Полного источника не было: 23 дня

 
   
 
 
 

[Цитировать]

Трансформеры: Эпоха истребления / Transformers: Age of Extinction
Название альбома: Transformers: Age of Extinction
Жанр: Score
Композитор: Steve Jablonsky
Год выпуска диска: 2014
Год выпуска фильма: 2014
Страна-производитель диска: USA
Издатель (лейбл): lalalandrecords
Номер по каталогу: LIMITED EDITION LLLCD 1311
Аудиокодек: FLAC (*.flac)
Тип рипа: tracks+.cue
Битрейт аудио: lossless
Продолжительность: 77 minutes
Источник: собственный рип
Наличие сканов в содержимом раздачи: нет
Треклист:
1. Decision (4:20)
2. Best Thing That Ever Happened (2:06)
3. I'm an Autobot (5:06)
4. Optimus Is Alive (2:17)
5. Cemetery Wind (5:53)
6. His Name Is Shane and He Drives (5:17)
7. Hacking the Drone (2:05)
8. Transformium (3:24)
9. Galvatron Is Online (1:56)
10. Your Creators Want You Back (3:26)
11. The Final Knight (4:07)
12. Punch Hold Slide Repeat (2:12)
13. The Presence of Megatron (2:51)
14. Galvatron Is Active (4:13)
15. Have Faith Prime (1:29)
16. Hong Kong Chase (1:43)
17. The Legend Exists (1:16)
18. Dinobot Charge (6:37)
19. That's a Big Magnet (2:51)
20. Drive Backwards (2:05)
21. Honor to the End (5:18)
22. Leave Planet Earth Alone (3:47)
23. The Knight Ship (3:21)

Лог создания рипа

Exact Audio Copy V1.0 beta 3 from 29. August 2011
EAC extraction logfile from 16. October 2014, 16:34
Steve Jablonsky / Transformers: Age Of Extinction (The Score)
Used drive : HL-DT-STBD-RE BH10LS38 Adapter: 2 ID: 0
Read mode : SecureUtilize accurate stream : YesDefeat audio cache : YesMake use of C2 pointers : No
Read offset correction : 667Overread into Lead-In and Lead-Out : NoFill up missing offset samples with silence : YesDelete leading and trailing silent blocks : NoNull samples used in CRC calculations : YesUsed interface : Native Win32 interface for Win NT & 2000Gap handling : Appended to previous track
Used output format : User Defined EncoderSelected bitrate : 768 kBit/sQuality : HighAdd ID3 tag : NoCommand line compressor : C:\Program Files (x86)\Exact Audio Copy\FLAC\FLAC.EXEAdditional command line options : -8 -V -T "ARTIST=%artist%" -T "TITLE=%title%" -T "ALBUM=%albumtitle%" -T "DATE=%year%" -T "TRACKNUMBER=%tracknr%" -T "GENRE=%genre%" -T "PERFORMER=%albuminterpret%" -T "COMPOSER=%composer%" %haslyrics%--tag-from-file=LYRICS="%lyricsfile%"%haslyrics% -T "ALBUMARTIST=%albumartist%" -T "ALBUM ARTIST=%albumartist%" -T "DISCNUMBER=%cdnumber%" -T "TOTALDISCS=%totalcds%" -T "TOTALTRACKS=%numtracks%" -T "COMMENT=%comment%" %source% -o %dest%
TOC of the extracted CD
Track | Start | Length | Start sector | End sector --------------------------------------------------------- 1 | 0:00.00 | 4:20.61 | 0 | 19560 2 | 4:20.61 | 2:06.44 | 19561 | 29054 3 | 6:27.30 | 5:06.20 | 29055 | 52024 4 | 11:33.50 | 2:17.41 | 52025 | 62340 5 | 13:51.16 | 5:53.54 | 62341 | 88869 6 | 19:44.70 | 5:17.43 | 88870 | 112687 7 | 25:02.38 | 2:05.21 | 112688 | 122083 8 | 27:07.59 | 3:24.10 | 122084 | 137393 9 | 30:31.69 | 1:56.63 | 137394 | 146156 10 | 32:28.57 | 3:26.66 | 146157 | 161672 11 | 35:55.48 | 4:07.59 | 161673 | 180256 12 | 40:03.32 | 2:12.21 | 180257 | 190177 13 | 42:15.53 | 2:51.31 | 190178 | 203033 14 | 45:07.09 | 4:13.71 | 203034 | 222079 15 | 49:21.05 | 1:29.02 | 222080 | 228756 16 | 50:50.07 | 1:43.11 | 228757 | 236492 17 | 52:33.18 | 1:16.10 | 236493 | 242202 18 | 53:49.28 | 6:37.06 | 242203 | 271983 19 | 60:26.34 | 2:51.04 | 271984 | 284812 20 | 63:17.38 | 2:05.06 | 284813 | 294193 21 | 65:22.44 | 5:18.60 | 294194 | 318103 22 | 70:41.29 | 3:47.43 | 318104 | 335171 23 | 74:28.72 | 3:21.21 | 335172 | 350267
Track 1
Filename C:\Rips\01 - Decision.wav
Pre-gap length 0:00:02.00
Peak level 94.3 % Extraction speed 1.3 X Track quality 100.0 % Test CRC C6271B78 Copy CRC C6271B78 Track not present in AccurateRip database Copy OK
Track 2
Filename C:\Rips\02 - Best Thing That Ever Happened.wav
Peak level 94.3 % Extraction speed 1.2 X Track quality 100.0 % Test CRC 868FF0D5 Copy CRC 868FF0D5 Track not present in AccurateRip database Copy OK
Track 3
Filename C:\Rips\03 - I'm An Autobot.wav
Peak level 96.5 % Extraction speed 1.5 X Track quality 100.0 % Test CRC 2887A714 Copy CRC 2887A714 Track not present in AccurateRip database Copy OK
Track 4
Filename C:\Rips\04 - Optimus Is Alive.wav
Peak level 100.0 % Extraction speed 1.4 X Track quality 100.0 % Test CRC 191EFA40 Copy CRC 191EFA40 Track not present in AccurateRip database Copy OK
Track 5
Filename C:\Rips\05 - Cemetery Wind.wav
Peak level 97.3 % Extraction speed 1.7 X Track quality 100.0 % Test CRC 99ABEA35 Copy CRC 99ABEA35 Track not present in AccurateRip database Copy OK
Track 6
Filename C:\Rips\06 - His Name Is Shane And He Drives.wav
Peak level 94.3 % Extraction speed 1.8 X Track quality 100.0 % Test CRC 50699637 Copy CRC 50699637 Track not present in AccurateRip database Copy OK
Track 7
Filename C:\Rips\07 - Hacking The Drone.wav
Peak level 94.6 % Extraction speed 1.6 X Track quality 100.0 % Test CRC 444217E7 Copy CRC 444217E7 Track not present in AccurateRip database Copy OK
Track 8
Filename C:\Rips\08 - Transformium.wav
Peak level 97.3 % Extraction speed 1.9 X Track quality 100.0 % Test CRC 3EB5E74F Copy CRC 3EB5E74F Track not present in AccurateRip database Copy OK
Track 9
Filename C:\Rips\09 - Galvatron Is Online.wav
Peak level 94.3 % Extraction speed 1.4 X Track quality 99.9 % Test CRC AB508A61 Copy CRC AB508A61 Track not present in AccurateRip database Copy OK
Track 10
Filename C:\Rips\10 - Your Creators Want You Back.wav
Peak level 94.3 % Extraction speed 1.9 X Track quality 100.0 % Test CRC DA05A386 Copy CRC DA05A386 Track not present in AccurateRip database Copy OK
Track 11
Filename C:\Rips\11 - The Final Knight.wav
Peak level 94.3 % Extraction speed 2.1 X Track quality 100.0 % Test CRC 7D4442FA Copy CRC 7D4442FA Track not present in AccurateRip database Copy OK
Track 12
Filename C:\Rips\12 - Punch Hold Slide Repeat.wav
Peak level 95.3 % Extraction speed 1.9 X Track quality 100.0 % Test CRC D28F9A2D Copy CRC D28F9A2D Track not present in AccurateRip database Copy OK
Track 13
Filename C:\Rips\13 - The Presence Of Megatron.wav
Peak level 94.3 % Extraction speed 2.1 X Track quality 100.0 % Test CRC 50F37554 Copy CRC 50F37554 Track not present in AccurateRip database Copy OK
Track 14
Filename C:\Rips\14 - Galvatron Is Active.wav
Peak level 94.3 % Extraction speed 2.0 X Track quality 99.9 % Test CRC F9AC2CD1 Copy CRC F9AC2CD1 Track not present in AccurateRip database Copy OK
Track 15
Filename C:\Rips\15 - Have Faith Prime.wav
Peak level 94.3 % Extraction speed 1.8 X Track quality 100.0 % Test CRC C131AF10 Copy CRC C131AF10 Track not present in AccurateRip database Copy OK
Track 16
Filename C:\Rips\16 - Hong Kong Chase.wav
Peak level 94.3 % Extraction speed 1.9 X Track quality 100.0 % Test CRC 8BD603DA Copy CRC 8BD603DA Track not present in AccurateRip database Copy OK
Track 17
Filename C:\Rips\17 - The Legend Exists.wav
Peak level 94.3 % Extraction speed 1.8 X Track quality 100.0 % Test CRC 544C8362 Copy CRC 544C8362 Track not present in AccurateRip database Copy OK
Track 18
Filename C:\Rips\18 - Dinobots Charge.wav
Peak level 94.3 % Extraction speed 2.4 X Track quality 99.9 % Test CRC F1BCB269 Copy CRC F1BCB269 Track not present in AccurateRip database Copy OK
Track 19
Filename C:\Rips\19 - That's A Big Magnet.wav
Peak level 94.3 % Extraction speed 2.4 X Track quality 100.0 % Test CRC 493E0EDD Copy CRC 493E0EDD Track not present in AccurateRip database Copy OK
Track 20
Filename C:\Rips\20 - Drive Backwards.wav
Peak level 94.3 % Extraction speed 2.2 X Track quality 100.0 % Test CRC 7E8787A8 Copy CRC 7E8787A8 Track not present in AccurateRip database Copy OK
Track 21
Filename C:\Rips\21 - Honor To The End.wav
Peak level 94.3 % Extraction speed 2.7 X Track quality 100.0 % Test CRC 6145934B Copy CRC 6145934B Track not present in AccurateRip database Copy OK
Track 22
Filename C:\Rips\22 - Leave Planet Earth Alone.wav
Peak level 94.3 % Extraction speed 2.6 X Track quality 100.0 % Test CRC 9AE99539 Copy CRC 9AE99539 Track not present in AccurateRip database Copy OK
Track 23
Filename C:\Rips\23 - The Knight Ship.wav
Peak level 94.3 % Extraction speed 2.6 X Track quality 100.0 % Test CRC EE0DF1D0 Copy CRC EE0DF1D0 Track not present in AccurateRip database Copy OK
None of the tracks are present in the AccurateRip database
No errors occurred
End of status report
==== Log checksum B679E4C61C90C758654DEEA75F922C6E08666A7D06BCA05468E92A30FBF4E2E6 ====

Содержание индексной карты (.CUE)

REM GENRE SoundtrackREM DATE 2014REM DISCID 5C123E17REM COMMENT "ExactAudioCopy v1.0b3"FILE "01 - Decision.wav" WAVE TRACK 01 AUDIO INDEX 01 00:00:00FILE "02 - Best Thing That Ever Happened.wav" WAVE TRACK 02 AUDIO INDEX 01 00:00:00FILE "03 - I'm An Autobot.wav" WAVE TRACK 03 AUDIO INDEX 01 00:00:00FILE "04 - Optimus Is Alive.wav" WAVE TRACK 04 AUDIO INDEX 01 00:00:00FILE "05 - Cemetery Wind.wav" WAVE TRACK 05 AUDIO INDEX 01 00:00:00FILE "06 - His Name Is Shane And He Drives.wav" WAVE TRACK 06 AUDIO INDEX 01 00:00:00FILE "07 - Hacking The Drone.wav" WAVE TRACK 07 AUDIO INDEX 01 00:00:00FILE "08 - Transformium.wav" WAVE TRACK 08 AUDIO INDEX 01 00:00:00FILE "09 - Galvatron Is Online.wav" WAVE TRACK 09 AUDIO INDEX 01 00:00:00FILE "10 - Your Creators Want You Back.wav" WAVE TRACK 10 AUDIO INDEX 01 00:00:00FILE "11 - The Final Knight.wav" WAVE TRACK 11 AUDIO INDEX 01 00:00:00FILE "12 - Punch Hold Slide Repeat.wav" WAVE TRACK 12 AUDIO INDEX 01 00:00:00FILE "13 - The Presence Of Megatron.wav" WAVE TRACK 13 AUDIO INDEX 01 00:00:00FILE "14 - Galvatron Is Active.wav" WAVE TRACK 14 AUDIO INDEX 01 00:00:00FILE "15 - Have Faith Prime.wav" WAVE TRACK 15 AUDIO INDEX 01 00:00:00FILE "16 - Hong Kong Chase.wav" WAVE TRACK 16 AUDIO INDEX 01 00:00:00FILE "17 - The Legend Exists.wav" WAVE TRACK 17 AUDIO INDEX 01 00:00:00FILE "18 - Dinobots Charge.wav" WAVE TRACK 18 AUDIO INDEX 01 00:00:00FILE "19 - That's A Big Magnet.wav" WAVE TRACK 19 AUDIO INDEX 01 00:00:00FILE "20 - Drive Backwards.wav" WAVE TRACK 20 AUDIO INDEX 01 00:00:00FILE "21 - Honor To The End.wav" WAVE TRACK 21 AUDIO INDEX 01 00:00:00FILE "22 - Leave Planet Earth Alone.wav" WAVE TRACK 22 AUDIO INDEX 01 00:00:00FILE "23 - The Knight Ship.wav" WAVE TRACK 23 AUDIO INDEX 01 00:00:00
[teatrix.ru].t10395.torrent 
Торрент: Зарегистрирован [ 2015-11-01 20:51 ] · 9A8247DEAB56C9A4D7B88CC73E67F5257F47AC95

Скачать .torrent

Скачать

17 KB

Статус: проверено
Скачан: 1 раз
Размер: 374 MB
terms.php



Быстрый ответ

Имя:

      
Для отправки сообщений необходимо включить JavaScript
Показать сообщения:    

Текущее время: 07-Дек 17:29

Часовой пояс: UTC + 3


Вы можете начинать темы
Вы можете отвечать на сообщения
Вы не можете редактировать свои сообщения
Вы не можете удалять свои сообщения
Вы не можете голосовать в опросах
Вы не можете прикреплять файлы к сообщениям
Вы можете скачивать файлы