(Score) Гуд бай, Ленин! / Good Bye Lenin! (by Yann Tiersen) - 2003, FLAC (tracks+.cue), lossless


Статистика раздачи [Обновить пиров]
Размер:  262 MB   |    Зарегистрирован:  1 год 1 месяц   |    Скачан:  2 раза
Сидов:  2  [  0 KB/s  ]   Подробная статистика пиров
 
   
 
 
 

[Цитировать]

Гуд бай, Ленин! | Good Bye Lenin!
Жанр: Score
Композитор: Yann Tiersen
Год выпуска диска: 2003
Страна-производитель диска: EU
Издатель (лейбл): EMI Records France
Номер по каталогу: 07243 582548 2 2
Аудиокодек: FLAC (*.flac)
Тип рипа: tracks+.cue
Битрейт аудио: lossless
Продолжительность: 00:47:13
Источник: собственный рип
Наличие сканов в содержимом раздачи: да

Треклист

1. Summer 78 (Instrumental) (03:52)
2. Coma (01:20)
3. Childhood (1) (01:39)
4. From Prison To Hospital (01:29)
5. Mother (00:52)
6. Watching Lara (01:30)
7. Dishes (00:49)
8. First Rendez-Vous (01:19)
9. The Decant Session (00:49)
10. Lara’s Castle (01:49)
11. The Deutsch Mark Is Coming (01:13)
12. I Saw Daddy Today (02:06)
13. Birthday Preparations (02:33)
14. Good Bye Lenin (04:59)
15. Childhood (2) (01:46)
16. Letters (01:23)
17. Mother’s Journey (01:31)
18. Preparations For The Last TV Fake (03:10)
19. Mother Will Die (03:11)
20. Father Is Late (01:34)
21. Father And Mother (02:56)
22. Finding The Money (01:27)
23. Summer 78 (03:56)
Featuring Claire Pichet

Лог создания рипа

Exact Audio Copy V1.0 beta 3 from 29. August 2011
EAC extraction logfile from 26. July 2014, 14:40
Yann Tiersen / Good Bye Lenin!
Used drive : ATAPI iHBS312 2 Adapter: 1 ID: 0
Read mode : SecureUtilize accurate stream : YesDefeat audio cache : YesMake use of C2 pointers : No
Read offset correction : 6Overread into Lead-In and Lead-Out : NoFill up missing offset samples with silence : YesDelete leading and trailing silent blocks : NoNull samples used in CRC calculations : YesUsed interface : Native Win32 interface for Win NT & 2000Gap handling : Appended to previous track
Used output format : User Defined EncoderSelected bitrate : 768 kBit/sQuality : HighAdd ID3 tag : NoCommand line compressor : C:\Program Files\Exact Audio Copy\FLAC\FLAC.EXEAdditional command line options : -V -8 -T "Genre=%genre%" -T "Artist=%artist%" -T "Title=%title%" -T "Album=%albumtitle%" -T "Date=%year%" -T "Tracknumber=%tracknr%" -T "Comment=%comment%" %source%
TOC of the extracted CD
Track | Start | Length | Start sector | End sector --------------------------------------------------------- 1 | 0:00.00 | 3:50.50 | 0 | 17299 2 | 3:50.50 | 1:18.30 | 17300 | 23179 3 | 5:09.05 | 1:37.40 | 23180 | 30494 4 | 6:46.45 | 1:27.40 | 30495 | 37059 5 | 8:14.10 | 0:50.20 | 37060 | 40829 6 | 9:04.30 | 1:28.65 | 40830 | 47494 7 | 10:33.20 | 0:47.47 | 47495 | 51066 8 | 11:20.67 | 1:17.23 | 51067 | 56864 9 | 12:38.15 | 0:47.37 | 56865 | 60426 10 | 13:25.52 | 1:47.25 | 60427 | 68476 11 | 15:13.02 | 1:11.53 | 68477 | 73854 12 | 16:24.55 | 2:04.25 | 73855 | 83179 13 | 18:29.05 | 2:31.22 | 83180 | 94526 14 | 21:00.27 | 4:57.43 | 94527 | 116844 15 | 25:57.70 | 1:44.67 | 116845 | 124711 16 | 27:42.62 | 1:21.18 | 124712 | 130804 17 | 29:04.05 | 1:29.15 | 130805 | 137494 18 | 30:33.20 | 3:08.05 | 137495 | 151599 19 | 33:41.25 | 3:09.50 | 151600 | 165824 20 | 36:51.00 | 1:32.05 | 165825 | 172729 21 | 38:23.05 | 2:54.25 | 172730 | 185804 22 | 41:17.30 | 1:26.00 | 185805 | 192254 23 | 42:43.30 | 3:54.30 | 192255 | 209834 24 | 49:09.60 | 24:48.15 | 221235 | 332849
Track 1
Filename F:\torrent\Good Bye Lenin_Yann Tiersen\score\01 Summer 78 (Instrumental).wav
Pre-gap length 0:00:02.00
Peak level 100.0 % Extraction speed 5.7 X Track quality 100.0 % Test CRC 68183151 Copy CRC 68183151 Accurately ripped (confidence 4) [7AF190BF] (AR v2) Copy OK
Track 2
Filename F:\torrent\Good Bye Lenin_Yann Tiersen\score\02 Coma.wav
Peak level 100.0 % Extraction speed 4.8 X Track quality 100.0 % Test CRC 17A19512 Copy CRC 17A19512 Accurately ripped (confidence 4) [C95FA553] (AR v2) Copy OK
Track 3
Filename F:\torrent\Good Bye Lenin_Yann Tiersen\score\03 Childhood (1).wav
Peak level 99.3 % Extraction speed 5.3 X Track quality 100.0 % Test CRC 6DE41077 Copy CRC 6DE41077 Accurately ripped (confidence 4) [F8623CE3] (AR v2) Copy OK
Track 4
Filename F:\torrent\Good Bye Lenin_Yann Tiersen\score\04 From Prison To Hospital.wav
Peak level 100.0 % Extraction speed 5.2 X Track quality 100.0 % Test CRC 1CB58F38 Copy CRC 1CB58F38 Accurately ripped (confidence 5) [31F9273C] (AR v2) Copy OK
Track 5
Filename F:\torrent\Good Bye Lenin_Yann Tiersen\score\05 Mother.wav
Peak level 99.7 % Extraction speed 4.4 X Track quality 100.0 % Test CRC EAB0BF94 Copy CRC EAB0BF94 Accurately ripped (confidence 4) [E07D4F67] (AR v2) Copy OK
Track 6
Filename F:\torrent\Good Bye Lenin_Yann Tiersen\score\06 Watching Lara.wav
Peak level 99.3 % Extraction speed 5.5 X Track quality 100.0 % Test CRC F1C853E0 Copy CRC F1C853E0 Accurately ripped (confidence 4) [41600205] (AR v2) Copy OK
Track 7
Filename F:\torrent\Good Bye Lenin_Yann Tiersen\score\07 Dishes.wav
Peak level 100.0 % Extraction speed 4.4 X Track quality 100.0 % Test CRC BB75B4E7 Copy CRC BB75B4E7 Accurately ripped (confidence 5) [4EAAFAB2] (AR v2) Copy OK
Track 8
Filename F:\torrent\Good Bye Lenin_Yann Tiersen\score\08 First Rendez-Vous.wav
Peak level 100.0 % Extraction speed 5.4 X Track quality 100.0 % Test CRC FAFBE980 Copy CRC FAFBE980 Accurately ripped (confidence 4) [719EF3DD] (AR v2) Copy OK
Track 9
Filename F:\torrent\Good Bye Lenin_Yann Tiersen\score\09 The Decant Session.wav
Peak level 100.0 % Extraction speed 4.4 X Track quality 100.0 % Test CRC 07E173CC Copy CRC 07E173CC Accurately ripped (confidence 5) [B11C00AD] (AR v2) Copy OK
Track 10
Filename F:\torrent\Good Bye Lenin_Yann Tiersen\score\10 Lara's Castle.wav
Peak level 99.7 % Extraction speed 6.2 X Track quality 100.0 % Test CRC E538ADCC Copy CRC E538ADCC Accurately ripped (confidence 4) [C51AF85A] (AR v2) Copy OK
Track 11
Filename F:\torrent\Good Bye Lenin_Yann Tiersen\score\11 The Deutsch Mark Is Coming.wav
Peak level 100.0 % Extraction speed 3.7 X Track quality 99.8 % Test CRC 844D33FD Copy CRC 844D33FD Accurately ripped (confidence 5) [0F78F32E] (AR v2) Copy OK
Track 12
Filename F:\torrent\Good Bye Lenin_Yann Tiersen\score\12 I Saw Daddy today.wav
Peak level 100.0 % Extraction speed 6.7 X Track quality 100.0 % Test CRC 5A5CDD49 Copy CRC 5A5CDD49 Accurately ripped (confidence 4) [E30FC525] (AR v2) Copy OK
Track 13
Filename F:\torrent\Good Bye Lenin_Yann Tiersen\score\13 Birthday Preparations.wav
Peak level 100.0 % Extraction speed 5.7 X Track quality 99.9 % Test CRC 24E704DE Copy CRC 24E704DE Accurately ripped (confidence 2) [4C4BDF00] (AR v2) Copy OK
Track 14
Filename F:\torrent\Good Bye Lenin_Yann Tiersen\score\14 Good Bye Lenin.wav
Peak level 100.0 % Extraction speed 8.4 X Track quality 100.0 % Test CRC 03487A7C Copy CRC 03487A7C Accurately ripped (confidence 4) [25D5BE2F] (AR v2) Copy OK
Track 15
Filename F:\torrent\Good Bye Lenin_Yann Tiersen\score\15 Childhood (2).wav
Peak level 99.4 % Extraction speed 5.1 X Track quality 99.8 % Test CRC 6A94CAD2 Copy CRC 6A94CAD2 Accurately ripped (confidence 5) [9C7F1BD2] (AR v2) Copy OK
Track 16
Filename F:\torrent\Good Bye Lenin_Yann Tiersen\score\16 Letters.wav
Peak level 100.0 % Extraction speed 6.7 X Track quality 100.0 % Test CRC 17F239EA Copy CRC 17F239EA Accurately ripped (confidence 5) [B6467A82] (AR v2) Copy OK
Track 17
Filename F:\torrent\Good Bye Lenin_Yann Tiersen\score\17 Mother's Journey.wav
Peak level 99.8 % Extraction speed 7.1 X Track quality 100.0 % Test CRC A106D48C Copy CRC A106D48C Accurately ripped (confidence 4) [AA85C6E2] (AR v2) Copy OK
Track 18
Filename F:\torrent\Good Bye Lenin_Yann Tiersen\score\18 Preparations For The Last TV Fake.wav
Peak level 100.0 % Extraction speed 8.3 X Track quality 100.0 % Test CRC C6F26516 Copy CRC C6F26516 Accurately ripped (confidence 5) [5975FC82] (AR v2) Copy OK
Track 19
Filename F:\torrent\Good Bye Lenin_Yann Tiersen\score\19 Mother Will Die.wav
Peak level 100.0 % Extraction speed 8.8 X Track quality 100.0 % Test CRC 91D81808 Copy CRC 91D81808 Accurately ripped (confidence 5) [55FAF4DC] (AR v2) Copy OK
Track 20
Filename F:\torrent\Good Bye Lenin_Yann Tiersen\score\20 Father Is Late.wav
Peak level 97.9 % Extraction speed 7.7 X Track quality 100.0 % Test CRC CC54C325 Copy CRC CC54C325 Accurately ripped (confidence 5) [39432928] (AR v2) Copy OK
Track 21
Filename F:\torrent\Good Bye Lenin_Yann Tiersen\score\21 Father And Mother.wav
Peak level 99.7 % Extraction speed 9.0 X Track quality 100.0 % Test CRC 618BD08F Copy CRC 618BD08F Accurately ripped (confidence 4) [127C64DB] (AR v2) Copy OK
Track 22
Filename F:\torrent\Good Bye Lenin_Yann Tiersen\score\22 Finding The Money.wav
Peak level 100.0 % Extraction speed 5.3 X Track quality 99.8 % Test CRC AFE638E1 Copy CRC AFE638E1 Accurately ripped (confidence 2) [C2EAA858] (AR v2) Copy OK
Track 23
Filename F:\torrent\Good Bye Lenin_Yann Tiersen\score\23 Summer 78.wav
Peak level 100.0 % Extraction speed 8.0 X Track quality 99.9 % Test CRC 5B08E59A Copy CRC 5B08E59A Accurately ripped (confidence 4) [F0FC3B18] (AR v2) Copy OK
All tracks accurately ripped
No errors occurred
End of status report
==== Log checksum 3C93DB7F55414C31C2CBB4A26B30D15183BCA14F70C2CD047E3FE1C23E08DF28 ====

Содержание индексной карты (.CUE)

REM GENRE SoundtrackREM DATE 2003REM DISCID 46115618REM COMMENT "ExactAudioCopy v1.0b3"PERFORMER "Yann Tiersen"TITLE "Good Bye Lenin!"FILE "01 Summer 78 (Instrumental).wav" WAVE TRACK 01 AUDIO TITLE "Summer 78 (Instrumental)" PERFORMER "Yann Tiersen" ISRC FRS940200072 INDEX 01 00:00:00FILE "02 Coma.wav" WAVE TRACK 02 AUDIO TITLE "Coma" PERFORMER "Yann Tiersen" ISRC FRS940200073 INDEX 01 00:00:00FILE "03 Childhood (1).wav" WAVE TRACK 03 AUDIO TITLE "Childhood (1)" PERFORMER "Yann Tiersen" ISRC FRS940200074 INDEX 01 00:00:00FILE "04 From Prison To Hospital.wav" WAVE TRACK 04 AUDIO TITLE "From Prison To Hospital" PERFORMER "Yann Tiersen" ISRC FRS940200075 INDEX 01 00:00:00FILE "05 Mother.wav" WAVE TRACK 05 AUDIO TITLE "Mother" PERFORMER "Yann Tiersen" ISRC FRS940200091 INDEX 01 00:00:00FILE "06 Watching Lara.wav" WAVE TRACK 06 AUDIO TITLE "Watching Lara" PERFORMER "Yann Tiersen" ISRC FRS940200076 INDEX 01 00:00:00FILE "07 Dishes.wav" WAVE TRACK 07 AUDIO TITLE "Dishes" PERFORMER "Yann Tiersen" ISRC FRS940200079 INDEX 01 00:00:00FILE "08 First Rendez-Vous.wav" WAVE TRACK 08 AUDIO TITLE "First Rendez-Vous" PERFORMER "Yann Tiersen" ISRC FRS940200078 INDEX 01 00:00:00FILE "09 The Decant Session.wav" WAVE TRACK 09 AUDIO TITLE "The Decant Session" PERFORMER "Yann Tiersen" ISRC FRS940200082 INDEX 01 00:00:00FILE "10 Lara's Castle.wav" WAVE TRACK 10 AUDIO TITLE "Lara's Castle" PERFORMER "Yann Tiersen" ISRC FRS940200081 INDEX 01 00:00:00FILE "11 The Deutsch Mark Is Coming.wav" WAVE TRACK 11 AUDIO TITLE "The Deutsch Mark Is Coming" PERFORMER "Yann Tiersen" ISRC FRS940300001 INDEX 01 00:00:00FILE "12 I Saw Daddy today.wav" WAVE TRACK 12 AUDIO TITLE "I Saw Daddy today" PERFORMER "Yann Tiersen" ISRC FRS940200084 INDEX 01 00:00:00FILE "13 Birthday Preparations.wav" WAVE TRACK 13 AUDIO TITLE "Birthday Preparations" PERFORMER "Yann Tiersen" ISRC FRS940200083 INDEX 01 00:00:00FILE "14 Good Bye Lenin.wav" WAVE TRACK 14 AUDIO TITLE "Good Bye Lenin" PERFORMER "Yann Tiersen" ISRC FRS940200087 INDEX 01 00:00:00FILE "15 Childhood (2).wav" WAVE TRACK 15 AUDIO TITLE "Childhood (2)" PERFORMER "Yann Tiersen" ISRC FRS940200089 INDEX 01 00:00:00FILE "16 Letters.wav" WAVE TRACK 16 AUDIO TITLE "Letters" PERFORMER "Yann Tiersen" ISRC FRS940200090 INDEX 01 00:00:00FILE "17 Mother's Journey.wav" WAVE TRACK 17 AUDIO TITLE "Mother's Journey" PERFORMER "Yann Tiersen" ISRC FRS940200080 INDEX 01 00:00:00FILE "18 Preparations For The Last TV Fake.wav" WAVE TRACK 18 AUDIO TITLE "Preparations For The Last TV Fake" PERFORMER "Yann Tiersen" ISRC FRS940200092 INDEX 01 00:00:00FILE "19 Mother Will Die.wav" WAVE TRACK 19 AUDIO TITLE "Mother Will Die" PERFORMER "Yann Tiersen" ISRC FRS940200095 INDEX 01 00:00:00FILE "20 Father Is Late.wav" WAVE TRACK 20 AUDIO TITLE "Father Is Late" PERFORMER "Yann Tiersen" ISRC FRS940200077 INDEX 01 00:00:00FILE "21 Father And Mother.wav" WAVE TRACK 21 AUDIO TITLE "Father And Mother" PERFORMER "Yann Tiersen" ISRC FRS940200093 INDEX 01 00:00:00FILE "22 Finding The Money.wav" WAVE TRACK 22 AUDIO TITLE "Finding The Money" PERFORMER "Yann Tiersen" ISRC FRS940200088 INDEX 01 00:00:00FILE "23 Summer 78.wav" WAVE TRACK 23 AUDIO TITLE "Summer 78" PERFORMER "Yann Tiersen" ISRC FRS940200094 INDEX 01 00:00:00 TRACK 24 MODEx/2xxx TITLE "Data Track" PERFORMER "Yann Tiersen" INDEX 00 03:54:30

Лог проверки качества

AUDIOCHECKER v2.0 beta (build 457) - by Dester - opdester@freemail.hu~~~~~~~~~~~~~~~~~~~~~~~~~~~~~~~~~~-=== НЕ РЕДАКТИРУЙТЕ ЭТОТ ФАЙЛ! ===-
Путь: ...\score
01 -=- 01 Summer 78 (Instrumental).flac -=- CDDA (100%)02 -=- 02 Coma.flac -=- CDDA (43%)03 -=- 03 Childhood (1).flac -=- ERROR04 -=- 04 From Prison To Hospital.flac -=- CDDA (100%)05 -=- 05 Mother.flac -=- MPEG (93%)06 -=- 06 Watching Lara.flac -=- ERROR07 -=- 07 Dishes.flac -=- CDDA (100%)08 -=- 08 First Rendez-Vous.flac -=- MPEG (100%)09 -=- 09 The Decant Session.flac -=- CDDA (76%)10 -=- 10 Lara's Castle.flac -=- CDDA (100%)11 -=- 11 The Deutsch Mark Is Coming.flac -=- CDDA (100%)12 -=- 12 I Saw Daddy today.flac -=- ERROR13 -=- 13 Birthday Preparations.flac -=- CDDA (100%)14 -=- 14 Good Bye Lenin.flac -=- CDDA (42%)15 -=- 15 Childhood (2).flac -=- CDDA (100%)16 -=- 16 Letters.flac -=- CDDA (100%)17 -=- 17 Mother's Journey.flac -=- CDDA (86%)18 -=- 18 Preparations For The Last TV Fake.flac -=- CDDA (100%)19 -=- 19 Mother Will Die.flac -=- CDDA (100%)20 -=- 20 Father Is Late.flac -=- CDDA (100%)21 -=- 21 Father And Mother.flac -=- CDDA (76%)22 -=- 22 Finding The Money.flac -=- CDDA (100%)23 -=- 23 Summer 78.flac -=- CDDA (100%)
Сводка 81,50% CDDA
257925108
[teatrix.ru].t10397.torrent 
Торрент: Зарегистрирован [ 2015-11-01 20:51 ] · A177A64907D4DBB7648EA0AB8B08250743325C73

Скачать .torrent

Скачать

13 KB

Статус: проверено
Скачан: 2 раз
Размер: 262 MB
terms.php



Быстрый ответ

Имя:

      
Для отправки сообщений необходимо включить JavaScript
Показать сообщения:    

Текущее время: 05-Дек 23:36

Часовой пояс: UTC + 3


Вы можете начинать темы
Вы можете отвечать на сообщения
Вы не можете редактировать свои сообщения
Вы не можете удалять свои сообщения
Вы не можете голосовать в опросах
Вы не можете прикреплять файлы к сообщениям
Вы можете скачивать файлы