(Score) Бэтмен: Маска Фантазма / Batman: Mask of the Phantasm (by Shirley Walker) - 2009 (1993), FLAC (tracks+.cue), lossless


Статистика раздачи [Обновить пиров]
Размер:  345 MB   |    Зарегистрирован:  1 год 1 месяц   |    Скачан:  0 раз
Сидов:  1  [  0 KB/s  ]   Подробная статистика пиров
 
   
 
 
 

[Цитировать]

Бэтмен: Маска Фантазма / Batman: Mask of the Phantasm- Жанр: Score
Композитор: Shirley Walker
Год выпуска диска: 2009
Год выпуска фильма: 1993
Страна-производитель диска: USA
Издатель (лейбл): La-La Land Records
Номер по каталогу: LLLCD 1089
Аудиокодек: FLAC (*.flac)
Тип рипа: tracks+.cue
Битрейт аудио: lossless
Продолжительность: 01:02:05
Источник: CD / forums.ffshrine.org
Наличие сканов в содержимом раздачи: да

Треклист

01 - Main Title: Batman: Mask of the Phantasm (Expanded)
02 - The Promise (Expanded)
03 - Ski Mask Vigilante (Expanded)
04 - Fancy Footwork*
05 - Phantasm's Graveyard Murder
06 - Bad News* / Set Trap* / May They Rest in Peace*
07 - First Love
08 - City Street Drive* / Sal Velestra* / Good Samaritan*
09 - Birth of Batman (Expanded)
10 - The Joker's Big Entrance*
11 - The Big Chase
12 - Nowhere to Run*
13 - A Plea for Help
14 - A Tall Man / Arturo and His Pal* / Makes You Want to Laugh* / What's So Funny?*
15 - Andrea Remembers* / True Identity*
16 - Phantasm and Joker Fight.flac
17 - Batman's Destiny*
18 - I Never Even Told You (performed by Tia Carrere)
Bonus Tracks
19 - Theme From Batman: Mask of the Phantasm
20 - Welcome to the Future!*
* - denotes previously unreleased material

Лог создания рипа

Exact Audio Copy V0.99 prebeta 4 from 23. January 2008
EAC extraction logfile from 1. November 2013, 13:51
Shirley Walker / Batman: Mask of the Phantasm
Used drive : PIONEER DVD RW DVR-109 Adapter: 1 ID: 0
Read mode : SecureUtilize accurate stream : YesDefeat audio cache : YesMake use of C2 pointers : No
Read offset correction : 48Overread into Lead-In and Lead-Out : NoFill up missing offset samples with silence : YesDelete leading and trailing silent blocks : NoNull samples used in CRC calculations : YesUsed interface : Native Win32 interface for Win NT & 2000Gap handling : Appended to previous track
Used output format : Internal WAV RoutinesSample format : 44.100 Hz; 16 Bit; Stereo
TOC of the extracted CD
Track | Start | Length | Start sector | End sector --------------------------------------------------------- 1 | 0:00.00 | 5:01.14 | 0 | 22588 2 | 5:01.14 | 1:25.13 | 22589 | 28976 3 | 6:26.27 | 4:28.60 | 28977 | 49136 4 | 10:55.12 | 0:40.54 | 49137 | 52190 5 | 11:35.66 | 3:52.04 | 52191 | 69594 6 | 15:27.70 | 1:51.12 | 69595 | 77931 7 | 17:19.07 | 1:59.69 | 77932 | 86925 8 | 19:19.01 | 2:16.73 | 86926 | 97198 9 | 21:35.74 | 6:01.36 | 97199 | 124309 10 | 27:37.35 | 3:02.40 | 124310 | 137999 11 | 30:40.00 | 5:40.04 | 138000 | 163503 12 | 36:20.04 | 2:00.66 | 163504 | 172569 13 | 38:20.70 | 1:01.10 | 172570 | 177154 14 | 39:22.05 | 4:04.08 | 177155 | 195462 15 | 43:26.13 | 3:18.66 | 195463 | 210378 16 | 46:45.04 | 6:00.35 | 210379 | 237413 17 | 52:45.39 | 1:46.51 | 237414 | 245414 18 | 54:32.15 | 4:23.66 | 245415 | 265205 19 | 58:56.06 | 2:06.01 | 265206 | 274656 20 | 61:02.07 | 1:03.62 | 274657 | 279443
Track 1
Filename C:\Documents and Settings\My Documents\My Music\Shirley Walker\1993 - Batman_ Mask of the Phantasm\01. Main Title_ Batman_ Mask of the Phantasm (Expanded).wav
Pre-gap length 0:00:02.00
Peak level 99.9 % Track quality 100.0 % Test CRC 2B088C06 Copy CRC 2B088C06 Accurately ripped (confidence 19) [94D6A374] Copy OK
Track 2
Filename C:\Documents and Settings\My Documents\My Music\Shirley Walker\1993 - Batman_ Mask of the Phantasm\02. The Promise (Expanded).wav
Pre-gap length 0:00:02.00
Peak level 87.4 % Track quality 100.0 % Test CRC A1350608 Copy CRC A1350608 Accurately ripped (confidence 19) [0FB67EEC] Copy OK
Track 3
Filename C:\Documents and Settings\My Documents\My Music\Shirley Walker\1993 - Batman_ Mask of the Phantasm\03. Ski Mask Vigilante (Expanded).wav
Pre-gap length 0:00:02.00
Peak level 99.9 % Track quality 100.0 % Test CRC 8E383DE1 Copy CRC 8E383DE1 Accurately ripped (confidence 19) [6192C5D6] Copy OK
Track 4
Filename C:\Documents and Settings\My Documents\My Music\Shirley Walker\1993 - Batman_ Mask of the Phantasm\04. Fancy Footwork.wav
Pre-gap length 0:00:02.00
Peak level 60.6 % Track quality 100.0 % Test CRC C48A4349 Copy CRC C48A4349 Accurately ripped (confidence 19) [BD3552B3] Copy OK
Track 5
Filename C:\Documents and Settings\My Documents\My Music\Shirley Walker\1993 - Batman_ Mask of the Phantasm\05. Phantasm's Graveyard Murder.wav
Pre-gap length 0:00:02.00
Peak level 80.0 % Track quality 100.0 % Test CRC BFA8F6AF Copy CRC BFA8F6AF Accurately ripped (confidence 19) [3317E921] Copy OK
Track 6
Filename C:\Documents and Settings\My Documents\My Music\Shirley Walker\1993 - Batman_ Mask of the Phantasm\06. Bad News _ Set Trap _ May They Rest in Peace.wav
Pre-gap length 0:00:02.00
Peak level 91.4 % Track quality 100.0 % Test CRC 4603D329 Copy CRC 4603D329 Accurately ripped (confidence 19) [671AC5A3] Copy OK
Track 7
Filename C:\Documents and Settings\My Documents\My Music\Shirley Walker\1993 - Batman_ Mask of the Phantasm\07. First Love.wav
Pre-gap length 0:00:02.00
Peak level 44.1 % Track quality 100.0 % Test CRC 3D4DF3EA Copy CRC 3D4DF3EA Accurately ripped (confidence 19) [18638CFF] Copy OK
Track 8
Filename C:\Documents and Settings\My Documents\My Music\Shirley Walker\1993 - Batman_ Mask of the Phantasm\08. City Street Drive _ Sal Velestra _ Good Samaritan.wav
Pre-gap length 0:00:02.00
Peak level 98.5 % Track quality 100.0 % Test CRC 67BEF71D Copy CRC 67BEF71D Accurately ripped (confidence 19) [5E5C441F] Copy OK
Track 9
Filename C:\Documents and Settings\My Documents\My Music\Shirley Walker\1993 - Batman_ Mask of the Phantasm\09. Birth of Batman (Expanded).wav
Pre-gap length 0:00:02.00
Peak level 87.8 % Track quality 100.0 % Test CRC ED7DF0B2 Copy CRC ED7DF0B2 Accurately ripped (confidence 19) [D1BD7EC5] Copy OK
Track 10
Filename C:\Documents and Settings\My Documents\My Music\Shirley Walker\1993 - Batman_ Mask of the Phantasm\10. The Joker's Big Entrance.wav
Pre-gap length 0:00:02.00
Peak level 58.4 % Track quality 100.0 % Test CRC C705A237 Copy CRC C705A237 Accurately ripped (confidence 19) [62D926EE] Copy OK
Track 11
Filename C:\Documents and Settings\My Documents\My Music\Shirley Walker\1993 - Batman_ Mask of the Phantasm\11. The Big Chase.wav
Pre-gap length 0:00:02.00
Peak level 99.1 % Track quality 100.0 % Test CRC 4BFC9C18 Copy CRC 4BFC9C18 Accurately ripped (confidence 19) [C72EBFD8] Copy OK
Track 12
Filename C:\Documents and Settings\My Documents\My Music\Shirley Walker\1993 - Batman_ Mask of the Phantasm\12. Nowhere to Run.wav
Pre-gap length 0:00:02.00
Peak level 62.4 % Track quality 100.0 % Test CRC 4E1EB8C1 Copy CRC 4E1EB8C1 Accurately ripped (confidence 19) [B8F299FF] Copy OK
Track 13
Filename C:\Documents and Settings\My Documents\My Music\Shirley Walker\1993 - Batman_ Mask of the Phantasm\13. A Plea for Help.wav
Pre-gap length 0:00:02.00
Peak level 50.1 % Track quality 100.0 % Test CRC 516D1FAF Copy CRC 516D1FAF Accurately ripped (confidence 19) [87A51278] Copy OK
Track 14
Filename C:\Documents and Settings\My Documents\My Music\Shirley Walker\1993 - Batman_ Mask of the Phantasm\14. A Tall Man _ Arturo and His Pal _ Makes You Want to Laugh _ What's So Funny_.wav
Pre-gap length 0:00:02.00
Peak level 88.9 % Track quality 100.0 % Test CRC 73FB40FA Copy CRC 73FB40FA Accurately ripped (confidence 19) [34E0A531] Copy OK
Track 15
Filename C:\Documents and Settings\My Documents\My Music\Shirley Walker\1993 - Batman_ Mask of the Phantasm\15. Andrea Remembers _ True Identity.wav
Pre-gap length 0:00:02.00
Peak level 84.4 % Track quality 100.0 % Test CRC 87BB9B6E Copy CRC 87BB9B6E Accurately ripped (confidence 19) [286DBA71] Copy OK
Track 16
Filename C:\Documents and Settings\My Documents\My Music\Shirley Walker\1993 - Batman_ Mask of the Phantasm\16. Phantasm and Joker Fight.wav
Pre-gap length 0:00:02.00
Peak level 98.8 % Track quality 100.0 % Test CRC E920E3D2 Copy CRC E920E3D2 Accurately ripped (confidence 19) [97947BE9] Copy OK
Track 17
Filename C:\Documents and Settings\My Documents\My Music\Shirley Walker\1993 - Batman_ Mask of the Phantasm\17. Batman's Destiny.wav
Pre-gap length 0:00:02.00
Peak level 99.8 % Track quality 100.0 % Test CRC 5BCD656E Copy CRC 5BCD656E Accurately ripped (confidence 19) [D78CDB08] Copy OK
Track 18
Filename C:\Documents and Settings\My Documents\My Music\Shirley Walker\1993 - Batman_ Mask of the Phantasm\18. I Never Even Told You.wav
Pre-gap length 0:00:02.00
Peak level 75.6 % Track quality 100.0 % Test CRC 2E785DC3 Copy CRC 2E785DC3 Accurately ripped (confidence 19) [693C6A7F] Copy OK
Track 19
Filename C:\Documents and Settings\My Documents\My Music\Shirley Walker\1993 - Batman_ Mask of the Phantasm\19. Theme From Batman_ Mask of the Phantasm.wav
Pre-gap length 0:00:04.00
Peak level 99.8 % Track quality 100.0 % Test CRC C475C8DB Copy CRC C475C8DB Accurately ripped (confidence 19) [42EB81BC] Copy OK
Track 20
Filename C:\Documents and Settings\My Documents\My Music\Shirley Walker\1993 - Batman_ Mask of the Phantasm\20. Welcome to the Future!.wav
Pre-gap length 0:00:02.00
Peak level 90.4 % Track quality 100.0 % Test CRC ECF0D61C Copy CRC ECF0D61C Accurately ripped (confidence 19) [291B9CA9] Copy OK
All tracks accurately ripped
No errors occurred
End of status report

Содержание индексной карты (.CUE)

REM ACCURATERIPID 002d49ff-029b2339-290e8d14REM DISCID 290E8D14PERFORMER "Shirley Walker"TITLE "Batman: Mask of the Phantasm"CATALOG 826924000601REM DATE 1993REM DISCNUMBER 1REM TOTALDISCS 1REM GENRE "Soundtrack"REM COMMENT "SE2F"FILE "01. Main Title_ Batman_ Mask of the Phantasm (Expanded).flac" WAVE TRACK 01 AUDIO FLAGS DCP PERFORMER "Shirley Walker" TITLE "Main Title: Batman: Mask of the Phantasm (Expanded)" INDEX 01 00:00:00 TRACK 02 AUDIO FLAGS DCP PERFORMER "Shirley Walker" TITLE "The Promise (Expanded)" INDEX 00 04:59:14FILE "02. The Promise (Expanded).flac" WAVE INDEX 01 00:00:00 TRACK 03 AUDIO FLAGS DCP PERFORMER "Shirley Walker" TITLE "Ski Mask Vigilante (Expanded)" INDEX 00 01:23:13FILE "03. Ski Mask Vigilante (Expanded).flac" WAVE INDEX 01 00:00:00 TRACK 04 AUDIO FLAGS DCP PERFORMER "Shirley Walker" TITLE "Fancy Footwork" INDEX 00 04:26:60FILE "04. Fancy Footwork.flac" WAVE INDEX 01 00:00:00 TRACK 05 AUDIO FLAGS DCP PERFORMER "Shirley Walker" TITLE "Phantasm's Graveyard Murder" INDEX 00 00:38:54FILE "05. Phantasm's Graveyard Murder.flac" WAVE INDEX 01 00:00:00 TRACK 06 AUDIO FLAGS DCP PERFORMER "Shirley Walker" TITLE "Bad News / Set Trap / May They Rest in Peace" INDEX 00 03:50:04FILE "06. Bad News _ Set Trap _ May They Rest in Peace.flac" WAVE INDEX 01 00:00:00 TRACK 07 AUDIO FLAGS DCP PERFORMER "Shirley Walker" TITLE "First Love" INDEX 00 01:49:12FILE "07. First Love.flac" WAVE INDEX 01 00:00:00 TRACK 08 AUDIO FLAGS DCP PERFORMER "Shirley Walker" TITLE "City Street Drive / Sal Velestra / Good Samaritan" INDEX 00 01:57:69FILE "08. City Street Drive _ Sal Velestra _ Good Samaritan.flac" WAVE INDEX 01 00:00:00 TRACK 09 AUDIO FLAGS DCP PERFORMER "Shirley Walker" TITLE "Birth of Batman (Expanded)" INDEX 00 02:14:73FILE "09. Birth of Batman (Expanded).flac" WAVE INDEX 01 00:00:00 TRACK 10 AUDIO FLAGS DCP PERFORMER "Shirley Walker" TITLE "The Joker's Big Entrance" INDEX 00 05:59:36FILE "10. The Joker's Big Entrance.flac" WAVE INDEX 01 00:00:00 TRACK 11 AUDIO FLAGS DCP PERFORMER "Shirley Walker" TITLE "The Big Chase" INDEX 00 03:00:40FILE "11. The Big Chase.flac" WAVE INDEX 01 00:00:00 TRACK 12 AUDIO FLAGS DCP PERFORMER "Shirley Walker" TITLE "Nowhere to Run" INDEX 00 05:38:04FILE "12. Nowhere to Run.flac" WAVE INDEX 01 00:00:00 TRACK 13 AUDIO FLAGS DCP PERFORMER "Shirley Walker" TITLE "A Plea for Help" INDEX 00 01:58:66FILE "13. A Plea for Help.flac" WAVE INDEX 01 00:00:00 TRACK 14 AUDIO FLAGS DCP PERFORMER "Shirley Walker" TITLE "A Tall Man / Arturo and His Pal / Makes You Want to Laugh / What's So Funny?" INDEX 00 00:59:10FILE "14. A Tall Man _ Arturo and His Pal _ Makes You Want to Laugh _ What's So Funny_.flac" WAVE INDEX 01 00:00:00 TRACK 15 AUDIO FLAGS DCP PERFORMER "Shirley Walker" TITLE "Andrea Remembers / True Identity" INDEX 00 04:02:08FILE "15. Andrea Remembers _ True Identity.flac" WAVE INDEX 01 00:00:00 TRACK 16 AUDIO FLAGS DCP PERFORMER "Shirley Walker" TITLE "Phantasm and Joker Fight" INDEX 00 03:16:66FILE "16. Phantasm and Joker Fight.flac" WAVE INDEX 01 00:00:00 TRACK 17 AUDIO FLAGS DCP PERFORMER "Shirley Walker" TITLE "Batman's Destiny" INDEX 00 05:58:35FILE "17. Batman's Destiny.flac" WAVE INDEX 01 00:00:00 TRACK 18 AUDIO FLAGS DCP PERFORMER "Tia Carrere" TITLE "I Never Even Told You" INDEX 00 01:44:51FILE "18. I Never Even Told You.flac" WAVE INDEX 01 00:00:00 TRACK 19 AUDIO FLAGS DCP PERFORMER "Shirley Walker" TITLE "Theme From Batman: Mask of the Phantasm" INDEX 00 04:19:66FILE "19. Theme From Batman_ Mask of the Phantasm.flac" WAVE INDEX 01 00:00:00 TRACK 20 AUDIO FLAGS DCP PERFORMER "Shirley Walker" TITLE "Welcome to the Future!" INDEX 00 02:04:01FILE "20. Welcome to the Future!.flac" WAVE INDEX 01 00:00:00

Лог проверки качества

-----------------------
DON'T MODIFY THIS FILE
-----------------------
PERFORMER: auCDtect Task Manager, ver. 1.6.0 RC1 build 1.6.0.1Copyright (c) 2008-2010 y-soft. All rights reservedhttp://y-soft.org
ANALYZER: auCDtect: CD records authenticity detector, version 0.8.2Copyright (c) 2004 Oleg Berngardt. All rights reserved.Copyright (c) 2004 Alexander Djourik. All rights reserved.
FILE: 20. Welcome to the Future!.flac Size: 6501344 Hash: 9A7C1BB4585D5363B9B80E8A359E7E35 Accuracy: -m0 Conclusion: CDDA 100% Signature: 94A3D251550D1B3BA06B0D76F1EFF0398686DD08FILE: 19. Theme From Batman_ Mask of the Phantasm.flac Size: 11971591 Hash: 235D90CEC65CF07FB451D6642C6CCE53 Accuracy: -m0 Conclusion: CDDA 87% Signature: CF5C883706B9DF22A2A01DADDBE486CCE98A1AD3FILE: 18. I Never Even Told You.flac Size: 27239136 Hash: B974E0B5991927DC33071247B0FFF65C Accuracy: -m0 Conclusion: CDDA 100% Signature: D71151647D8EA1A5F9D0ADFB3FF78595D886D3E4FILE: 17. Batman's Destiny.flac Size: 9045221 Hash: BCA3B8FBCD08B3AB19ACD901100F3594 Accuracy: -m0 Conclusion: CDDA 86% Signature: F81322BD39E544473396542F3D7C85179E736C20FILE: 16. Phantasm and Joker Fight.flac Size: 33448206 Hash: B69213313E37CB89DC4FC9C1A03A938A Accuracy: -m0 Conclusion: CDDA 92% Signature: 110D333361DF917776A2E6AB4F33D04D3F9ED0CEFILE: 15. Andrea Remembers _ True Identity.flac Size: 17335383 Hash: 8A56F9913E1EE239CBAF88318746FE19 Accuracy: -m0 Conclusion: CDDA 92% Signature: E121CBE1CD76DB11851956FE3F9507980EC75866FILE: 14. A Tall Man _ Arturo and His Pal _ Makes You Want to Laugh _ What's So Funny_.flac Size: 19269195 Hash: 9F98279ADD3AA658363C15E1DBE504B9 Accuracy: -m0 Conclusion: CDDA 43% Signature: DFA8C35A0F91A50B0051A72B45E291F4694FD913FILE: 13. A Plea for Help.flac Size: 4856184 Hash: BAB775B1271E966EFB1F29771AD99CC4 Accuracy: -m0 Conclusion: CDDA 58% Signature: 19E71349973C544C80272C72C8AAAF70E043938CFILE: 12. Nowhere to Run.flac Size: 9403978 Hash: 3D01652FE16332439347AE5A5DD328B9 Accuracy: -m0 Conclusion: CDDA 99% Signature: 198F24BA9CC809917AD54FBF539D30C9BAE1B1B2FILE: 11. The Big Chase.flac Size: 32691730 Hash: 47082A56E252E3FC7C4F777BB5636958 Accuracy: -m0 Conclusion: CDDA 58% Signature: 57EA65BBC1B7736C4F5175E8DC6860029F211D3BFILE: 10. The Joker's Big Entrance.flac Size: 14930046 Hash: FED22E4AAE4F003B5D587D1A6D8D24A8 Accuracy: -m0 Conclusion: CDDA 54% Signature: 87B9A69BF8BBDF67E12233ED5B0BA927719486B5FILE: 09. Birth of Batman (Expanded).flac Size: 27648817 Hash: A2E0B5168094CD9F20C9379AEE4DBD4F Accuracy: -m0 Conclusion: CDDA 76% Signature: 014A046FED28C25A13D955AFAC465170ADE38D44FILE: 08. City Street Drive _ Sal Velestra _ Good Samaritan.flac Size: 11198268 Hash: 436931AB46B69A0628AD898356AD3FFC Accuracy: -m0 Conclusion: CDDA 100% Signature: 9B599275F7E42525B54AFC7ECE68607237F2C409FILE: 07. First Love.flac Size: 9191771 Hash: 37BA54E9B919640F03A2945A6344FAEA Accuracy: -m0 Conclusion: CDDA 85% Signature: E666871F943BF0D280AC83F6BB432C2A94AEBAD4FILE: 06. Bad News _ Set Trap _ May They Rest in Peace.flac Size: 8959383 Hash: 9974D997C7A6D9C8416F3FA876FA71FF Accuracy: -m0 Conclusion: CDDA 43% Signature: 239D13ABF338888C95F92DCA101660BB30FD43ECFILE: 05. Phantasm's Graveyard Murder.flac Size: 19403994 Hash: 0F16DA0E13180C1BF468AC019B87DB65 Accuracy: -m0 Conclusion: CDDA 62% Signature: 731703E575A194D3B59A031A699B4E4126A67634FILE: 04. Fancy Footwork.flac Size: 3254709 Hash: B57404701AEA04BDE4DF70431AE1F5ED Accuracy: -m0 Conclusion: CDDA 58% Signature: BFE3C49D15C61409BCD0360D575E1EE02F625E2CFILE: 03. Ski Mask Vigilante (Expanded).flac Size: 25486787 Hash: 45FFA3E50F5056535CDA60CCDAAEBDA0 Accuracy: -m0 Conclusion: CDDA 100% Signature: 66128F461907B546B1D28B539EB8BFE072284C23FILE: 02. The Promise (Expanded).flac Size: 6480687 Hash: 9520488FEC3EBA18F1AD9E5664569D5D Accuracy: -m0 Conclusion: CDDA 100% Signature: AB13F52D857CDB88BBE14CF36DCD0A8E64C34CC3FILE: 01. Main Title_ Batman_ Mask of the Phantasm (Expanded).flac Size: 25697894 Hash: 51AA16F246979762D2750538CA47C66D Accuracy: -m0 Conclusion: CDDA 85% Signature: 15B5C73384D8C444FC082910D2AA05518B31779D

Скриншот спектра частот

Доп. информация

Score: 99 (out of 100)
The following properties decreased the score:
Not ripped with EAC v1.0 or higher (no checksums), -1 point [1]
[teatrix.ru].t10398.torrent 
Торрент: Зарегистрирован [ 2015-11-01 20:51 ] · 7A63A6FC85938C2C7A428C0541B84F87F1145743

Скачать .torrent

Скачать

16 KB

Статус: проверено
Скачан: 0 раз
Размер: 345 MB
terms.php



Быстрый ответ

Имя:

      
Для отправки сообщений необходимо включить JavaScript
Показать сообщения:    

Текущее время: 11-Дек 16:53

Часовой пояс: UTC + 3


Вы можете начинать темы
Вы можете отвечать на сообщения
Вы не можете редактировать свои сообщения
Вы не можете удалять свои сообщения
Вы не можете голосовать в опросах
Вы не можете прикреплять файлы к сообщениям
Вы можете скачивать файлы