(Soundtrack) Ким Пять-с-Плюсом / Kim Possible (Kim Possible) - 2003 (2002), FLAC (tracks+.cue), lossless


Статистика раздачи [Обновить пиров]
Размер:  327 MB   |    Зарегистрирован:  1 год 1 месяц   |    Скачан:  4 раза

Полного источника не было: 6 дней

 
   
 
 
 

[Цитировать]

Ким Пять-с-Плюсом / Kim Possible
Название альбома: Kim Possible
Жанр: Soundtrack
Год выпуска диска: 2003
Год выпуска фильма: 2002
Страна-производитель диска: USA
Издатель (лейбл): Disney Records
Аудиокодек: FLAC (*.flac)
Тип рипа: tracks+.cue
Битрейт аудио: lossless
Продолжительность: 01:16:14
Источник: what.cd
Наличие сканов в содержимом раздачи: нет

Треклист

1. Christina Milian - CALL ME, BEEP ME! (The Kim Possible Song)
2. LMNT - It's Just You
3. Angela Michael - I'm Ready
4. Aaron Carter - Get Up on Ya Feet
5. Jump5 - Celebration
6. Christy Carlson Romano - Say the Word
7. Nikki Cleary - Summertime Guys
8. A*TEENS - This Year
9. Brassy - Work It Out
10. Cooassler Kids - E! Is for Everybody
11. Smash Mouth - Come On, Come On
12. Will Friedle and Nancy Cartwright - The Naked Mole Rap
13. Christina Milian - CALL ME, BEEP ME! (The Kim Possible Song) [Tony Phillips Remix]

Лог создания рипа

Exact Audio Copy V1.0 beta 1 from 15. November 2010
EAC extraction logfile from 15. January 2011, 19:51
Various / Kim Possible Soundtrack
Used drive : hp DVDRAM GT31L Adapter: 0 ID: 1
Read mode : SecureUtilize accurate stream : YesDefeat audio cache : YesMake use of C2 pointers : No
Read offset correction : 103Overread into Lead-In and Lead-Out : NoFill up missing offset samples with silence : YesDelete leading and trailing silent blocks : NoNull samples used in CRC calculations : YesUsed interface : Native Win32 interface for Win NT & 2000Gap handling : Appended to previous track
Used output format : User Defined EncoderSelected bitrate : 320 kBit/sQuality : HighAdd ID3 tag : NoCommand line compressor : C:\Program Files (x86)\Exact Audio Copy\FLAC\FLAC.EXEAdditional command line options : -V -8 -T "artist=%a" -T "title=%t" -T "album=%g" -T "date=%y" -T "tracknumber=%n" -T "genre=%m" %s
TOC of the extracted CD
Track | Start | Length | Start sector | End sector --------------------------------------------------------- 1 | 0:00.00 | 2:37.03 | 0 | 11777 2 | 2:37.03 | 2:36.55 | 11778 | 23532 3 | 5:13.58 | 2:51.38 | 23533 | 36395 4 | 8:05.21 | 3:18.51 | 36396 | 51296 5 | 11:23.72 | 3:16.42 | 51297 | 66038 6 | 14:40.39 | 2:48.72 | 66039 | 78710 7 | 17:29.36 | 3:05.69 | 78711 | 92654 8 | 20:35.30 | 2:51.02 | 92655 | 105481 9 | 23:26.32 | 2:49.07 | 105482 | 118163 10 | 26:15.39 | 5:44.39 | 118164 | 144002 11 | 32:00.03 | 2:31.68 | 144003 | 155395 12 | 34:31.71 | 3:27.64 | 155396 | 170984 13 | 37:59.60 | 4:38.31 | 170985 | 191865 14 | 45:10.16 | 1:16.14 | 203266 | 208979
Track 1
Filename C:\What.CD\VA - Kim Possible Soundtrack (2003) - FLAC\01 Call Me, Beep Me.wav
Pre-gap length 0:00:02.00
Peak level 98.8 % Extraction speed 0.9 X Track quality 99.9 % Test CRC ECE0A21B Copy CRC ECE0A21B Accurately ripped (confidence 6) [FD1BA8BC] Copy OK
Track 2
Filename C:\What.CD\VA - Kim Possible Soundtrack (2003) - FLAC\02 It's Just You.wav
Peak level 98.8 % Extraction speed 1.0 X Track quality 99.9 % Test CRC 7C2F2EFC Copy CRC 7C2F2EFC Accurately ripped (confidence 6) [95320BA0] Copy OK
Track 3
Filename C:\What.CD\VA - Kim Possible Soundtrack (2003) - FLAC\03 I'm Ready.wav
Peak level 100.0 % Extraction speed 1.3 X Track quality 100.0 % Test CRC B6D24912 Copy CRC B6D24912 Accurately ripped (confidence 6) [CB15F0B4] Copy OK
Track 4
Filename C:\What.CD\VA - Kim Possible Soundtrack (2003) - FLAC\04 Get Up On Ya Feet.wav
Peak level 98.8 % Extraction speed 1.4 X Track quality 100.0 % Test CRC B92704AF Copy CRC B92704AF Accurately ripped (confidence 6) [4C53CC21] Copy OK
Track 5
Filename C:\What.CD\VA - Kim Possible Soundtrack (2003) - FLAC\05 Celebration.wav
Peak level 98.8 % Extraction speed 1.3 X Track quality 99.9 % Test CRC DA9F1671 Copy CRC DA9F1671 Accurately ripped (confidence 6) [F09D3831] Copy OK
Track 6
Filename C:\What.CD\VA - Kim Possible Soundtrack (2003) - FLAC\06 Say The Word.wav
Peak level 98.8 % Extraction speed 1.6 X Track quality 100.0 % Test CRC 39FB9192 Copy CRC 39FB9192 Accurately ripped (confidence 6) [67A22080] Copy OK
Track 7
Filename C:\What.CD\VA - Kim Possible Soundtrack (2003) - FLAC\07 Summertime Guys.wav
Peak level 98.8 % Extraction speed 1.7 X Track quality 100.0 % Test CRC C3318474 Copy CRC C3318474 Accurately ripped (confidence 6) [FFDD0B2C] Copy OK
Track 8
Filename C:\What.CD\VA - Kim Possible Soundtrack (2003) - FLAC\08 This Year.wav
Peak level 97.7 % Extraction speed 1.4 X Track quality 99.9 % Test CRC DBD05D4F Copy CRC DBD05D4F Accurately ripped (confidence 6) [F1355E9D] Copy OK
Track 9
Filename C:\What.CD\VA - Kim Possible Soundtrack (2003) - FLAC\09 Work It Out.wav
Peak level 99.8 % Extraction speed 1.8 X Track quality 100.0 % Test CRC DC7868C4 Copy CRC DC7868C4 Accurately ripped (confidence 6) [4D66EB32] Copy OK
Track 10
Filename C:\What.CD\VA - Kim Possible Soundtrack (2003) - FLAC\10 E! is For Everybody.wav
Peak level 100.0 % Extraction speed 2.1 X Track quality 100.0 % Test CRC F02F15D1 Copy CRC F02F15D1 Accurately ripped (confidence 6) [5A99AE0B] Copy OK
Track 11
Filename C:\What.CD\VA - Kim Possible Soundtrack (2003) - FLAC\11 Come on, Come on.wav
Peak level 98.8 % Extraction speed 1.9 X Track quality 100.0 % Test CRC 9C963C78 Copy CRC 9C963C78 Accurately ripped (confidence 6) [5764115D] Copy OK
Track 12
Filename C:\What.CD\VA - Kim Possible Soundtrack (2003) - FLAC\12 The Naked Mole Rap.wav
Peak level 98.8 % Extraction speed 1.8 X Track quality 99.9 % Test CRC B09C7D49 Copy CRC B09C7D49 Accurately ripped (confidence 6) [84000C14] Copy OK
Track 13
Filename C:\What.CD\VA - Kim Possible Soundtrack (2003) - FLAC\13 Call Me, Beep Me (Remix).wav
Peak level 98.8 % Extraction speed 2.3 X Track quality 100.0 % Test CRC 8FD79789 Copy CRC 8FD79789 Accurately ripped (confidence 6) [EE7F10F7] Copy OK
All tracks accurately ripped
No errors occurred
End of status report

Содержание индексной карты (.CUE)

REM DISCID BA0AE20EREM COMMENT "ExactAudioCopy v1.0b1"PERFORMER "Various"TITLE "Kim Possible Soundtrack"FILE "01 Call Me, Beep Me.wav" WAVE TRACK 01 AUDIO TITLE "Call Me, Beep Me" PERFORMER "Call Me, Beep Me" INDEX 01 00:00:00FILE "02 It's Just You.wav" WAVE TRACK 02 AUDIO TITLE "It's Just You" PERFORMER "It's Just You" INDEX 01 00:00:00FILE "03 I'm Ready.wav" WAVE TRACK 03 AUDIO TITLE "I'm Ready" PERFORMER "I'm Ready" INDEX 01 00:00:00FILE "04 Get Up On Ya Feet.wav" WAVE TRACK 04 AUDIO TITLE "Get Up On Ya Feet" PERFORMER "Get Up On Ya Feet" INDEX 01 00:00:00FILE "05 Celebration.wav" WAVE TRACK 05 AUDIO TITLE "Celebration" PERFORMER "Celebration" INDEX 01 00:00:00FILE "06 Say The Word.wav" WAVE TRACK 06 AUDIO TITLE "Say The Word" PERFORMER "Say The Word" INDEX 01 00:00:00FILE "07 Summertime Guys.wav" WAVE TRACK 07 AUDIO TITLE "Summertime Guys" PERFORMER "Summertime Guys" INDEX 01 00:00:00FILE "08 This Year.wav" WAVE TRACK 08 AUDIO TITLE "This Year" PERFORMER "This Year" INDEX 01 00:00:00FILE "09 Work It Out.wav" WAVE TRACK 09 AUDIO TITLE "Work It Out" PERFORMER "Work It Out" INDEX 01 00:00:00FILE "10 E! is For Everybody.wav" WAVE TRACK 10 AUDIO TITLE "E! is For Everybody" PERFORMER "E! is For Everybody" INDEX 01 00:00:00FILE "11 Come on, Come on.wav" WAVE TRACK 11 AUDIO TITLE "Come on, Come on" PERFORMER "Come on, Come on" INDEX 01 00:00:00FILE "12 The Naked Mole Rap.wav" WAVE TRACK 12 AUDIO TITLE "The Naked Mole Rap" PERFORMER "The Naked Mole Rap" INDEX 01 00:00:00FILE "13 Call Me, Beep Me (Remix).wav" WAVE TRACK 13 AUDIO TITLE "Call Me, Beep Me (Remix)" PERFORMER "Call Me, Beep Me (Remix)" INDEX 01 00:00:00 TRACK 14 MODEx/2xxx TITLE "Track14" PERFORMER "Track14" INDEX 00 04:38:31
Доп. информация: Самое первое издание альбома
[teatrix.ru].t10399.torrent 
Торрент: Зарегистрирован [ 2015-11-01 20:51 ] · E8EBA351F1AC71AC581020004E7267BF8AEEAF7A

Скачать .torrent

Скачать

14 KB

Статус: проверено
Скачан: 4 раз
Размер: 327 MB
terms.php



Быстрый ответ

Имя:

      
Для отправки сообщений необходимо включить JavaScript
Показать сообщения:    

Текущее время: 05-Дек 15:33

Часовой пояс: UTC + 3


Вы можете начинать темы
Вы можете отвечать на сообщения
Вы не можете редактировать свои сообщения
Вы не можете удалять свои сообщения
Вы не можете голосовать в опросах
Вы не можете прикреплять файлы к сообщениям
Вы можете скачивать файлы