(Score) Сигнал / The Signal (by Nima Fakhrara) - 2014, FLAC (tracks+.cue), lossless


Статистика раздачи [Обновить пиров]
Размер:  213 MB   |    Зарегистрирован:  1 год 1 месяц   |    Скачан:  1 раз
Сидов:  1  [  0 KB/s  ]   Личеров:  1  [  0 KB/s  ]   Подробная статистика пиров
 
   
 
 
 

[Цитировать]

Сигнал / The Signal-- -Жанр: Score || Композитор: Nima Fakhrara || Год выпуска диска: 2014 || Страна-производитель диска: США || Аудио кодек: FLAC (*.flac) || Тип рипа: tracks+.cue || Битрейт аудио: lossless || Продолжительность: 00:49:48 || Источник: What.cd (neuroin) || Наличие сканов в содержимом раздачи: да-Треклист:
01. Good Luck [02:43]
02. Get the Pony [01:31]
03. Penly Ln. [02:08]
04. Clocks [01:15]
05. 4, 5, 6 (The Signal) [00:52]
06. Hallway Roll [04:49]
07. Agitate [01:17]
08. Wake Up [03:02]
09. Door Kick [01:55]
10. Your Protection [01:28]
11. Hailey [01:20]
12. What's Wrong with You [01:01]
13. Road [00:57]
14. Reunion [01:47]
15. Visitor Center [04:29]
16. Check Point [01:22]
17. Jonah [02:32]
18. Goodbye [04:38]
19. I Am Sorry [02:36]
20. Nomad [01:33]
21. The End (The Signal) [02:49]
22. Free The Robots, Nima Fakhrara, William Grundler - 2.3.5.41 (The Signal) [03:47]

Лог создания рипа

Exact Audio Copy V1.0 beta 3 from 29. August 2011
EAC extraction logfile from 8. October 2014, 15:53
Nima Fakhrara / The Signal
Used drive : HL-DT-STDVD-RAM GH22LP21 Adapter: 0 ID: 0
Read mode : SecureUtilize accurate stream : YesDefeat audio cache : YesMake use of C2 pointers : No
Read offset correction : 102Overread into Lead-In and Lead-Out : NoFill up missing offset samples with silence : YesDelete leading and trailing silent blocks : NoNull samples used in CRC calculations : YesUsed interface : Native Win32 interface for Win NT & 2000Gap handling : Appended to previous track
Used output format : User Defined EncoderSelected bitrate : 128 kBit/sQuality : HighAdd ID3 tag : NoCommand line compressor : C:\Program Files\Exact Audio Copy\Flac\flac.exeAdditional command line options : -8 -V -T "ARTIST=%artist%" -T "TITLE=%title%" -T "ALBUM=%albumtitle%" -T "DATE=%year%" -T "TRACKNUMBER=%tracknr%" -T "GENRE=%genre%" -T "PERFORMER=%albuminterpret%" -T "COMPOSER=%composer%" %haslyrics%--tag-from-file=LYRICS="%lyricsfile%"%haslyrics% -T "ALBUMARTIST=%albumartist%" -T "ALBUM ARTIST=%albumartist%" -T "DISCNUMBER=%cdnumber%" -T "TOTALDISCS=%totalcds%" -T "TOTALTRACKS=%numtracks%" -T "COMMENT=%comment%" %source% -o %dest%
TOC of the extracted CD
Track | Start | Length | Start sector | End sector --------------------------------------------------------- 1 | 0:00.00 | 2:43.15 | 0 | 12239 2 | 2:43.15 | 1:31.05 | 12240 | 19069 3 | 4:14.20 | 2:07.61 | 19070 | 28655 4 | 6:22.06 | 1:14.42 | 28656 | 34247 5 | 7:36.48 | 0:51.67 | 34248 | 38139 6 | 8:28.40 | 4:48.55 | 38140 | 59794 7 | 13:17.20 | 1:17.15 | 59795 | 65584 8 | 14:34.35 | 3:01.57 | 65585 | 79216 9 | 17:36.17 | 1:54.44 | 79217 | 87810 10 | 19:30.61 | 1:27.49 | 87811 | 94384 11 | 20:58.35 | 1:20.09 | 94385 | 100393 12 | 22:18.44 | 1:00.38 | 100394 | 104931 13 | 23:19.07 | 0:56.70 | 104932 | 109201 14 | 24:16.02 | 1:47.09 | 109202 | 117235 15 | 26:03.11 | 4:28.74 | 117236 | 137409 16 | 30:32.10 | 1:22.22 | 137410 | 143581 17 | 31:54.32 | 2:31.67 | 143582 | 154973 18 | 34:26.24 | 4:37.56 | 154974 | 175804 19 | 39:04.05 | 2:35.53 | 175805 | 187482 20 | 41:39.58 | 1:32.42 | 187483 | 194424 21 | 43:12.25 | 2:48.62 | 194425 | 207086 22 | 46:01.12 | 3:47.00 | 207087 | 224111
Track 1
Filename H:\Music04_moviez\S\Signal, The (2014, FLAC) - Nima Fakhrara\01 - Good Luck.wav
Pre-gap length 0:00:02.00
Peak level 94.4 % Extraction speed 1.4 X Track quality 100.0 % Test CRC C6246EED Copy CRC C6246EED Accurately ripped (confidence 1) [3B8135D9] (AR v2) Copy OK
Track 2
Filename H:\Music04_moviez\S\Signal, The (2014, FLAC) - Nima Fakhrara\02 - Get the Pony.wav
Pre-gap length 0:00:01.00
Peak level 94.3 % Extraction speed 1.3 X Track quality 100.0 % Test CRC A708CE45 Copy CRC A708CE45 Accurately ripped (confidence 1) [5D8D3747] (AR v2) Copy OK
Track 3
Filename H:\Music04_moviez\S\Signal, The (2014, FLAC) - Nima Fakhrara\03 - Penly Ln..wav
Pre-gap length 0:00:01.00
Peak level 100.0 % Extraction speed 1.2 X Track quality 99.9 % Test CRC 6CFC5FB6 Copy CRC 6CFC5FB6 Accurately ripped (confidence 1) [25D10345] (AR v2) Copy OK
Track 4
Filename H:\Music04_moviez\S\Signal, The (2014, FLAC) - Nima Fakhrara\04 - Clocks.wav
Pre-gap length 0:00:01.00
Peak level 94.4 % Extraction speed 1.3 X Track quality 100.0 % Test CRC E34E15B2 Copy CRC E34E15B2 Accurately ripped (confidence 1) [61D15533] (AR v2) Copy OK
Track 5
Filename H:\Music04_moviez\S\Signal, The (2014, FLAC) - Nima Fakhrara\05 - 4, 5, 6.wav
Pre-gap length 0:00:01.00
Peak level 94.7 % Extraction speed 1.1 X Track quality 100.0 % Test CRC F8C645A4 Copy CRC F8C645A4 Accurately ripped (confidence 1) [5A1E7A6F] (AR v2) Copy OK
Track 6
Filename H:\Music04_moviez\S\Signal, The (2014, FLAC) - Nima Fakhrara\06 - Hallway Roll.wav
Pre-gap length 0:00:01.00
Peak level 94.4 % Extraction speed 1.9 X Track quality 100.0 % Test CRC 3D76AA33 Copy CRC 3D76AA33 Accurately ripped (confidence 1) [DD6DC11B] (AR v2) Copy OK
Track 7
Filename H:\Music04_moviez\S\Signal, The (2014, FLAC) - Nima Fakhrara\07 - Agitate.wav
Pre-gap length 0:00:01.00
Peak level 98.0 % Extraction speed 1.5 X Track quality 100.0 % Test CRC 6EE995E1 Copy CRC 6EE995E1 Accurately ripped (confidence 1) [CB7EE4E2] (AR v2) Copy OK
Track 8
Filename H:\Music04_moviez\S\Signal, The (2014, FLAC) - Nima Fakhrara\08 - Wake Up.wav
Pre-gap length 0:00:01.00
Peak level 95.8 % Extraction speed 2.0 X Track quality 100.0 % Test CRC A42F3F11 Copy CRC A42F3F11 Accurately ripped (confidence 1) [E5E3ECB8] (AR v2) Copy OK
Track 9
Filename H:\Music04_moviez\S\Signal, The (2014, FLAC) - Nima Fakhrara\09 - Door Kick.wav
Pre-gap length 0:00:01.00
Peak level 96.7 % Extraction speed 1.9 X Track quality 100.0 % Test CRC 76DB6318 Copy CRC 76DB6318 Accurately ripped (confidence 1) [1934302C] (AR v2) Copy OK
Track 10
Filename H:\Music04_moviez\S\Signal, The (2014, FLAC) - Nima Fakhrara\10 - Your Protection.wav
Pre-gap length 0:00:01.00
Peak level 94.4 % Extraction speed 1.4 X Track quality 99.8 % Test CRC EA21C8AE Copy CRC EA21C8AE Accurately ripped (confidence 1) [FBD91A23] (AR v2) Copy OK
Track 11
Filename H:\Music04_moviez\S\Signal, The (2014, FLAC) - Nima Fakhrara\11 - Hailey.wav
Pre-gap length 0:00:01.00
Peak level 94.4 % Extraction speed 1.8 X Track quality 100.0 % Test CRC 189B4D97 Copy CRC 189B4D97 Accurately ripped (confidence 1) [2895223B] (AR v2) Copy OK
Track 12
Filename H:\Music04_moviez\S\Signal, The (2014, FLAC) - Nima Fakhrara\12 - What's Wrong With You.wav
Pre-gap length 0:00:01.00
Peak level 94.4 % Extraction speed 1.6 X Track quality 100.0 % Test CRC EB09AC83 Copy CRC EB09AC83 Accurately ripped (confidence 1) [072C6AC9] (AR v2) Copy OK
Track 13
Filename H:\Music04_moviez\S\Signal, The (2014, FLAC) - Nima Fakhrara\13 - Road.wav
Pre-gap length 0:00:01.00
Peak level 94.4 % Extraction speed 1.6 X Track quality 100.0 % Test CRC B5DC2AFB Copy CRC B5DC2AFB Accurately ripped (confidence 1) [A090D072] (AR v2) Copy OK
Track 14
Filename H:\Music04_moviez\S\Signal, The (2014, FLAC) - Nima Fakhrara\14 - Reunion.wav
Pre-gap length 0:00:01.00
Peak level 94.4 % Extraction speed 2.0 X Track quality 100.0 % Test CRC BA7469D4 Copy CRC BA7469D4 Accurately ripped (confidence 1) [AE501DA6] (AR v2) Copy OK
Track 15
Filename H:\Music04_moviez\S\Signal, The (2014, FLAC) - Nima Fakhrara\15 - Visitor Center.wav
Pre-gap length 0:00:01.00
Peak level 58.8 % Extraction speed 2.5 X Track quality 100.0 % Test CRC E63DEF2D Copy CRC E63DEF2D Accurately ripped (confidence 1) [9602F483] (AR v2) Copy OK
Track 16
Filename H:\Music04_moviez\S\Signal, The (2014, FLAC) - Nima Fakhrara\16 - Check Point.wav
Pre-gap length 0:00:01.00
Peak level 94.4 % Extraction speed 1.5 X Track quality 99.8 % Test CRC 10DCE243 Copy CRC 10DCE243 Accurately ripped (confidence 1) [A2BACC89] (AR v2) Copy OK
Track 17
Filename H:\Music04_moviez\S\Signal, The (2014, FLAC) - Nima Fakhrara\17 - Jonah.wav
Pre-gap length 0:00:01.00
Peak level 99.2 % Extraction speed 2.4 X Track quality 100.0 % Test CRC FA3F69AC Copy CRC FA3F69AC Accurately ripped (confidence 1) [3B2F8DDF] (AR v2) Copy OK
Track 18
Filename H:\Music04_moviez\S\Signal, The (2014, FLAC) - Nima Fakhrara\18 - Goodbye.wav
Pre-gap length 0:00:01.00
Peak level 97.6 % Extraction speed 2.7 X Track quality 100.0 % Test CRC 48AD52F5 Copy CRC 48AD52F5 Accurately ripped (confidence 1) [26ACF31F] (AR v2) Copy OK
Track 19
Filename H:\Music04_moviez\S\Signal, The (2014, FLAC) - Nima Fakhrara\19 - I Am Sorry.wav
Pre-gap length 0:00:01.00
Peak level 94.4 % Extraction speed 2.1 X Track quality 99.9 % Test CRC 689E53CB Copy CRC 689E53CB Accurately ripped (confidence 1) [7D1CD15A] (AR v2) Copy OK
Track 20
Filename H:\Music04_moviez\S\Signal, The (2014, FLAC) - Nima Fakhrara\20 - Nomad.wav
Pre-gap length 0:00:01.00
Peak level 78.6 % Extraction speed 2.3 X Track quality 100.0 % Test CRC 08EC6411 Copy CRC 08EC6411 Accurately ripped (confidence 1) [2065D6E8] (AR v2) Copy OK
Track 21
Filename H:\Music04_moviez\S\Signal, The (2014, FLAC) - Nima Fakhrara\21 - The End.wav
Pre-gap length 0:00:01.00
Peak level 94.8 % Extraction speed 2.6 X Track quality 100.0 % Test CRC D905963E Copy CRC D905963E Accurately ripped (confidence 1) [4025293E] (AR v2) Copy OK
Track 22
Filename H:\Music04_moviez\S\Signal, The (2014, FLAC) - Nima Fakhrara\22 - 2.3.5.41.wav
Pre-gap length 0:00:01.00
Peak level 94.4 % Extraction speed 2.9 X Track quality 100.0 % Test CRC 7505931F Copy CRC 7505931F Accurately ripped (confidence 1) [61208C78] (AR v2) Copy OK
All tracks accurately ripped
No errors occurred
End of status report
---- CUETools DB Plugin V2.1.3
[CTDB TOCID: SBLXb8s.JrlxYizqSNXi0NFPWJI-] disk not present in database, Submit result: SBLXb8s.JrlxYizqSNXi0NFPWJI- has been uploaded
==== Log checksum A269DB92D6FA6B6940C8A778B58169F6A26409FE8480087E578232DDA9BC0364 ====

Содержание индексной карты (.CUE)

REM GENRE SoundtrackREM DATE 2014REM DISCID 310BAC16REM COMMENT "ExactAudioCopy v1.0b3"PERFORMER "Nima Fakhrara"TITLE "The Signal"FILE "01 - Good Luck.wav" WAVE TRACK 01 AUDIO TITLE "Good Luck" PERFORMER "Nima Fakhrara" INDEX 01 00:00:00 TRACK 02 AUDIO TITLE "Get the Pony" PERFORMER "Nima Fakhrara" INDEX 00 02:42:15FILE "02 - Get the Pony.wav" WAVE INDEX 01 00:00:00 TRACK 03 AUDIO TITLE "Penly Ln." PERFORMER "Nima Fakhrara" INDEX 00 01:30:05FILE "03 - Penly Ln..wav" WAVE INDEX 01 00:00:00 TRACK 04 AUDIO TITLE "Clocks" PERFORMER "Nima Fakhrara" INDEX 00 02:06:61FILE "04 - Clocks.wav" WAVE INDEX 01 00:00:00 TRACK 05 AUDIO TITLE "4, 5, 6" PERFORMER "Nima Fakhrara" INDEX 00 01:13:42FILE "05 - 4, 5, 6.wav" WAVE INDEX 01 00:00:00 TRACK 06 AUDIO TITLE "Hallway Roll" PERFORMER "Nima Fakhrara" INDEX 00 00:50:67FILE "06 - Hallway Roll.wav" WAVE INDEX 01 00:00:00 TRACK 07 AUDIO TITLE "Agitate" PERFORMER "Nima Fakhrara" INDEX 00 04:47:55FILE "07 - Agitate.wav" WAVE INDEX 01 00:00:00 TRACK 08 AUDIO TITLE "Wake Up" PERFORMER "Nima Fakhrara" INDEX 00 01:16:15FILE "08 - Wake Up.wav" WAVE INDEX 01 00:00:00 TRACK 09 AUDIO TITLE "Door Kick" PERFORMER "Nima Fakhrara" INDEX 00 03:00:57FILE "09 - Door Kick.wav" WAVE INDEX 01 00:00:00 TRACK 10 AUDIO TITLE "Your Protection" PERFORMER "Nima Fakhrara" INDEX 00 01:53:44FILE "10 - Your Protection.wav" WAVE INDEX 01 00:00:00 TRACK 11 AUDIO TITLE "Hailey" PERFORMER "Nima Fakhrara" INDEX 00 01:26:49FILE "11 - Hailey.wav" WAVE INDEX 01 00:00:00 TRACK 12 AUDIO TITLE "What's Wrong With You" PERFORMER "Nima Fakhrara" INDEX 00 01:19:09FILE "12 - What's Wrong With You.wav" WAVE INDEX 01 00:00:00 TRACK 13 AUDIO TITLE "Road" PERFORMER "Nima Fakhrara" INDEX 00 00:59:38FILE "13 - Road.wav" WAVE INDEX 01 00:00:00 TRACK 14 AUDIO TITLE "Reunion" PERFORMER "Nima Fakhrara" INDEX 00 00:55:70FILE "14 - Reunion.wav" WAVE INDEX 01 00:00:00 TRACK 15 AUDIO TITLE "Visitor Center" PERFORMER "Nima Fakhrara" INDEX 00 01:46:09FILE "15 - Visitor Center.wav" WAVE INDEX 01 00:00:00 TRACK 16 AUDIO TITLE "Check Point" PERFORMER "Nima Fakhrara" INDEX 00 04:27:74FILE "16 - Check Point.wav" WAVE INDEX 01 00:00:00 TRACK 17 AUDIO TITLE "Jonah" PERFORMER "Nima Fakhrara" INDEX 00 01:21:22FILE "17 - Jonah.wav" WAVE INDEX 01 00:00:00 TRACK 18 AUDIO TITLE "Goodbye" PERFORMER "Nima Fakhrara" INDEX 00 02:30:67FILE "18 - Goodbye.wav" WAVE INDEX 01 00:00:00 TRACK 19 AUDIO TITLE "I Am Sorry" PERFORMER "Nima Fakhrara" INDEX 00 04:36:56FILE "19 - I Am Sorry.wav" WAVE INDEX 01 00:00:00 TRACK 20 AUDIO TITLE "Nomad" PERFORMER "Nima Fakhrara" INDEX 00 02:34:53FILE "20 - Nomad.wav" WAVE INDEX 01 00:00:00 TRACK 21 AUDIO TITLE "The End" PERFORMER "Nima Fakhrara" INDEX 00 01:31:42FILE "21 - The End.wav" WAVE INDEX 01 00:00:00 TRACK 22 AUDIO TITLE "2.3.5.41" PERFORMER "Free the Robots & Nima Fakhrara featuring William Grundler" INDEX 00 02:47:62FILE "22 - 2.3.5.41.wav" WAVE INDEX 01 00:00:00
[teatrix.ru].t10401.torrent 
Торрент: Зарегистрирован [ 2015-11-01 20:51 ] · 33E6B8E29DCBF5ED6C5592BC1CD54BBE263BEEFC

Скачать .torrent

Скачать

19 KB

Статус: проверено
Скачан: 1 раз
Размер: 213 MB
terms.php



Быстрый ответ

Имя:

      
Для отправки сообщений необходимо включить JavaScript
Показать сообщения:    

Текущее время: 05-Дек 07:28

Часовой пояс: UTC + 3


Вы можете начинать темы
Вы можете отвечать на сообщения
Вы не можете редактировать свои сообщения
Вы не можете удалять свои сообщения
Вы не можете голосовать в опросах
Вы не можете прикреплять файлы к сообщениям
Вы можете скачивать файлы