(Score) Большая вода / Golemata voda / The Great Water (Kiril Dzajkovski) - 2005, FLAC (tracks+.cue), lossless


Статистика раздачи [Обновить пиров]
Размер:  174 MB   |    Зарегистрирован:  1 год 1 месяц   |    Скачан:  1 раз

Полного источника не было: 26 дней

 
   
 
 
 

[Цитировать]

Большая вода / Големата вода / Golemata voda /
The Great Water / Velká voda / Wielka woda / 洪水


Название альбома: The Great Water Жанр: Score Композитор: Kiril Džajkovski
Год выпуска диска: 2005 Год выпуска фильма: 2004 Страна-производитель диска: США
Аудиокодек: FLAC (*.flac) Тип рипа: tracks+.cue Битрейт аудио: lossless Источник: cd
Продолжительность альбома: 33:43-Своеобразное продолжение одноименного македонского фильма, в котором умирающий и умерший Лем вспоминает о своей детской дружбе со старшим его на год балканским мольфаром Исаком, ставшим его Учителем, спасителем и братом. Музыка посвящена книге македонского писателя Живко Чинго „Големата вода“.-Треклист:
1. Chasing Lem 1:29
2. The Great Water 1:49
3. Blood Brothers 1:58
4. The Gate 1:29
5. Timelapse 4:36
6. Drought Break 2:31
7. First Magic 3:21
8. Farewell 1:58
9. Dream Box 3:33
10. Icon of Love 1:59
11. Forgiveness 1:59
12. Die is Cast 1:41
13. Happy Hero 2:23
14. Secret Place 1:34
15. Snow Kiss 1:15-Музыка в исполнении London Telefilmonic Orchestra под управлением Nikola Kodjabashia

Лог создания рипа

Exact Audio Copy V1.0 beta 3 from 29. August 2011
EAC extraction logfile
- / The Great Water Soundtrack
Used drive : MAD DOG TF-DVDRW TSH652G Adapter: 5 ID: 0
Read mode : SecureUtilize accurate stream : YesDefeat audio cache : YesMake use of C2 pointers : No
Read offset correction : 6Overread into Lead-In and Lead-Out : NoFill up missing offset samples with silence : YesDelete leading and trailing silent blocks : NoNull samples used in CRC calculations : YesUsed interface : Native Win32 interface for Win NT & 2000Gap handling : Appended to previous track
Used output format : User Defined EncoderSelected bitrate : 128 kBit/sQuality : HighAdd ID3 tag : NoCommand line compressor : flac.exeAdditional command line options : -V -8 -T "Genre=%genre%" -T "Artist=%artist%" -T "Title=%title%" -T "Album=%albumtitle%" -T "Date=%year%" -T "Tracknumber=%tracknr%" -T "Comment=%comment%" %source%
TOC of the extracted CD
Track | Start | Length | Start sector | End sector --------------------------------------------------------- 1 | 0:00.00 | 1:29.08 | 0 | 6682 2 | 1:29.08 | 1:49.24 | 6683 | 14881 3 | 3:18.32 | 1:58.55 | 14882 | 23786 4 | 5:17.12 | 1:29.71 | 23787 | 30532 5 | 6:47.08 | 4:36.53 | 30533 | 51285 6 | 11:23.61 | 2:31.05 | 51286 | 62615 7 | 13:54.66 | 3:21.26 | 62616 | 77716 8 | 17:16.17 | 1:58.36 | 77717 | 86602 9 | 19:14.53 | 3:33.72 | 86603 | 102649 10 | 22:48.50 | 1:59.56 | 102650 | 111630 11 | 24:48.31 | 1:59.46 | 111631 | 120601 12 | 26:48.02 | 1:41.48 | 120602 | 128224 13 | 28:29.50 | 2:23.64 | 128225 | 139013 14 | 30:53.39 | 1:34.14 | 139014 | 146077 15 | 32:27.53 | 1:15.57 | 146078 | 151759
Track 1
Filename 01 Chasing Lem.wav
Pre-gap length 0:00:02.00
Peak level 99.9 % Extraction speed 1.3 X Track quality 100.0 % Test CRC A95F03A9 Copy CRC A95F03A9 Copy OK
Track 2
Filename 02 The Great Water.wav
Peak level 73.4 % Extraction speed 1.5 X Track quality 100.0 % Test CRC 64BCBA58 Copy CRC 64BCBA58 Copy OK
Track 3
Filename 03 Blood Brothers.wav
Peak level 100.0 % Extraction speed 1.6 X Track quality 100.0 % Test CRC 4803FED3 Copy CRC 4803FED3 Copy OK
Track 4
Filename 04 The Gate.wav
Peak level 70.6 % Extraction speed 1.2 X Track quality 99.8 % Test CRC BABCE02A Copy CRC BABCE02A Copy OK
Track 5
Filename 05 Timelapse.wav
Peak level 100.0 % Extraction speed 2.1 X Track quality 100.0 % Test CRC FD926121 Copy CRC FD926121 Copy OK
Track 6
Filename 06 Drought Break.wav
Peak level 100.0 % Extraction speed 1.7 X Track quality 99.9 % Test CRC C9799115 Copy CRC C9799115 Copy OK
Track 7
Filename 07 First Magic.wav
Peak level 99.9 % Extraction speed 2.2 X Track quality 100.0 % Test CRC DFAF0F83 Copy CRC DFAF0F83 Copy OK
Track 8
Filename 08 Farewell Mind.wav
Peak level 93.3 % Extraction speed 2.1 X Track quality 100.0 % Test CRC 25C6D957 Copy CRC 25C6D957 Copy OK
Track 9
Filename 09 Dream Box.wav
Peak level 99.9 % Extraction speed 2.4 X Track quality 100.0 % Test CRC A7E77A0A Copy CRC A7E77A0A Copy OK
Track 10
Filename 10 Icon Of Love.wav
Peak level 99.6 % Extraction speed 2.3 X Track quality 100.0 % Test CRC 831B751C Copy CRC 831B751C Copy OK
Track 11
Filename 11 Forgiveness.wav
Peak level 91.2 % Extraction speed 2.3 X Track quality 100.0 % Test CRC 938966FE Copy CRC 938966FE Copy OK
Track 12
Filename 12 Die is Cast.wav
Peak level 34.1 % Extraction speed 2.2 X Track quality 100.0 % Test CRC 0E1FCC8E Copy CRC 0E1FCC8E Copy OK
Track 13
Filename 13 Happy Hero.wav
Peak level 100.0 % Extraction speed 2.5 X Track quality 100.0 % Test CRC F59BC1E6 Copy CRC F59BC1E6 Copy OK
Track 14
Filename 14 Secret Place.wav
Peak level 76.5 % Extraction speed 2.2 X Track quality 100.0 % Test CRC CBF7E969 Copy CRC CBF7E969 Copy OK
Track 15
Filename 15 Snow Kiss.wav
Peak level 48.3 % Extraction speed 2.1 X Track quality 100.0 % Test CRC ACDA837D Copy CRC ACDA837D Copy OK
No errors occurred
End of status report

Содержание индексной карты (.CUE)

REM DATE 2006REM DISCID BA07E70FREM COMMENT "ExactAudioCopy v1.0b3"PERFORMER ""TITLE "The Great Water Soundtrack"FILE "01 Chasing Lem.wav" WAVE TRACK 01 AUDIO TITLE "Chasing Lem" INDEX 01 00:00:00FILE "02 The Great Water.wav" WAVE TRACK 02 AUDIO TITLE "The Great Water" INDEX 01 00:00:00FILE "03 Blood Brothers.wav" WAVE TRACK 03 AUDIO TITLE "Blood Brothers" INDEX 01 00:00:00FILE "04 The Gate.wav" WAVE TRACK 04 AUDIO TITLE "The Gate" INDEX 01 00:00:00FILE "05 Timelapse.wav" WAVE TRACK 05 AUDIO TITLE "Timelapse" INDEX 01 00:00:00FILE "06 Drought Break.wav" WAVE TRACK 06 AUDIO TITLE "Drought Break" INDEX 01 00:00:00FILE "07 First Magic.wav" WAVE TRACK 07 AUDIO TITLE "First Magic" INDEX 01 00:00:00FILE "08 Farewell Mind.wav" WAVE TRACK 08 AUDIO TITLE "Farewell Mind" INDEX 01 00:00:00FILE "09 Dream Box.wav" WAVE TRACK 09 AUDIO TITLE "Dream Box" INDEX 01 00:00:00FILE "10 Icon Of Love.wav" WAVE TRACK 10 AUDIO TITLE "Icon Of Love" INDEX 01 00:00:00FILE "11 Forgiveness.wav" WAVE TRACK 11 AUDIO TITLE "Forgiveness" INDEX 01 00:00:00FILE "12 Die is Cast.wav" WAVE TRACK 12 AUDIO TITLE "Die is Cast" INDEX 01 00:00:00FILE "13 Happy Hero.wav" WAVE TRACK 13 AUDIO TITLE "Happy Hero" INDEX 01 00:00:00FILE "14 Secret Place.wav" WAVE TRACK 14 AUDIO TITLE "Secret Place" INDEX 01 00:00:00FILE "15 Snow Kiss.wav" WAVE TRACK 15 AUDIO TITLE "Snow Kiss" INDEX 01 00:00:00
[teatrix.ru].t10402.torrent 
Торрент: Зарегистрирован [ 2015-11-01 20:51 ] · CE9F8C555F84AF1C164D5B9C55785C8EB031ED71

Скачать .torrent

Скачать

15 KB

Статус: проверено
Скачан: 1 раз
Размер: 174 MB
terms.php



Быстрый ответ

Имя:

      
Для отправки сообщений необходимо включить JavaScript
Показать сообщения:    

Текущее время: 03-Дек 09:45

Часовой пояс: UTC + 3


Вы можете начинать темы
Вы можете отвечать на сообщения
Вы не можете редактировать свои сообщения
Вы не можете удалять свои сообщения
Вы не можете голосовать в опросах
Вы не можете прикреплять файлы к сообщениям
Вы можете скачивать файлы