(Score) Великий уравнитель / The Equalizer (by Harry Gregson-Williams) - 2014, FLAC (tracks+.cue), lossless


Статистика раздачи [Обновить пиров]
Размер:  248 MB   |    Зарегистрирован:  1 год 1 месяц   |    Скачан:  0 раз

Полного источника не было: Никогда

 
   
 
 
 

[Цитировать]

Великий уравнитель / The Equalizer-- -Жанр: Score || Композитор: Harry Gregson-Williams || Год выпуска диска: 2014 || Страна-производитель диска: США || Аудио кодек: FLAC (*.flac) || Тип рипа: tracks+.cue || Битрейт аудио: lossless || Продолжительность: 00:51:43 || Источник: What.cd (nazgul68) || Наличие сканов в содержимом раздачи: нет-Треклист:
01. Alone [04:10]
02. Change Your World [04:09]
03. McCall's Decision [04:10]
04. On A Mission [03:53]
05. Corrupt Cops [02:49]
06. A Quiet Voice [03:39]
07. It's All A Lie [10:36]
08. Concerned Citizen [02:44]
09. Make An Exception [05:10]
10. Torturing Frank [03:44]
11. The Equalizer [06:39]

Лог создания рипа

Exact Audio Copy V1.0 beta 3 from 29. August 2011
EAC extraction logfile from 8. October 2014, 15:28
Harry Gregson-Williams / The Equalizer
Used drive : HL-DT-STBD-RE BH10LS38 Adapter: 2 ID: 0
Read mode : SecureUtilize accurate stream : YesDefeat audio cache : YesMake use of C2 pointers : No
Read offset correction : 667Overread into Lead-In and Lead-Out : NoFill up missing offset samples with silence : YesDelete leading and trailing silent blocks : NoNull samples used in CRC calculations : YesUsed interface : Native Win32 interface for Win NT & 2000Gap handling : Appended to previous track
Used output format : User Defined EncoderSelected bitrate : 768 kBit/sQuality : HighAdd ID3 tag : NoCommand line compressor : C:\Program Files (x86)\Exact Audio Copy\FLAC\FLAC.EXEAdditional command line options : -8 -V -T "ARTIST=%artist%" -T "TITLE=%title%" -T "ALBUM=%albumtitle%" -T "DATE=%year%" -T "TRACKNUMBER=%tracknr%" -T "GENRE=%genre%" -T "PERFORMER=%albuminterpret%" -T "COMPOSER=%composer%" %haslyrics%--tag-from-file=LYRICS="%lyricsfile%"%haslyrics% -T "ALBUMARTIST=%albumartist%" -T "ALBUM ARTIST=%albumartist%" -T "DISCNUMBER=%cdnumber%" -T "TOTALDISCS=%totalcds%" -T "TOTALTRACKS=%numtracks%" -T "COMMENT=%comment%" %source% -o %dest%
TOC of the extracted CD
Track | Start | Length | Start sector | End sector --------------------------------------------------------- 1 | 0:00.00 | 4:09.42 | 0 | 18716 2 | 4:09.42 | 4:08.41 | 18717 | 37357 3 | 8:18.08 | 4:10.03 | 37358 | 56110 4 | 12:28.11 | 3:52.62 | 56111 | 73572 5 | 16:20.73 | 2:48.55 | 73573 | 86227 6 | 19:09.53 | 3:39.37 | 86228 | 102689 7 | 22:49.15 | 10:36.26 | 102690 | 150415 8 | 33:25.41 | 2:44.34 | 150416 | 162749 9 | 36:10.00 | 5:09.65 | 162750 | 185989 10 | 41:19.65 | 3:44.29 | 185990 | 202818 11 | 45:04.19 | 6:39.30 | 202819 | 232773
Track 1
Filename C:\Rips\01 - Alone.wav
Pre-gap length 0:00:02.00
Peak level 97.2 % Extraction speed 1.1 X Track quality 100.0 % Test CRC D022A932 Copy CRC D022A932 Track not present in AccurateRip database Copy OK
Track 2
Filename C:\Rips\02 - Change Your World.wav
Pre-gap length 0:00:02.00
Peak level 94.4 % Extraction speed 1.2 X Track quality 100.0 % Test CRC 85B47673 Copy CRC 85B47673 Track not present in AccurateRip database Copy OK
Track 3
Filename C:\Rips\03 - Mc Call's Decision.wav
Pre-gap length 0:00:02.00
Peak level 94.9 % Extraction speed 1.3 X Track quality 100.0 % Test CRC BE40A768 Copy CRC BE40A768 Track not present in AccurateRip database Copy OK
Track 4
Filename C:\Rips\04 - On a Mission.wav
Pre-gap length 0:00:02.00
Peak level 94.3 % Extraction speed 1.4 X Track quality 100.0 % Test CRC 683B5540 Copy CRC 683B5540 Track not present in AccurateRip database Copy OK
Track 5
Filename C:\Rips\05 - Corrupt Cops.wav
Pre-gap length 0:00:02.00
Peak level 94.3 % Extraction speed 1.4 X Track quality 100.0 % Test CRC C0FC263E Copy CRC C0FC263E Track not present in AccurateRip database Copy OK
Track 6
Filename C:\Rips\06 - A Quiet Voice.wav
Pre-gap length 0:00:02.00
Peak level 94.3 % Extraction speed 1.6 X Track quality 100.0 % Test CRC E794369D Copy CRC E794369D Track not present in AccurateRip database Copy OK
Track 7
Filename C:\Rips\07 - It's All a Lie.wav
Pre-gap length 0:00:02.00
Peak level 94.3 % Extraction speed 1.9 X Track quality 100.0 % Test CRC 6F28FA45 Copy CRC 6F28FA45 Track not present in AccurateRip database Copy OK
Track 8
Filename C:\Rips\08 - Concerned Citizen.wav
Pre-gap length 0:00:01.60
Peak level 95.3 % Extraction speed 1.8 X Track quality 100.0 % Test CRC 929AF78A Copy CRC 929AF78A Track not present in AccurateRip database Copy OK
Track 9
Filename C:\Rips\09 - Make an Exception.wav
Pre-gap length 0:00:01.69
Peak level 94.3 % Extraction speed 2.0 X Track quality 100.0 % Test CRC 5717FAA9 Copy CRC 5717FAA9 Track not present in AccurateRip database Copy OK
Track 10
Filename C:\Rips\10 - Torturing Frank.wav
Pre-gap length 0:00:02.00
Peak level 94.3 % Extraction speed 2.0 X Track quality 100.0 % Test CRC E6631AE1 Copy CRC E6631AE1 Track not present in AccurateRip database Copy OK
Track 11
Filename C:\Rips\11 - The Equalizer.wav
Pre-gap length 0:00:01.38
Peak level 94.3 % Extraction speed 2.1 X Track quality 99.9 % Test CRC 720AFCE6 Copy CRC 720AFCE6 Track not present in AccurateRip database Copy OK
None of the tracks are present in the AccurateRip database
No errors occurred
End of status report
==== Log checksum 9CDA7D2539C774716B555EA316CDCDF94E37F56E050D90AFC2C7345EFA4010A0 ====

Содержание индексной карты (.CUE)

REM GENRE SoundtrackREM DATE 2014REM DISCID 750C1F0BREM COMMENT "ExactAudioCopy v1.0b3"FILE "01 - Alone.wav" WAVE TRACK 01 AUDIO INDEX 01 00:00:00 TRACK 02 AUDIO INDEX 00 04:07:42FILE "02 - Change Your World.wav" WAVE INDEX 01 00:00:00 TRACK 03 AUDIO INDEX 00 04:06:41FILE "03 - Mc Call's Decision.wav" WAVE INDEX 01 00:00:00 TRACK 04 AUDIO INDEX 00 04:08:03FILE "04 - On a Mission.wav" WAVE INDEX 01 00:00:00 TRACK 05 AUDIO INDEX 00 03:50:62FILE "05 - Corrupt Cops.wav" WAVE INDEX 01 00:00:00 TRACK 06 AUDIO INDEX 00 02:46:55FILE "06 - A Quiet Voice.wav" WAVE INDEX 01 00:00:00 TRACK 07 AUDIO INDEX 00 03:37:37FILE "07 - It's All a Lie.wav" WAVE INDEX 01 00:00:00 TRACK 08 AUDIO INDEX 00 10:34:41FILE "08 - Concerned Citizen.wav" WAVE INDEX 01 00:00:00 TRACK 09 AUDIO INDEX 00 02:42:40FILE "09 - Make an Exception.wav" WAVE INDEX 01 00:00:00 TRACK 10 AUDIO INDEX 00 05:07:65FILE "10 - Torturing Frank.wav" WAVE INDEX 01 00:00:00 TRACK 11 AUDIO INDEX 00 03:42:66FILE "11 - The Equalizer.wav" WAVE INDEX 01 00:00:00
[teatrix.ru].t10403.torrent 
Торрент: Зарегистрирован [ 2015-11-01 20:51 ] · 1306DB2E96CEFB3CB71A95B0F9A11F9FF3E49847

Скачать .torrent

Скачать

21 KB

Статус: проверено
Скачан: 0 раз
Размер: 248 MB
terms.php



Быстрый ответ

Имя:

      
Для отправки сообщений необходимо включить JavaScript
Показать сообщения:    

Текущее время: 10-Дек 19:42

Часовой пояс: UTC + 3


Вы можете начинать темы
Вы можете отвечать на сообщения
Вы не можете редактировать свои сообщения
Вы не можете удалять свои сообщения
Вы не можете голосовать в опросах
Вы не можете прикреплять файлы к сообщениям
Вы можете скачивать файлы