(Soundtrack) Кафе Багдад / Bagdad Cafe - 1988, FLAC (image+.cue), lossless


Статистика раздачи [Обновить пиров]
Размер:  230 MB   |    Зарегистрирован:  1 год 1 месяц   |    Скачан:  3 раза

Полного источника не было: 7 часов

 
   
 
 
 

[Цитировать]

Кафе Багдад / Bagdad Cafe
Жанр: Soundtrack
Год выпуска диска: 1988
Издатель (лейбл): Island Records
Аудиокодек: FLAC (*.flac)
Тип рипа: image+.cue
Битрейт аудио: lossless
Продолжительность: 46:42
Источник: собственный рип
Треклист:
1. Jevetta Steele - Calling You (5:21)
2. William Galison - Blues Harp (0:59)
3. Deininger Blasmusik - Zweifach (2:32)
4. Jearlyn Steele-Battle, Marianne Sagerbrecht, Tommy Joe White - Brenda, Brenda (6:24)
5. Darron Flagg - C- Major Prelude From the Well Tempered Clavier (2:36)
6. Bob Telson - Calliope (0:58)
7. Bob Telson - Calling You (5:20)
8. Percy Adlon - Bagdad Cafe: The Story Narrated (22:30)
with following background music
8-a Zweifach - Deininger Blasmusik
8-b Calling You - Jevetta Steele
8-c Blues Harp - William Galison
8-d Calling You (Instrumental)
8-e C- Major Prelude From The Well Tempered Clavier - Darron Flagg
8-f Brenda, Brenda (Instrumental)
8-g Calliope - Bob Telson
8-h Calling You (Instrumental)
8-i Calliope - Bob Telson
8-j Brenda, Brenda (Instrumental)
8-k Calling You - Jevetta Steele
8-l Brenda, Brenda - Jearlyn Steele-Battle, Marianne Sagerbrecht, Tommy Joe White
8-m Calliope - Bob Telson

Лог создания рипа

Exact Audio Copy V1.0 beta 3 from 29. August 2011
EAC extraction logfile from 30. September 2014, 15:40
Various / Bagdad Cafe (OST)
Used drive : HL-DT-STDVDRAM GH24NSB0 Adapter: 1 ID: 1
Read mode : SecureUtilize accurate stream : YesDefeat audio cache : YesMake use of C2 pointers : No
Read offset correction : 6Overread into Lead-In and Lead-Out : NoFill up missing offset samples with silence : YesDelete leading and trailing silent blocks : NoNull samples used in CRC calculations : YesUsed interface : Native Win32 interface for Win NT & 2000
Used output format : User Defined EncoderSelected bitrate : 1024 kBit/sQuality : HighAdd ID3 tag : NoCommand line compressor : C:\Program Files\Exact Audio Copy\Flac\flac.exeAdditional command line options : -V -6 %source% -o %dest%
TOC of the extracted CD
Track | Start | Length | Start sector | End sector --------------------------------------------------------- 1 | 0:00.00 | 5:21.30 | 0 | 24104 2 | 5:21.30 | 0:59.17 | 24105 | 28546 3 | 6:20.47 | 2:32.08 | 28547 | 39954 4 | 8:52.55 | 6:24.22 | 39955 | 68776 5 | 15:17.02 | 2:36.38 | 68777 | 80514 6 | 17:53.40 | 0:58.00 | 80515 | 84864 7 | 18:51.40 | 5:20.17 | 84865 | 108881 8 | 24:11.57 | 22:30.43 | 108882 | 210174
Range status and errors
Selected range
Filename E:\WORKING\Various - Bagdad Cafe (OST).wav
Peak level 74.5 % Extraction speed 1.6 X Range quality 100.0 % Test CRC 8E5A54A2 Copy CRC 8E5A54A2 Copy OK
No errors occurred
AccurateRip summary
Track 1 accurately ripped (confidence 2) [260E0CB1] (AR v2)Track 2 accurately ripped (confidence 2) [C6D625AA] (AR v2)Track 3 accurately ripped (confidence 2) [730B799A] (AR v2)Track 4 accurately ripped (confidence 2) [B7093BF8] (AR v2)Track 5 accurately ripped (confidence 2) [BA525446] (AR v2)Track 6 accurately ripped (confidence 2) [A2F17ABF] (AR v2)Track 7 accurately ripped (confidence 2) [356BDE51] (AR v2)Track 8 accurately ripped (confidence 2) [1A518B23] (AR v2)
All tracks accurately ripped
End of status report
==== Log checksum 0902224219D47D36D3420469CAC4DE1D438933B350913863CEB5170D288D77B1 ====

Extra Info

This is Korean edition and its cover design is pretty much identical to Aussie's.
http://www.discogs.com/viewimages?release=4878819
[teatrix.ru].t10404.torrent 
Торрент: Зарегистрирован [ 2015-11-01 20:51 ] · B49AA01D02D0B3E03B0DAD4BB9AB811956EA5C0E

Скачать .torrent

Скачать

19 KB

Статус: проверено
Скачан: 3 раз
Размер: 230 MB
terms.php



Быстрый ответ

Имя:

      
Для отправки сообщений необходимо включить JavaScript
Показать сообщения:    

Текущее время: 03-Дек 22:46

Часовой пояс: UTC + 3


Вы можете начинать темы
Вы можете отвечать на сообщения
Вы не можете редактировать свои сообщения
Вы не можете удалять свои сообщения
Вы не можете голосовать в опросах
Вы не можете прикреплять файлы к сообщениям
Вы можете скачивать файлы