(Soundtrack) Стартрек (Звёздный Путь) / Star Trek - A Journey Through the Galaxies (Richard Hayman [Philharmonic Rock Orchestra]) - 1989, FLAC (tracks+.cue), lossless


Статистика раздачи [Обновить пиров]
Размер:  256 MB   |    Зарегистрирован:  1 год 1 месяц   |    Скачан:  0 раз

Полного источника не было: Никогда

 
   
 
 
 

[Цитировать]

Стартрек (Звёздный Путь) / Star Trek - A Journey Through the Galaxies
Название альбома: Star Trek - A Journey Through the Galaxies
Жанр: Soundtrack
Композитор: Richard Hayman (Philharmonic Rock Orchestra)
Год выпуска диска: 1989
Страна-производитель диска: Germany (FRG)
Издатель (лейбл): HNH International Ltd.
Номер по каталогу: 8.990003
Аудиокодек: FLAC (*.flac)
Тип рипа: tracks+.cue
Битрейт аудио: lossless
Продолжительность: 59:32
Источник: собственный рип
Наличие сканов в содержимом раздачи: нет
Треклист:
01. Alexander Courage - Star Trek I- Original Theme (3:03)
02. John Barry - The Black Hole- Main Title Theme (3:26)
03. James Horner - Star Trek II- The Wrath of Khan- End Credits (4:05)
04. John Barry - Moonraker- Main Title Theme (3:48)
05. James Horner - Star Trek II- The Wrath of Khan- Epilogue (7:13)
06. Ettore Stratta - The Late Planet Love (6:18)
07. James Horner - Star Trek III- The Search for Spock- Theme ''Stealing the Enterprise'' (8:57)
08. Ettore Stratta - The Lost Galaxy (4:53)
09. Leonard Rosenman - Star Trek IV- The Voyage Home- Main Title Theme (2:45)
10. Richard Hayman - Visions of the Future (4:42)
11. Jerry Goldsmith - Star Trek V- The Final Frontier- End Title Theme ''Life Is a Dream'' (3:48)
12. Игорь Фёдорович Стравинский - Intro Space- Berceuse and Finale From Firebird (6:34)
-

Лог создания рипа

Exact Audio Copy V1.0 beta 3 from 29. August 2011
Отчёт EAC об извлечении, выполненном 6. октября 2014, 11:49
Various Artists / Star Trek: A Journey Through the Galaxies
Дисковод: HL-DT-STDVDRAM GT70N Adapter: 0 ID: 1
Режим чтения : ДостоверностьИспользование точного потока : ДаОтключение кэша аудио : ДаИспользование указателей C2 : Нет
Коррекция смещения при чтении : 103Способность читать области Lead-in и Lead-out : НетЗаполнение пропущенных сэмплов тишиной : ДаУдаление блоков с тишиной в начале и конце : НетПри вычислениях CRC использовались нулевые сэмплы : ДаИнтерфейс : Встроенный Win32-интерфейс для Win NT/2000Обработка зазоров : Добавлено к предыдущему треку
Выходной формат : Пользовательский кодировщикВыбранный битрейт : 896 kBit/sКачество : ВысокийДобавление ID3-тега : НетУтилита сжатия : C:\Program Files (x86)\Exact Audio Copy\Flac\flac.exeДополнительные параметры : -8 -V -T "ARTIST=%artist%" -T "TITLE=%title%" -T "ALBUM=%albumtitle%" -T "DATE=%year%" -T "TRACKNUMBER=%tracknr%" -T "GENRE=%genre%" -T "PERFORMER=%albuminterpret%" -T "COMPOSER=%composer%" %haslyrics%--tag-from-file=LYRICS="%lyricsfile%"%haslyrics% -T "ALBUMARTIST=%albumartist%" -T "DISCNUMBER=%cdnumber%" -T "TOTALDISCS=%totalcds%" -T "TOTALTRACKS=%numtracks%" -T "COMMENT=%comment%" %source% -o %dest%
TOC извлечённого CD
Трек | Старт | Длительность | Начальный сектор | Конечный сектор --------------------------------------------------------------------- 1 | 0:00.00 | 3:03.00 | 0 | 13724 2 | 3:03.00 | 3:26.00 | 13725 | 29174 3 | 6:29.00 | 4:05.00 | 29175 | 47549 4 | 10:34.00 | 3:48.00 | 47550 | 64649 5 | 14:22.00 | 7:13.00 | 64650 | 97124 6 | 21:35.00 | 6:18.00 | 97125 | 125474 7 | 27:53.00 | 8:57.00 | 125475 | 165749 8 | 36:50.00 | 4:53.00 | 165750 | 187724 9 | 41:43.00 | 2:45.00 | 187725 | 200099 10 | 44:28.00 | 4:42.00 | 200100 | 221249 11 | 49:10.00 | 3:48.00 | 221250 | 238349 12 | 52:58.00 | 6:34.00 | 238350 | 267899
Трек 1
Имя файла C:\(Classical) VA - Star Trek- A Journey Through the Galaxies - 1989 (Philharmonic Rock Orchestra), FLAC (tracks+.cue), lossless\1-01. Alexander Courage - Star Trek I- Original Theme.wav
Длина предзазора 0:00:02.00
Пиковый уровень 97.7 % Скорость извлечения 2.8 X Качество трека 100.0 % CRC теста C567AA5D CRC копии C567AA5D Точное извлечение (достоверность 2) [8E8295B6] (AR v2) Копирование... OK
Трек 2
Имя файла C:\(Classical) VA - Star Trek- A Journey Through the Galaxies - 1989 (Philharmonic Rock Orchestra), FLAC (tracks+.cue), lossless\1-02. John Barry - The Black Hole- Main Title Theme.wav
Пиковый уровень 84.1 % Скорость извлечения 3.2 X Качество трека 100.0 % CRC теста 52FA13B5 CRC копии 52FA13B5 Точное извлечение (достоверность 2) [B4324D00] (AR v2) Копирование... OK
Трек 3
Имя файла C:\(Classical) VA - Star Trek- A Journey Through the Galaxies - 1989 (Philharmonic Rock Orchestra), FLAC (tracks+.cue), lossless\1-03. James Horner - Star Trek II- The Wrath of Khan- End Credits.wav
Пиковый уровень 93.3 % Скорость извлечения 2.8 X Качество трека 99.9 % CRC теста 3EBFE635 CRC копии 3EBFE635 Точное извлечение (достоверность 2) [68441F6C] (AR v2) Копирование... OK
Трек 4
Имя файла C:\(Classical) VA - Star Trek- A Journey Through the Galaxies - 1989 (Philharmonic Rock Orchestra), FLAC (tracks+.cue), lossless\1-04. John Barry - Moonraker- Main Title Theme.wav
Пиковый уровень 67.4 % Скорость извлечения 3.6 X Качество трека 100.0 % CRC теста B21E7CDC CRC копии B21E7CDC Точное извлечение (достоверность 2) [EC84CB33] (AR v2) Копирование... OK
Трек 5
Имя файла C:\(Classical) VA - Star Trek- A Journey Through the Galaxies - 1989 (Philharmonic Rock Orchestra), FLAC (tracks+.cue), lossless\1-05. James Horner - Star Trek II- The Wrath of Khan- Epilogue.wav
Пиковый уровень 71.9 % Скорость извлечения 4.3 X Качество трека 100.0 % CRC теста 80FC7784 CRC копии 80FC7784 Точное извлечение (достоверность 2) [FC3CAF1F] (AR v2) Копирование... OK
Трек 6
Имя файла C:\(Classical) VA - Star Trek- A Journey Through the Galaxies - 1989 (Philharmonic Rock Orchestra), FLAC (tracks+.cue), lossless\1-06. Ettore Stratta - The Late Planet Love.wav
Пиковый уровень 100.0 % Скорость извлечения 4.4 X Качество трека 100.0 % CRC теста 5F3FF679 CRC копии 5F3FF679 Точное извлечение (достоверность 2) [4B2DBDBE] (AR v2) Копирование... OK
Трек 7
Имя файла C:\(Classical) VA - Star Trek- A Journey Through the Galaxies - 1989 (Philharmonic Rock Orchestra), FLAC (tracks+.cue), lossless\1-07. James Horner - Star Trek III- The Search for Spock- Theme ''Stealing the Enterprise''.wav
Пиковый уровень 76.4 % Скорость извлечения 5.1 X Качество трека 100.0 % CRC теста A0D1CAB4 CRC копии A0D1CAB4 Точное извлечение (достоверность 3) [A66CFC44] (AR v2) Копирование... OK
Трек 8
Имя файла C:\(Classical) VA - Star Trek- A Journey Through the Galaxies - 1989 (Philharmonic Rock Orchestra), FLAC (tracks+.cue), lossless\1-08. Ettore Stratta - The Lost Galaxy.wav
Пиковый уровень 78.4 % Скорость извлечения 5.2 X Качество трека 100.0 % CRC теста AFFEF0DB CRC копии AFFEF0DB Точное извлечение (достоверность 3) [EEC345FD] (AR v2) Копирование... OK
Трек 9
Имя файла C:\(Classical) VA - Star Trek- A Journey Through the Galaxies - 1989 (Philharmonic Rock Orchestra), FLAC (tracks+.cue), lossless\1-09. Leonard Rosenman - Star Trek IV- The Voyage Home- Main Title Theme.wav
Пиковый уровень 70.7 % Скорость извлечения 3.6 X Качество трека 99.9 % CRC теста 1283DB8F CRC копии 1283DB8F Точное извлечение (достоверность 3) [53D15646] (AR v2) Копирование... OK
Трек 10
Имя файла C:\(Classical) VA - Star Trek- A Journey Through the Galaxies - 1989 (Philharmonic Rock Orchestra), FLAC (tracks+.cue), lossless\1-10. Richard Hayman - Visions of the Future.wav
Пиковый уровень 88.2 % Скорость извлечения 5.5 X Качество трека 100.0 % CRC теста 6FF63A52 CRC копии 6FF63A52 Точное извлечение (достоверность 3) [6E41D2DD] (AR v2) Копирование... OK
Трек 11
Имя файла C:\(Classical) VA - Star Trek- A Journey Through the Galaxies - 1989 (Philharmonic Rock Orchestra), FLAC (tracks+.cue), lossless\1-11. Jerry Goldsmith - Star Trek V- The Final Frontier- End Title Theme ''Life Is a Dream''.wav
Пиковый уровень 84.1 % Скорость извлечения 5.4 X Качество трека 100.0 % CRC теста D8D264AA CRC копии D8D264AA Точное извлечение (достоверность 4) [A2C8F6B4] (AR v1) Копирование... OK
Трек 12
Имя файла C:\(Classical) VA - Star Trek- A Journey Through the Galaxies - 1989 (Philharmonic Rock Orchestra), FLAC (tracks+.cue), lossless\1-12. Игорь Фёдорович Стравинский - Intro Space- Berceuse and Finale From Firebird.wav
Пиковый уровень 98.8 % Скорость извлечения 6.1 X Качество трека 100.0 % CRC теста 3D009708 CRC копии 3D009708 Точное извлечение (достоверность 2) [9BD5273C] (AR v2) Копирование... OK
Все треки извлечены точно
Ошибок не произошло
Конец отчёта
==== Контрольная сумма отчёта 2E47D28955BAED8EF17B5A20D0F8781400FEB8DE528AEF2126E0EAAB69090FEC ====

Содержание индексной карты (.CUE)

REM GENRE ClassicalREM DATE 1989REM DISCID A40DF40CREM COMMENT "ExactAudioCopy v1.0b3"PERFORMER "Various Artists"TITLE "Star Trek: A Journey Through the Galaxies"FILE "1-01. Alexander Courage - Star Trek I- Original Theme.wav" WAVE TRACK 01 AUDIO TITLE "Star Trek I: Original Theme" PERFORMER "Alexander Courage" INDEX 01 00:00:00FILE "1-02. John Barry - The Black Hole- Main Title Theme.wav" WAVE TRACK 02 AUDIO TITLE "The Black Hole: Main Title Theme" PERFORMER "John Barry" INDEX 01 00:00:00FILE "1-03. James Horner - Star Trek II- The Wrath of Khan- End Credits.wav" WAVE TRACK 03 AUDIO TITLE "Star Trek II: The Wrath of Khan: End Credits" PERFORMER "James Horner" INDEX 01 00:00:00FILE "1-04. John Barry - Moonraker- Main Title Theme.wav" WAVE TRACK 04 AUDIO TITLE "Moonraker: Main Title Theme" PERFORMER "John Barry" INDEX 01 00:00:00FILE "1-05. James Horner - Star Trek II- The Wrath of Khan- Epilogue.wav" WAVE TRACK 05 AUDIO TITLE "Star Trek II: The Wrath of Khan: Epilogue" PERFORMER "James Horner" INDEX 01 00:00:00FILE "1-06. Ettore Stratta - The Late Planet Love.wav" WAVE TRACK 06 AUDIO TITLE "The Late Planet Love" PERFORMER "Ettore Stratta" INDEX 01 00:00:00FILE "1-07. James Horner - Star Trek III- The Search for Spock- Theme ''Stealing the Enterprise''.wav" WAVE TRACK 07 AUDIO TITLE "Star Trek III: The Search for Spock: Theme 'Stealing the Enterprise'" PERFORMER "James Horner" INDEX 01 00:00:00FILE "1-08. Ettore Stratta - The Lost Galaxy.wav" WAVE TRACK 08 AUDIO TITLE "The Lost Galaxy" PERFORMER "Ettore Stratta" INDEX 01 00:00:00FILE "1-09. Leonard Rosenman - Star Trek IV- The Voyage Home- Main Title Theme.wav" WAVE TRACK 09 AUDIO TITLE "Star Trek IV: The Voyage Home: Main Title Theme" PERFORMER "Leonard Rosenman" INDEX 01 00:00:00FILE "1-10. Richard Hayman - Visions of the Future.wav" WAVE TRACK 10 AUDIO TITLE "Visions of the Future" PERFORMER "Richard Hayman" INDEX 01 00:00:00FILE "1-11. Jerry Goldsmith - Star Trek V- The Final Frontier- End Title Theme ''Life Is a Dream''.wav" WAVE TRACK 11 AUDIO TITLE "Star Trek V: The Final Frontier: End Title Theme 'Life Is a Dream'" PERFORMER "Jerry Goldsmith" INDEX 01 00:00:00FILE "1-12. Игорь Фёдорович Стравинский - Intro Space- Berceuse and Finale From Firebird.wav" WAVE TRACK 12 AUDIO TITLE "Intro Space: Berceuse and Finale From Firebird" PERFORMER "Игорь Фёдорович Стравинский" INDEX 01 00:00:00
-
[teatrix.ru].t10405.torrent 
Торрент: Зарегистрирован [ 2015-11-01 20:51 ] · 6C520468B865FD025BFA33139055B5D7B282BF0C

Скачать .torrent

Скачать

22 KB

Статус: проверено
Скачан: 0 раз
Размер: 256 MB
terms.php



Быстрый ответ

Имя:

      
Для отправки сообщений необходимо включить JavaScript
Показать сообщения:    

Текущее время: 03-Дек 05:27

Часовой пояс: UTC + 3


Вы можете начинать темы
Вы можете отвечать на сообщения
Вы не можете редактировать свои сообщения
Вы не можете удалять свои сообщения
Вы не можете голосовать в опросах
Вы не можете прикреплять файлы к сообщениям
Вы можете скачивать файлы