(Score) New York City Band (Luther Vandross) - 2013, FLAC (tracks+.cue) lossless


Статистика раздачи [Обновить пиров]
Размер:  390 MB   |    Зарегистрирован:  1 год 1 месяц   |    Скачан:  0 раз

Полного источника не было: Никогда

 
   
 
 
 

[Цитировать]

New York City Band (Luther Vandross)
Жанр: Score
Композитор: Luther Vandross
Год выпуска диска: 2013
Издатель (лейбл): Douglas Music
Номер по каталогу: AD-15
Аудиокодек: FLAC
Тип рипа: tracks+.cue
Битрейт аудио: lossless
Продолжительность: 00:42:22
Источник: avaxhm.com
Наличие сканов в содержимом раздачи: да
Треклист:
01. New York City Band
02. Got To Have Your Body
03. Together
04. Bo Diddley
05. Sometimes
06. Sunnyside
07. Loving You
08. Ride That Wave

Log EAC:

Exact Audio Copy V1.0 beta 3 from 29. August 2011
EAC extraction logfile from 24. September 2014, 17:43
New York City Band feat. Luther Vandross / New York City Band (Original Soundtrack "Sunnyside")
Used drive : GENERIC CDRCB05 Adapter: 4 ID: 0
Read mode : SecureUtilize accurate stream : YesDefeat audio cache : YesMake use of C2 pointers : No
Read offset correction : 102Overread into Lead-In and Lead-Out : NoFill up missing offset samples with silence : YesDelete leading and trailing silent blocks : NoNull samples used in CRC calculations : YesUsed interface : Native Win32 interface for Win NT & 2000Gap handling : Appended to previous track
Used output format : User Defined EncoderSelected bitrate : 1024 kBit/sQuality : HighAdd ID3 tag : NoCommand line compressor : C:\Program Files\FLAC\flac.exeAdditional command line options : -8 -V -T "ARTIST=%artist%" -T "TITLE=%title%" -T "ALBUM=%albumtitle%" -T "DATE=%year%" -T "TRACKNUMBER=%tracknr%" -T "GENRE=%genre%" -T "PERFORMER=%albuminterpret%" -T "COMPOSER=%composer%" %haslyrics%--tag-from-file=LYRICS="%lyricsfile%"%haslyrics% -T "ALBUMARTIST=%albumartist%" -T "DISCNUMBER=%cdnumber%" -T "TOTALDISCS=%totalcds%" -T "TOTALTRACKS=%numtracks%" -T "COMMENT=%comment%" %source% -o %dest%
TOC of the extracted CD
Track | Start | Length | Start sector | End sector---------------------------------------------------------1 | 0:00.00 | 4:28.57 | 0 | 201562 | 4:28.57 | 4:47.31 | 20157 | 417123 | 9:16.13 | 4:56.62 | 41713 | 639744 | 14:13.00 | 4:44.66 | 63975 | 853405 | 18:57.66 | 5:46.16 | 85341 | 1113066 | 24:44.07 | 7:01.30 | 111307 | 1429117 | 31:45.37 | 5:25.16 | 142912 | 1673028 | 37:10.53 | 5:07.30 | 167303 | 190357
Track 1
Filename G:\00000\New York City Band with Luther Vandross (2007)\01 New York City Band.wav
Pre-gap length 0:00:02.00
Peak level 96.7 %Extraction speed 2.4 XTrack quality 100.0 %Test CRC 0A4B4268Copy CRC 0A4B4268Accurately ripped (confidence 2) [5AACFAA0] (AR v1)Copy OK
Track 2
Filename G:\00000\New York City Band with Luther Vandross (2007)\02 Got To Have Your Body.wav
Peak level 96.6 %Extraction speed 2.8 XTrack quality 100.0 %Test CRC 1EFC9CDACopy CRC 1EFC9CDAAccurately ripped (confidence 2) [2C2BCA9F] (AR v1)Copy OK
Track 3
Filename G:\00000\New York City Band with Luther Vandross (2007)\03 Together.wav
Peak level 96.6 %Extraction speed 2.8 XTrack quality 99.9 %Test CRC 5C3C574BCopy CRC 5C3C574BAccurately ripped (confidence 2) [64AF4450] (AR v1)Copy OK
Track 4
Filename G:\00000\New York City Band with Luther Vandross (2007)\04 Bo Diddley.wav
Peak level 96.8 %Extraction speed 2.9 XTrack quality 99.9 %Test CRC 7C11FB69Copy CRC 7C11FB69Accurately ripped (confidence 2) [CB924B55] (AR v1)Copy OK
Track 5
Filename G:\00000\New York City Band with Luther Vandross (2007)\05 Sometimes.wav
Peak level 96.8 %Extraction speed 3.6 XTrack quality 100.0 %Test CRC CB45E60FCopy CRC CB45E60FAccurately ripped (confidence 2) [C5804D81] (AR v1)Copy OK
Track 6
Filename G:\00000\New York City Band with Luther Vandross (2007)\06 Sunnyside.wav
Peak level 96.7 %Extraction speed 4.0 XTrack quality 100.0 %Test CRC FF85F3BACopy CRC FF85F3BAAccurately ripped (confidence 2) [AE48FA47] (AR v1)Copy OK
Track 7
Filename G:\00000\New York City Band with Luther Vandross (2007)\07 Loving You.wav
Peak level 89.2 %Extraction speed 4.1 XTrack quality 100.0 %Test CRC 368AC092Copy CRC 368AC092Accurately ripped (confidence 2) [97F14203] (AR v1)Copy OK
Track 8
Filename G:\00000\New York City Band with Luther Vandross (2007)\08 Ride That WAve.wav
Peak level 96.7 %Extraction speed 3.9 XTrack quality 99.9 %Test CRC B5567226Copy CRC B5567226Accurately ripped (confidence 2) [7960C45D] (AR v1)Copy OK
All tracks accurately ripped
No errors occurred
End of status report
==== Log checksum D14D7F168A0EB0112839632447923CDDBB58A3FEC24828F05CAF284329486D2C ====

(.CUE):

REM GENRE DiscoREM DATE 1979REM DISCID 6A09EA08REM COMMENT "ExactAudioCopy v1.0b3"PERFORMER "New York City Band feat. Luther Vandross"TITLE "New York City Band (Original Soundtrack 'Sunnyside')"FILE "01 New York City Band.wav" WAVE TRACK 01 AUDIO TITLE "New York City Band" PERFORMER "New York City Band feat. Luther Vandross" INDEX 01 00:00:00FILE "02 Got To Have Your Body.wav" WAVE TRACK 02 AUDIO TITLE "Got To Have Your Body" PERFORMER "New York City Band feat. Luther Vandross" INDEX 01 00:00:00FILE "03 Together.wav" WAVE TRACK 03 AUDIO TITLE "Together" PERFORMER "New York City Band feat. Luther Vandross" INDEX 01 00:00:00FILE "04 Bo Diddley.wav" WAVE TRACK 04 AUDIO TITLE "Bo Diddley" PERFORMER "New York City Band feat. Luther Vandross" INDEX 01 00:00:00FILE "05 Sometimes.wav" WAVE TRACK 05 AUDIO TITLE "Sometimes" PERFORMER "New York City Band feat. Luther Vandross" INDEX 01 00:00:00FILE "06 Sunnyside.wav" WAVE TRACK 06 AUDIO TITLE "Sunnyside" PERFORMER "New York City Band feat. Luther Vandross" INDEX 01 00:00:00FILE "07 Loving You.wav" WAVE TRACK 07 AUDIO TITLE "Loving You" PERFORMER "New York City Band feat. Luther Vandross" INDEX 01 00:00:00FILE "08 Ride That WAve.wav" WAVE TRACK 08 AUDIO TITLE "Ride That WAve" PERFORMER "New York City Band feat. Luther Vandross" INDEX 01 00:00:00
[teatrix.ru].t10407.torrent 
Торрент: Зарегистрирован [ 2015-11-01 20:51 ] · 54A49EC5EA2D8B40A0217EDF0093C894ED69DFB2

Скачать .torrent

Скачать

17 KB

Статус: проверено
Скачан: 0 раз
Размер: 390 MB
terms.php



Быстрый ответ

Имя:

      
Для отправки сообщений необходимо включить JavaScript
Показать сообщения:    

Текущее время: 08-Дек 12:58

Часовой пояс: UTC + 3


Вы можете начинать темы
Вы можете отвечать на сообщения
Вы не можете редактировать свои сообщения
Вы не можете удалять свои сообщения
Вы не можете голосовать в опросах
Вы не можете прикреплять файлы к сообщениям
Вы можете скачивать файлы