(Score) Страшные сказки / Penny Dreadful (by Abel Korzeniowski) - 2014, FLAC (tracks+.cue), lossless


Статистика раздачи [Обновить пиров]
Размер:  353 MB   |    Зарегистрирован:  1 год 1 месяц   |    Скачан:  1 раз
Сидов:  1  [  0 KB/s  ]   Личеров:  1  [  0 KB/s  ]   Подробная статистика пиров
 
   
 
 
 

[Цитировать]

Страшные сказки / Penny Dreadful-Жанр: Score
Композитор: Abel Korzeniowski
Год выпуска диска: 2014
Производитель диска: USA
Издатель (лейбл): Varèse Sarabande
Номер по каталогу: 302 067 298 8-Аудиокодек: FLAC (*.flac)
Тип рипа: tracks+.cue
Битрейт аудио: lossless
Продолжительность: 01:12:32
Источник: lztr / neuroin
Наличие сканов в содержимом раздачи: да-

Треклист

01. Demimonde (Main Title) (01:36)
02. First Blood (03:22)
03. Right Behind You (02:15)
04. Modern Age (02:10)
05. Street, Horse, Smell & Candle (02:25)
06. There Is A Place (02:03)
07. Welcome To The Grand Guignol (02:20)
08. Everyone Likes Oranges (01:44)
09. Abomination (01:13)
10. Pull The Trigger (02:02)
11. Mina (02:33)
12. Allegiance (03:39)
13. Dorian Gray (01:35)
14. Never Say No (02:39)
15. Where Do They Go? (02:21)
16. Transgression (03:45)
17. Asylum (03:39)
18. Closer Than Sisters (03:14)
19. Too Many Monsters (03:24)
20. Mother Of Evil (02:43)
21. Secret Room (01:42)
22. I'm Not Myself (01:59)
23. Let Me Die (02:30)
24. To Be Beautiful Is To Be Almost Dead (02:47)
25. The Last Rites (02:48)
26. Back Hand Of God (02:21)
27. In Peace (01:31)
28. I Was Never Going To Go To Africa (03:03)
29. Reborn (03:09)

Лог создания рипа

Exact Audio Copy V1.0 beta 3 from 29. August 2011
EAC extraction logfile from 3. September 2014, 4:10
Abel Korzeniowski / Penny Dreadful
Used drive : HL-DT-STDVD-RAM GH22LP21 Adapter: 0 ID: 0
Read mode : SecureUtilize accurate stream : YesDefeat audio cache : YesMake use of C2 pointers : No
Read offset correction : 102Overread into Lead-In and Lead-Out : NoFill up missing offset samples with silence : YesDelete leading and trailing silent blocks : NoNull samples used in CRC calculations : YesUsed interface : Native Win32 interface for Win NT & 2000Gap handling : Appended to previous track
Used output format : User Defined EncoderSelected bitrate : 128 kBit/sQuality : HighAdd ID3 tag : NoCommand line compressor : C:\Program Files\Exact Audio Copy\Flac\flac.exeAdditional command line options : -8 -V -T "ARTIST=%artist%" -T "TITLE=%title%" -T "ALBUM=%albumtitle%" -T "DATE=%year%"-T "TRACKNUMBER=%tracknr%" -T "GENRE=%genre%" -T "PERFORMER=%albuminterpret%"-T "COMPOSER=%composer%" %haslyrics%--tag-from-file=LYRICS="%lyricsfile%"%haslyrics% -T "ALBUMARTIST=%albumartist%"-T "ALBUM ARTIST=%albumartist%" -T "DISCNUMBER=%cdnumber%" -T "TOTALDISCS=%totalcds%" -T "TOTALTRACKS=%numtracks%"-T "COMMENT=%comment%" %source% -o %dest%
TOC of the extracted CD
Track | Start | Length | Start sector | End sector --------------------------------------------------------- 1 | 0:00.00 | 1:36.06 | 0 | 7205 2 | 1:36.06 | 3:21.45 | 7206 | 22325 3 | 4:57.51 | 2:15.04 | 22326 | 32454 4 | 7:12.55 | 2:09.66 | 32455 | 42195 5 | 9:22.46 | 2:25.07 | 42196 | 53077 6 | 11:47.53 | 2:04.36 | 53078 | 62413 7 | 13:52.14 | 2:20.43 | 62414 | 72956 8 | 16:12.57 | 1:44.40 | 72957 | 80796 9 | 17:57.22 | 1:13.20 | 80797 | 86291 10 | 19:10.42 | 2:03.26 | 86292 | 95542 11 | 21:13.68 | 2:34.13 | 95543 | 107105 12 | 23:48.06 | 3:38.71 | 107106 | 123526 13 | 27:27.02 | 1:37.30 | 123527 | 130831 14 | 29:04.32 | 2:39.63 | 130832 | 142819 15 | 31:44.20 | 2:23.15 | 142820 | 153559 16 | 34:07.35 | 3:45.44 | 153560 | 170478 17 | 37:53.04 | 3:41.20 | 170479 | 187073 18 | 41:34.24 | 3:15.56 | 187074 | 201754 19 | 44:50.05 | 3:24.55 | 201755 | 217109 20 | 48:14.60 | 2:45.61 | 217110 | 229545 21 | 51:00.46 | 1:43.10 | 229546 | 237280 22 | 52:43.56 | 2:00.10 | 237281 | 246290 23 | 54:43.66 | 2:30.43 | 246291 | 257583 24 | 57:14.34 | 2:48.62 | 257584 | 270245 25 | 60:03.21 | 2:48.20 | 270246 | 282865 26 | 62:51.41 | 2:22.57 | 282866 | 293572 27 | 65:14.23 | 1:33.29 | 293573 | 300576 28 | 66:47.52 | 3:04.04 | 300577 | 314380 29 | 69:51.56 | 3:09.24 | 314381 | 328579
Track 1
Filename H:\Music04_moviez\P\Penny Dreadful (2014, FLAC) - Abel Korzeniowski\01 - Demimonde (Main Title).wav
Pre-gap length 0:00:02.00
Peak level 94.4 % Extraction speed 1.4 X Track quality 100.0 % Test CRC 00AB978A Copy CRC 00AB978A Track not present in AccurateRip database Copy OK
Track 2
Filename H:\Music04_moviez\P\Penny Dreadful (2014, FLAC) - Abel Korzeniowski\02 - First Blood.wav
Peak level 94.4 % Extraction speed 1.7 X Track quality 100.0 % Test CRC 824A214F Copy CRC 824A214F Track not present in AccurateRip database Copy OK
Track 3
Filename H:\Music04_moviez\P\Penny Dreadful (2014, FLAC) - Abel Korzeniowski\03 - Right Behind You.wav
Peak level 94.4 % Extraction speed 1.7 X Track quality 100.0 % Test CRC 8A95F7BF Copy CRC 8A95F7BF Track not present in AccurateRip database Copy OK
Track 4
Filename H:\Music04_moviez\P\Penny Dreadful (2014, FLAC) - Abel Korzeniowski\04 - Modern Age.wav
Peak level 74.9 % Extraction speed 1.8 X Track quality 100.0 % Test CRC 8FFCBA9D Copy CRC 8FFCBA9D Track not present in AccurateRip database Copy OK
Track 5
Filename H:\Music04_moviez\P\Penny Dreadful (2014, FLAC) - Abel Korzeniowski\05 - Street. Horse. Smell. Candle..wav
Peak level 94.5 % Extraction speed 1.6 X Track quality 99.9 % Test CRC DA677BB2 Copy CRC DA677BB2 Track not present in AccurateRip database Copy OK
Track 6
Filename H:\Music04_moviez\P\Penny Dreadful (2014, FLAC) - Abel Korzeniowski\06 - There is a Place.wav
Pre-gap length 0:00:00.02
Peak level 54.9 % Extraction speed 1.6 X Track quality 99.9 % Test CRC A886BB66 Copy CRC A886BB66 Track not present in AccurateRip database Copy OK
Track 7
Filename H:\Music04_moviez\P\Penny Dreadful (2014, FLAC) - Abel Korzeniowski\07 - Welcome to the Grand Guignol.wav
Pre-gap length 0:00:00.88
Peak level 94.4 % Extraction speed 2.0 X Track quality 100.0 % Test CRC 16D7F353 Copy CRC 16D7F353 Track not present in AccurateRip database Copy OK
Track 8
Filename H:\Music04_moviez\P\Penny Dreadful (2014, FLAC) - Abel Korzeniowski\08 - Everyone Likes Oranges.wav
Pre-gap length 0:00:00.96
Peak level 40.8 % Extraction speed 1.9 X Track quality 100.0 % Test CRC 1830249F Copy CRC 1830249F Track not present in AccurateRip database Copy OK
Track 9
Filename H:\Music04_moviez\P\Penny Dreadful (2014, FLAC) - Abel Korzeniowski\09 - Abomination.wav
Pre-gap length 0:00:00.34
Peak level 94.4 % Extraction speed 1.8 X Track quality 100.0 % Test CRC C22BFFDE Copy CRC C22BFFDE Track not present in AccurateRip database Copy OK
Track 10
Filename H:\Music04_moviez\P\Penny Dreadful (2014, FLAC) - Abel Korzeniowski\10 - Pull the Trigger.wav
Peak level 89.5 % Extraction speed 2.1 X Track quality 100.0 % Test CRC 7E9785B4 Copy CRC 7E9785B4 Track not present in AccurateRip database Copy OK
Track 11
Filename H:\Music04_moviez\P\Penny Dreadful (2014, FLAC) - Abel Korzeniowski\11 - Mina.wav
Pre-gap length 0:00:00.98
Peak level 89.6 % Extraction speed 2.3 X Track quality 100.0 % Test CRC D0946FAB Copy CRC D0946FAB Track not present in AccurateRip database Copy OK
Track 12
Filename H:\Music04_moviez\P\Penny Dreadful (2014, FLAC) - Abel Korzeniowski\12 - Allegiance.wav
Pre-gap length 0:00:01.05
Peak level 69.6 % Extraction speed 2.5 X Track quality 100.0 % Test CRC 7CCA6F3D Copy CRC 7CCA6F3D Track not present in AccurateRip database Copy OK
Track 13
Filename H:\Music04_moviez\P\Penny Dreadful (2014, FLAC) - Abel Korzeniowski\13 - Dorian Gray.wav
Peak level 94.4 % Extraction speed 2.1 X Track quality 100.0 % Test CRC F8888260 Copy CRC F8888260 Track not present in AccurateRip database Copy OK
Track 14
Filename H:\Music04_moviez\P\Penny Dreadful (2014, FLAC) - Abel Korzeniowski\14 - Never Say No.wav
Pre-gap length 0:00:02.00
Peak level 94.4 % Extraction speed 2.5 X Track quality 100.0 % Test CRC 4D4DA7F7 Copy CRC 4D4DA7F7 Track not present in AccurateRip database Copy OK
Track 15
Filename H:\Music04_moviez\P\Penny Dreadful (2014, FLAC) - Abel Korzeniowski\15 - Where Do They Go.wav
Pre-gap length 0:00:00.98
Peak level 94.4 % Extraction speed 2.5 X Track quality 100.0 % Test CRC 504AE8C5 Copy CRC 504AE8C5 Track not present in AccurateRip database Copy OK
Track 16
Filename H:\Music04_moviez\P\Penny Dreadful (2014, FLAC) - Abel Korzeniowski\16 - Transgression.wav
Pre-gap length 0:00:02.00
Peak level 94.4 % Extraction speed 2.8 X Track quality 100.0 % Test CRC ACC71ECF Copy CRC ACC71ECF Track not present in AccurateRip database Copy OK
Track 17
Filename H:\Music04_moviez\P\Penny Dreadful (2014, FLAC) - Abel Korzeniowski\17 - Asylum.wav
Pre-gap length 0:00:01.00
Peak level 94.4 % Extraction speed 2.9 X Track quality 100.0 % Test CRC 4C9B89D2 Copy CRC 4C9B89D2 Track not present in AccurateRip database Copy OK
Track 18
Filename H:\Music04_moviez\P\Penny Dreadful (2014, FLAC) - Abel Korzeniowski\18 - Closer Than Sisters.wav
Pre-gap length 0:00:02.49
Peak level 94.4 % Extraction speed 2.9 X Track quality 100.0 % Test CRC 239B8584 Copy CRC 239B8584 Track not present in AccurateRip database Copy OK
Track 19
Filename H:\Music04_moviez\P\Penny Dreadful (2014, FLAC) - Abel Korzeniowski\19 - Too Many Monsters.wav
Pre-gap length 0:00:01.98
Peak level 94.4 % Extraction speed 3.0 X Track quality 100.0 % Test CRC B9E1AD79 Copy CRC B9E1AD79 Track not present in AccurateRip database Copy OK
Track 20
Filename H:\Music04_moviez\P\Penny Dreadful (2014, FLAC) - Abel Korzeniowski\20 - Mother of Evil.wav
Pre-gap length 0:00:00.98
Peak level 94.5 % Extraction speed 3.0 X Track quality 100.0 % Test CRC 602FA913 Copy CRC 602FA913 Track not present in AccurateRip database Copy OK
Track 21
Filename H:\Music04_moviez\P\Penny Dreadful (2014, FLAC) - Abel Korzeniowski\21 - Secret Room.wav
Pre-gap length 0:00:02.49
Peak level 94.4 % Extraction speed 2.7 X Track quality 100.0 % Test CRC 5BFE5D91 Copy CRC 5BFE5D91 Track not present in AccurateRip database Copy OK
Track 22
Filename H:\Music04_moviez\P\Penny Dreadful (2014, FLAC) - Abel Korzeniowski\22 - I’m Not Myself.wav
Pre-gap length 0:00:00.98
Peak level 94.4 % Extraction speed 2.3 X Track quality 99.9 % Test CRC 005AC21F Copy CRC 005AC21F Track not present in AccurateRip database Copy OK
Track 23
Filename H:\Music04_moviez\P\Penny Dreadful (2014, FLAC) - Abel Korzeniowski\23 - Let Me Die.wav
Pre-gap length 0:00:00.98
Peak level 89.3 % Extraction speed 3.1 X Track quality 100.0 % Test CRC 98878FCD Copy CRC 98878FCD Track not present in AccurateRip database Copy OK
Track 24
Filename H:\Music04_moviez\P\Penny Dreadful (2014, FLAC) - Abel Korzeniowski\24 - To Be Beautiful is to Be Almost Dead.wav
Pre-gap length 0:00:00.98
Peak level 49.8 % Extraction speed 3.2 X Track quality 100.0 % Test CRC CF6B6171 Copy CRC CF6B6171 Track not present in AccurateRip database Copy OK
Track 25
Filename H:\Music04_moviez\P\Penny Dreadful (2014, FLAC) - Abel Korzeniowski\25 - The Last Rites.wav
Pre-gap length 0:00:01.49
Peak level 94.4 % Extraction speed 3.2 X Track quality 100.0 % Test CRC F02E56D1 Copy CRC F02E56D1 Track not present in AccurateRip database Copy OK
Track 26
Filename H:\Music04_moviez\P\Penny Dreadful (2014, FLAC) - Abel Korzeniowski\26 - Back Hand of God.wav
Pre-gap length 0:00:00.08
Peak level 94.4 % Extraction speed 2.6 X Track quality 99.9 % Test CRC 118EAA57 Copy CRC 118EAA57 Track not present in AccurateRip database Copy OK
Track 27
Filename H:\Music04_moviez\P\Penny Dreadful (2014, FLAC) - Abel Korzeniowski\27 - In Peace.wav
Pre-gap length 0:00:01.61
Peak level 94.4 % Extraction speed 2.9 X Track quality 100.0 % Test CRC 28ED273B Copy CRC 28ED273B Track not present in AccurateRip database Copy OK
Track 28
Filename H:\Music04_moviez\P\Penny Dreadful (2014, FLAC) - Abel Korzeniowski\28 - I Was Never Going to Go to Africa.wav
Pre-gap length 0:00:02.49
Peak level 94.4 % Extraction speed 3.5 X Track quality 100.0 % Test CRC 0C96984C Copy CRC 0C96984C Track not present in AccurateRip database Copy OK
Track 29
Filename H:\Music04_moviez\P\Penny Dreadful (2014, FLAC) - Abel Korzeniowski\29 - Reborn.wav
Pre-gap length 0:00:00.98
Peak level 99.1 % Extraction speed 3.5 X Track quality 100.0 % Test CRC 80A24EE4 Copy CRC 80A24EE4 Track not present in AccurateRip database Copy OK
None of the tracks are present in the AccurateRip database
No errors occurred
End of status report
---- CUETools DB Plugin V2.1.3
[CTDB TOCID: WW2qVLvL8LIXe8TPd8pl9Rr9OwY-] found, Submit result: WW2qVLvL8LIXe8TPd8pl9Rr9OwY- has been confirmed[eb6a4ddc] (1/1) Accurately ripped
==== Log checksum B2554D512A1C09D85D1C8F5DA7B9362573B7FFADD923C9F66CDAA124DE9071D2 ====

Содержание индексной карты (.CUE)

REM GENRE SoundtrackREM DATE 2014REM DISCID CB111D1DREM COMMENT "ExactAudioCopy v1.0b3"PERFORMER "Abel Korzeniowski"TITLE "Penny Dreadful"FILE "01 - Demimonde (Main Title).wav" WAVE TRACK 01 AUDIO TITLE "Demimonde (Main Title)" PERFORMER "Abel Korzeniowski" INDEX 01 00:00:00FILE "02 - First Blood.wav" WAVE TRACK 02 AUDIO TITLE "First Blood" PERFORMER "Abel Korzeniowski" INDEX 01 00:00:00FILE "03 - Right Behind You.wav" WAVE TRACK 03 AUDIO TITLE "Right Behind You" PERFORMER "Abel Korzeniowski" INDEX 01 00:00:00FILE "04 - Modern Age.wav" WAVE TRACK 04 AUDIO TITLE "Modern Age" PERFORMER "Abel Korzeniowski" INDEX 01 00:00:00FILE "05 - Street. Horse. Smell. Candle..wav" WAVE TRACK 05 AUDIO TITLE "Street. Horse. Smell. Candle." PERFORMER "Abel Korzeniowski" INDEX 01 00:00:00 TRACK 06 AUDIO TITLE "There is a Place" PERFORMER "Abel Korzeniowski" INDEX 00 02:25:05FILE "06 - There is a Place.wav" WAVE INDEX 01 00:00:00 TRACK 07 AUDIO TITLE "Welcome to the Grand Guignol" PERFORMER "Abel Korzeniowski" INDEX 00 02:03:45FILE "07 - Welcome to the Grand Guignol.wav" WAVE INDEX 01 00:00:00 TRACK 08 AUDIO TITLE "Everyone Likes Oranges" PERFORMER "Abel Korzeniowski" INDEX 00 02:19:46FILE "08 - Everyone Likes Oranges.wav" WAVE INDEX 01 00:00:00 TRACK 09 AUDIO TITLE "Abomination" PERFORMER "Abel Korzeniowski" INDEX 00 01:44:14FILE "09 - Abomination.wav" WAVE INDEX 01 00:00:00FILE "10 - Pull the Trigger.wav" WAVE TRACK 10 AUDIO TITLE "Pull the Trigger" PERFORMER "Abel Korzeniowski" INDEX 01 00:00:00 TRACK 11 AUDIO TITLE "Mina" PERFORMER "Abel Korzeniowski" INDEX 00 02:02:27FILE "11 - Mina.wav" WAVE INDEX 01 00:00:00 TRACK 12 AUDIO TITLE "Allegiance" PERFORMER "Abel Korzeniowski" INDEX 00 02:33:09FILE "12 - Allegiance.wav" WAVE INDEX 01 00:00:00FILE "13 - Dorian Gray.wav" WAVE TRACK 13 AUDIO TITLE "Dorian Gray" PERFORMER "Abel Korzeniowski" INDEX 01 00:00:00 TRACK 14 AUDIO TITLE "Never Say No" PERFORMER "Abel Korzeniowski" INDEX 00 01:35:30FILE "14 - Never Say No.wav" WAVE INDEX 01 00:00:00 TRACK 15 AUDIO TITLE "Where Do They Go?" PERFORMER "Abel Korzeniowski" INDEX 00 02:38:64FILE "15 - Where Do They Go.wav" WAVE INDEX 01 00:00:00 TRACK 16 AUDIO TITLE "Transgression" PERFORMER "Abel Korzeniowski" INDEX 00 02:21:15FILE "16 - Transgression.wav" WAVE INDEX 01 00:00:00 TRACK 17 AUDIO TITLE "Asylum" PERFORMER "Abel Korzeniowski" INDEX 00 03:44:44FILE "17 - Asylum.wav" WAVE INDEX 01 00:00:00 TRACK 18 AUDIO TITLE "Closer Than Sisters" PERFORMER "Abel Korzeniowski" INDEX 00 03:38:58FILE "18 - Closer Than Sisters.wav" WAVE INDEX 01 00:00:00 TRACK 19 AUDIO TITLE "Too Many Monsters" PERFORMER "Abel Korzeniowski" INDEX 00 03:13:57FILE "19 - Too Many Monsters.wav" WAVE INDEX 01 00:00:00 TRACK 20 AUDIO TITLE "Mother of Evil" PERFORMER "Abel Korzeniowski" INDEX 00 03:23:56FILE "20 - Mother of Evil.wav" WAVE INDEX 01 00:00:00 TRACK 21 AUDIO TITLE "Secret Room" PERFORMER "Abel Korzeniowski" INDEX 00 02:43:24FILE "21 - Secret Room.wav" WAVE INDEX 01 00:00:00 TRACK 22 AUDIO TITLE "I’m Not Myself" PERFORMER "Abel Korzeniowski" INDEX 00 01:42:11FILE "22 - I’m Not Myself.wav" WAVE INDEX 01 00:00:00 TRACK 23 AUDIO TITLE "Let Me Die" PERFORMER "Abel Korzeniowski" INDEX 00 01:59:11FILE "23 - Let Me Die.wav" WAVE INDEX 01 00:00:00 TRACK 24 AUDIO TITLE "To Be Beautiful is to Be Almost Dead" PERFORMER "Abel Korzeniowski" INDEX 00 02:29:44FILE "24 - To Be Beautiful is to Be Almost Dead.wav" WAVE INDEX 01 00:00:00 TRACK 25 AUDIO TITLE "The Last Rites" PERFORMER "Abel Korzeniowski" INDEX 00 02:47:25FILE "25 - The Last Rites.wav" WAVE INDEX 01 00:00:00 TRACK 26 AUDIO TITLE "Back Hand of God" PERFORMER "Abel Korzeniowski" INDEX 00 02:48:14FILE "26 - Back Hand of God.wav" WAVE INDEX 01 00:00:00 TRACK 27 AUDIO TITLE "In Peace" PERFORMER "Abel Korzeniowski" INDEX 00 02:21:11FILE "27 - In Peace.wav" WAVE INDEX 01 00:00:00 TRACK 28 AUDIO TITLE "I Was Never Going to Go to Africa" PERFORMER "Abel Korzeniowski" INDEX 00 01:30:67FILE "28 - I Was Never Going to Go to Africa.wav" WAVE INDEX 01 00:00:00 TRACK 29 AUDIO TITLE "Reborn" PERFORMER "Abel Korzeniowski" INDEX 00 03:03:05FILE "29 - Reborn.wav" WAVE INDEX 01 00:00:00
[teatrix.ru].t10408.torrent 
Торрент: Зарегистрирован [ 2015-11-01 20:51 ] · 6C04584B1372B2E4C1EB6148E9E501840E2D3960

Скачать .torrent

Скачать

16 KB

Статус: проверено
Скачан: 1 раз
Размер: 353 MB
terms.php



Быстрый ответ

Имя:

      
Для отправки сообщений необходимо включить JavaScript
Показать сообщения:    

Текущее время: 11-Дек 13:02

Часовой пояс: UTC + 3


Вы можете начинать темы
Вы можете отвечать на сообщения
Вы не можете редактировать свои сообщения
Вы не можете удалять свои сообщения
Вы не можете голосовать в опросах
Вы не можете прикреплять файлы к сообщениям
Вы можете скачивать файлы