(Score) Элементарные частицы / Elementarteilchen (Martin Todsharow) - 2006, FLAC (tracks+.cue), lossless


Статистика раздачи [Обновить пиров]
Размер:  182 MB   |    Зарегистрирован:  1 год 1 месяц   |    Скачан:  0 раз

Полного источника не было: Никогда

Личеров:  1  [  0 KB/s  ]   Подробная статистика пиров
 
   
 
 
 

[Цитировать]

Элементарные частицы / Elementarteilchen
Жанр: Score
Композитор: Martin Todsharow
Год выпуска диска: 2006
Аудиокодек: FLAC (*.flac)
Тип рипа: tracks+.cue
Битрейт аудио: lossless
Продолжительность: 37:27
Источник: скачано с
сайт-источник/ник/другое: what.cd
Треклист:
01. Elementarteilchen [01:00]
02. Ewige Versuchung [01:15]
03. Annabels Briefe [01:57]
04. Schlaflied [00:47]
05. Sehnsucht, Immer Wieder [00:59]
06. Schoene Tiere [02:11]
07. Suche Nach Sinn [02:45]
08. Zwei Brueder, Zwei Welten [01:33]
09. Wunderbare Jugend [01:02]
10. Wiederkehr [01:33]
11. Amor und Psyche [03:26]
12. Abschied [01:19]
13. Annabells Atmen [01:26]
14. Weg Der Erkenntnis [01:35]
15. Ort Der Wandlung [01:35]
16. Hoffnung Auf Naehe [01:27]
17. Elementarteilchen 2 [02:07]
18. Christianes Ausweg [04:57]
19. Suche Nach Halt [01:56]
20. Brunos Ausweg [02:45]
Красивый саундтрек.

Лог создания рипа

Exact Audio Copy V0.99 prebeta 5 from 4. May 2009
EAC Auslese-Logdatei vom 4. September 2009, 12:21
Martin Todsharow / Elementarteilchen
Benutztes Laufwerk : TSSTcorpCDDVDW SH-S203P Adapter: 0 ID: 0
Lesemodus : SicherBenutze Accurate Stream : JaAudio Puffer abgeschaltet : JaBenutze C2 Fehlerinformationen : Nein
Leseoffset Korrektur : 6Ьberlesen in das Lead-In und Lead-Out : NeinFьlle fehlende Offsetsample mit Stille auf : JaLцsche fьhrende und nachfolgende stille Blцcke : NeinNull Samples gehen in CRC Berechnungen ein : JaBenutzte Schnittstelle : Natьrliche Win32 Schnittstelle fьr Win NT/2000/XPPausenbehandlung : Hinter dem vorigen Track angehдngt
Benutztes Ausgabeformat : Benutzerdefinierter KomprimiererGewдhlte Bitrate : 320 kBit/sQualitдt : HochFьge ID3 Tag hinzu : NeinKommandozeilen Komprimierer : C:\Program Files (x86)\Exact Audio Copy\Flac\flac.exeZusдtzliche Kommandozeilenoptionen : -V -8 -T "artist=%a" -T "title=%t" -T "album=%g" -T "date=%y" -T "tracknumber=%n" -T "genre=%m" %s
TOC der ausgelesenen CD
Track | Start | Lдnge | Startsektor | Endsektor ------------------------------------------------------- 1 | 0:00.00 | 1:00.28 | 0 | 4527 2 | 1:00.28 | 1:15.33 | 4528 | 10185 3 | 2:15.61 | 1:56.46 | 10186 | 18931 4 | 4:12.32 | 0:47.35 | 18932 | 22491 5 | 4:59.67 | 0:59.30 | 22492 | 26946 6 | 5:59.22 | 2:11.34 | 26947 | 36805 7 | 8:10.56 | 2:44.55 | 36806 | 49160 8 | 10:55.36 | 1:33.04 | 49161 | 56139 9 | 12:28.40 | 1:01.47 | 56140 | 60761 10 | 13:30.12 | 1:32.65 | 60762 | 67726 11 | 15:03.02 | 3:26.15 | 67727 | 83191 12 | 18:29.17 | 1:18.42 | 83192 | 89083 13 | 19:47.59 | 1:25.38 | 89084 | 95496 14 | 21:13.22 | 1:35.17 | 95497 | 102638 15 | 22:48.39 | 1:35.01 | 102639 | 109764 16 | 24:23.40 | 1:26.74 | 109765 | 116288 17 | 25:50.39 | 2:07.22 | 116289 | 125835 18 | 27:57.61 | 4:56.72 | 125836 | 148107 19 | 32:54.58 | 1:56.10 | 148108 | 156817 20 | 34:50.68 | 2:45.27 | 156818 | 169219
Track 1
Dateiname D:\EAC\Martin Todsharow - 2006 - Elementarteilchen\01 - Elementarteilchen.wav
Pausenlдnge 0:00:02.00
Spitzenpegel 86.4 % Track Qualitдt 100.0 % Test CRC 6D9D0299 Kopie CRC 6D9D0299 Akkurat gelesen (Zuversicht 1) [3C67FB27] Kopie OK
Track 2
Dateiname D:\EAC\Martin Todsharow - 2006 - Elementarteilchen\02 - Ewige Versuchung.wav
Pausenlдnge 0:00:01.86
Spitzenpegel 87.6 % Track Qualitдt 100.0 % Test CRC A91DAD56 Kopie CRC A91DAD56 Akkurat gelesen (Zuversicht 1) [3BD7DD29] Kopie OK
Track 3
Dateiname D:\EAC\Martin Todsharow - 2006 - Elementarteilchen\03 - Annabelles Briefe.wav
Pausenlдnge 0:00:01.86
Spitzenpegel 95.8 % Track Qualitдt 100.0 % Test CRC 26A95AB8 Kopie CRC 26A95AB8 Akkurat gelesen (Zuversicht 1) [370F96E8] Kopie OK
Track 4
Dateiname D:\EAC\Martin Todsharow - 2006 - Elementarteilchen\04 - Schlaflied.wav
Pausenlдnge 0:00:01.86
Spitzenpegel 77.8 % Track Qualitдt 99.7 % Test CRC 5D46DBC6 Kopie CRC 5D46DBC6 Akkurat gelesen (Zuversicht 1) [08DD52C7] Kopie OK
Track 5
Dateiname D:\EAC\Martin Todsharow - 2006 - Elementarteilchen\05 - Sehnsucht, immer wieder.wav
Pausenlдnge 0:00:01.86
Spitzenpegel 76.3 % Track Qualitдt 100.0 % Test CRC 6DE5D3F0 Kopie CRC 6DE5D3F0 Kann nicht als akkurat verifiziert werden (Zuversicht 1) [F51079F0], AccurateRip lieferte [BCAA03C4] Kopie OK
Track 6
Dateiname D:\EAC\Martin Todsharow - 2006 - Elementarteilchen\06 - Schцne Tiere.wav
Pausenlдnge 0:00:01.86
Spitzenpegel 91.6 % Track Qualitдt 100.0 % Test CRC E1ABD0DE Kopie CRC E1ABD0DE Akkurat gelesen (Zuversicht 1) [09F87DBC] Kopie OK
Track 7
Dateiname D:\EAC\Martin Todsharow - 2006 - Elementarteilchen\07 - Suche nach Sinn.wav
Pausenlдnge 0:00:01.86
Spitzenpegel 79.1 % Track Qualitдt 100.0 % Test CRC F1248C89 Kopie CRC F1248C89 Akkurat gelesen (Zuversicht 1) [0D9C1EDD] Kopie OK
Track 8
Dateiname D:\EAC\Martin Todsharow - 2006 - Elementarteilchen\08 - Zwei Brьder, zwei Welten.wav
Pausenlдnge 0:00:01.86
Spitzenpegel 97.2 % Track Qualitдt 100.0 % Test CRC 53D29D50 Kopie CRC 53D29D50 Akkurat gelesen (Zuversicht 1) [F8F5FBB3] Kopie OK
Track 9
Dateiname D:\EAC\Martin Todsharow - 2006 - Elementarteilchen\09 - Wunderbare Jugend.wav
Pausenlдnge 0:00:01.86
Spitzenpegel 96.9 % Track Qualitдt 100.0 % Test CRC 1D3E1478 Kopie CRC 1D3E1478 Akkurat gelesen (Zuversicht 1) [695E0D03] Kopie OK
Track 10
Dateiname D:\EAC\Martin Todsharow - 2006 - Elementarteilchen\10 - Wiederkehr.wav
Pausenlдnge 0:00:01.86
Spitzenpegel 91.7 % Track Qualitдt 100.0 % Test CRC C56AF0A0 Kopie CRC C56AF0A0 Akkurat gelesen (Zuversicht 1) [C429B902] Kopie OK
Track 11
Dateiname D:\EAC\Martin Todsharow - 2006 - Elementarteilchen\11 - Amor und Psyche.wav
Pausenlдnge 0:00:01.86
Spitzenpegel 96.1 % Track Qualitдt 99.9 % Test CRC 6329A928 Kopie CRC 6329A928 Akkurat gelesen (Zuversicht 1) [B937FA89] Kopie OK
Track 12
Dateiname D:\EAC\Martin Todsharow - 2006 - Elementarteilchen\12 - Abschied.wav
Pausenlдnge 0:00:01.86
Spitzenpegel 97.7 % Track Qualitдt 100.0 % Test CRC 73980686 Kopie CRC 73980686 Kann nicht als akkurat verifiziert werden (Zuversicht 1) [8382CEC1], AccurateRip lieferte [B649CADA] Kopie OK
Track 13
Dateiname D:\EAC\Martin Todsharow - 2006 - Elementarteilchen\13 - Annabelles Atmen.wav
Pausenlдnge 0:00:01.86
Spitzenpegel 81.1 % Track Qualitдt 100.0 % Test CRC 6547A67E Kopie CRC 6547A67E Akkurat gelesen (Zuversicht 1) [DE22DF81] Kopie OK
Track 14
Dateiname D:\EAC\Martin Todsharow - 2006 - Elementarteilchen\14 - Weg der Erkenntnis.wav
Pausenlдnge 0:00:01.86
Spitzenpegel 78.1 % Track Qualitдt 100.0 % Test CRC D7B1DB46 Kopie CRC D7B1DB46 Akkurat gelesen (Zuversicht 1) [1BB5E859] Kopie OK
Track 15
Dateiname D:\EAC\Martin Todsharow - 2006 - Elementarteilchen\15 - Ort der Wandlung.wav
Pausenlдnge 0:00:01.86
Spitzenpegel 92.6 % Track Qualitдt 100.0 % Test CRC 194E46CA Kopie CRC 194E46CA Akkurat gelesen (Zuversicht 1) [35FE9D8C] Kopie OK
Track 16
Dateiname D:\EAC\Martin Todsharow - 2006 - Elementarteilchen\16 - Hoffnung auf Nдhe.wav
Pausenlдnge 0:00:01.86
Spitzenpegel 87.2 % Track Qualitдt 99.8 % Test CRC BE577A22 Kopie CRC BE577A22 Akkurat gelesen (Zuversicht 1) [07921030] Kopie OK
Track 17
Dateiname D:\EAC\Martin Todsharow - 2006 - Elementarteilchen\17 - Elementarteilchen.wav
Pausenlдnge 0:00:01.86
Spitzenpegel 97.7 % Track Qualitдt 100.0 % Test CRC DB2A7ED9 Kopie CRC DB2A7ED9 Akkurat gelesen (Zuversicht 1) [1E944BE6] Kopie OK
Track 18
Dateiname D:\EAC\Martin Todsharow - 2006 - Elementarteilchen\18 - Christianes Ausweg.wav
Pausenlдnge 0:00:01.86
Spitzenpegel 91.2 % Track Qualitдt 100.0 % Test CRC 4E9AF00E Kopie CRC 4E9AF00E Akkurat gelesen (Zuversicht 1) [6C990941] Kopie OK
Track 19
Dateiname D:\EAC\Martin Todsharow - 2006 - Elementarteilchen\19 - Suche nach Halt.wav
Pausenlдnge 0:00:01.86
Spitzenpegel 68.2 % Track Qualitдt 100.0 % Test CRC 37DCCCC5 Kopie CRC 37DCCCC5 Akkurat gelesen (Zuversicht 1) [60AD2AB3] Kopie OK
Track 20
Dateiname D:\EAC\Martin Todsharow - 2006 - Elementarteilchen\20 - Brunos Ausweg.wav
Pausenlдnge 0:00:01.86
Spitzenpegel 79.6 % Track Qualitдt 99.9 % Test CRC ED9CF109 Kopie CRC ED9CF109 Akkurat gelesen (Zuversicht 1) [6E0C9220] Kopie OK
18 Track(s) akkurat gelesen 2 Track(s) nicht als akkurat verifiziert
Einige Tracks konnten nicht als akkurat verifiziert werden
Keine Fehler aufgetreten
Ende des Statusreports

Содержание индексной карты (.CUE)

REM GENRE SoundtrackREM DATE 2006REM DISCID FD08D014REM COMMENT "ExactAudioCopy v0.99pb5"FILE "01 - Elementarteilchen.wav" WAVE TRACK 01 AUDIO INDEX 01 00:00:00 TRACK 02 AUDIO INDEX 00 00:58:38FILE "02 - Ewige Versuchung.wav" WAVE INDEX 01 00:00:00 TRACK 03 AUDIO INDEX 00 01:13:43FILE "03 - Annabelles Briefe.wav" WAVE INDEX 01 00:00:00 TRACK 04 AUDIO INDEX 00 01:54:56FILE "04 - Schlaflied.wav" WAVE INDEX 01 00:00:00 TRACK 05 AUDIO INDEX 00 00:45:45FILE "05 - Sehnsucht, immer wieder.wav" WAVE INDEX 01 00:00:00 TRACK 06 AUDIO INDEX 00 00:57:40FILE "06 - Schцne Tiere.wav" WAVE INDEX 01 00:00:00 TRACK 07 AUDIO INDEX 00 02:09:44FILE "07 - Suche nach Sinn.wav" WAVE INDEX 01 00:00:00 TRACK 08 AUDIO INDEX 00 02:42:65FILE "08 - Zwei Brьder, zwei Welten.wav" WAVE INDEX 01 00:00:00 TRACK 09 AUDIO INDEX 00 01:31:14FILE "09 - Wunderbare Jugend.wav" WAVE INDEX 01 00:00:00 TRACK 10 AUDIO INDEX 00 00:59:57FILE "10 - Wiederkehr.wav" WAVE INDEX 01 00:00:00 TRACK 11 AUDIO INDEX 00 01:31:00FILE "11 - Amor und Psyche.wav" WAVE INDEX 01 00:00:00 TRACK 12 AUDIO INDEX 00 03:24:25FILE "12 - Abschied.wav" WAVE INDEX 01 00:00:00 TRACK 13 AUDIO INDEX 00 01:16:52FILE "13 - Annabelles Atmen.wav" WAVE INDEX 01 00:00:00 TRACK 14 AUDIO INDEX 00 01:23:48FILE "14 - Weg der Erkenntnis.wav" WAVE INDEX 01 00:00:00 TRACK 15 AUDIO INDEX 00 01:33:27FILE "15 - Ort der Wandlung.wav" WAVE INDEX 01 00:00:00 TRACK 16 AUDIO INDEX 00 01:33:11FILE "16 - Hoffnung auf Nдhe.wav" WAVE INDEX 01 00:00:00 TRACK 17 AUDIO INDEX 00 01:25:09FILE "17 - Elementarteilchen.wav" WAVE INDEX 01 00:00:00 TRACK 18 AUDIO INDEX 00 02:05:32FILE "18 - Christianes Ausweg.wav" WAVE INDEX 01 00:00:00 TRACK 19 AUDIO INDEX 00 04:55:07FILE "19 - Suche nach Halt.wav" WAVE INDEX 01 00:00:00 TRACK 20 AUDIO INDEX 00 01:54:20FILE "20 - Brunos Ausweg.wav" WAVE INDEX 01 00:00:00
[teatrix.ru].t10409.torrent 
Торрент: Зарегистрирован [ 2015-11-01 20:51 ] · FF4DF96A0E6FE9FD5748A9D323C5D7FECD464AFD

Скачать .torrent

Скачать

16 KB

Статус: проверено
Скачан: 0 раз
Размер: 182 MB
terms.php



Быстрый ответ

Имя:

      
Для отправки сообщений необходимо включить JavaScript
Показать сообщения:    

Текущее время: 06-Дек 18:58

Часовой пояс: UTC + 3


Вы можете начинать темы
Вы можете отвечать на сообщения
Вы не можете редактировать свои сообщения
Вы не можете удалять свои сообщения
Вы не можете голосовать в опросах
Вы не можете прикреплять файлы к сообщениям
Вы можете скачивать файлы