(Score) [WEB] Великий уравнитель / The Equalizer (by Harry Gregson-Williams) - 2014, FLAC (tracks), lossless


Статистика раздачи [Обновить пиров]
Размер:  248 MB   |    Зарегистрирован:  1 год 1 месяц   |    Скачан:  1 раз

Полного источника не было: 3 дня

Личеров:  1  [  0 KB/s  ]   Подробная статистика пиров
 
   
 
 
 

[Цитировать]

ВЕЛИКИЙ УРАВНИТЕЛЬ- Название альбома: The Equalizer (Original Motion Picture Soundtrack)
Жанр: Score
Композитор: Harry Gregson-Williams
Год выпуска диска: 2014
Год выпуска фильма: 2014
Страна: US
Издатель (лейбл): Varèse Sarabande
Аудиокодек: FLAC (*.flac)
Тип рипа: tracks
Битрейт аудио: lossless
Продолжительность: 00:51:44
Источник: Qobuz
Наличие сканов: Front-
01. Alone (4:10)
02. Change Your World (4:09)
03. Mc Call's Decision (4:10)
04. On a Mission (3:53)
05. Corrupt Cops (2:49)
06. A Quiet Voice (3:39)
07. It's All a Lie (10:36)
08. Concerned Citizen (2:44)
09. Make an Exception (5:10)
10. Torturing Frank (3:44)
11. The Equalizer (6:39)-Отчёты

Лог проверки качества

-----------------------
DON'T MODIFY THIS FILE
-----------------------
PERFORMER: auCDtect Task Manager, ver. 1.6.0 RC1 build 1.6.0.1Copyright (c) 2008-2010 y-soft. All rights reservedhttp://y-soft.org
ANALYZER: auCDtect: CD records authenticity detector, version 0.8.2Copyright (c) 2004 Oleg Berngardt. All rights reserved.Copyright (c) 2004 Alexander Djourik. All rights reserved.
FILE: 11. The Equalizer.flac Size: 38615692 Hash: 0C7591FB234A737016D51D7D9C295FF3 Accuracy: -m0 Conclusion: CDDA 100% Signature: C5E616A80BE9336C559C15750F1EA85E99AADEE0FILE: 10. Torturing Frank.flac Size: 18902257 Hash: 74BB70097A597DE2A254DF9ECAEBA79A Accuracy: -m0 Conclusion: CDDA 100% Signature: B09EF9FC529D69A57E5AF3DC45EC3C0412BC9CEDFILE: 09. Make an Exception.flac Size: 26415521 Hash: 7FAE9C3A53CCAC375150141CAE26832C Accuracy: -m0 Conclusion: CDDA 100% Signature: 205D2D713C143F7719259F1CC072490EB6D9B78CFILE: 08. Concerned Citizen.flac Size: 13930335 Hash: A543CC61E4B8A24844398DB70CF6C0CB Accuracy: -m0 Conclusion: CDDA 100% Signature: 8BC34921743863B100E35C742EF8A1D6B3518196FILE: 07. It's All a Lie.flac Size: 56303265 Hash: 342EB1ECCA9EF8B6C6584CCDBFA6C300 Accuracy: -m0 Conclusion: CDDA 100% Signature: 7B8C530EB695AAA28E460D12B17C53A04A3FCFBEFILE: 06. A Quiet Voice.flac Size: 16599869 Hash: 5BCFA89E28FAACA0BC088B4B916BF44D Accuracy: -m0 Conclusion: CDDA 100% Signature: 907E21791C8D15D40EC98209EC55E54D6BB82263FILE: 05. Corrupt Cops.flac Size: 12986224 Hash: 4AAFD942AE9AE828F78CFAEFBA290577 Accuracy: -m0 Conclusion: CDDA 100% Signature: E98A029357505CA93974215592BE1153B675B268FILE: 04. On a Mission.flac Size: 18321102 Hash: 91EB3A2AD2D95989C43D097F63B506D0 Accuracy: -m0 Conclusion: CDDA 100% Signature: 252CB6ADEFB5F42950B008CFE45E5342860FBA72FILE: 03. Mc Call's Decision.flac Size: 19862912 Hash: 1006F95366372835D37326CC29942360 Accuracy: -m0 Conclusion: CDDA 100% Signature: B6569AD6BF316517868BD6270BC5EF3DEFE2DE78FILE: 02. Change Your World.flac Size: 18235280 Hash: B22D5815CC1A9BBA1E8C1E5D49ECE97C Accuracy: -m0 Conclusion: CDDA 99% Signature: D0B0DFFC7236D8A45A1CBF3003B29D52C918EA21FILE: 01. Alone.flac Size: 20260847 Hash: 8FE14D55EF55ADF24490C73F0C3D898C Accuracy: -m0 Conclusion: CDDA 100% Signature: B23C78E7934DFD82517213C62DA9DCECC128A293

Динамический диапазон

foobar2000 1.2.2 / Замер динамического диапазона (DR) 1.1.1Дата отчёта: 2014-10-03 20:37:11
--------------------------------------------------------------------------------Анализ: Harry Gregson-Williams / The Equalizer (Original Motion Picture Soundtrack)--------------------------------------------------------------------------------
DR Пики RMS Продолжительность трека--------------------------------------------------------------------------------DR11 -0.24 дБ -13.81 дБ 4:10 ?-AloneDR11 -0.49 дБ -16.89 дБ 4:09 ?-Change Your WorldDR9 -0.45 дБ -13.82 дБ 4:10 ?-Mc Call's DecisionDR9 -0.50 дБ -12.63 дБ 3:53 ?-On a MissionDR9 -0.50 дБ -13.33 дБ 2:49 ?-Corrupt CopsDR10 -0.50 дБ -14.25 дБ 3:39 ?-A Quiet VoiceDR7 -0.50 дБ -10.95 дБ 10:36 ?-It's All a LieDR7 -0.42 дБ -11.46 дБ 2:44 ?-Concerned CitizenDR8 -0.50 дБ -11.25 дБ 5:10 ?-Make an ExceptionDR8 -0.50 дБ -11.55 дБ 3:44 ?-Torturing FrankDR6 -0.50 дБ -9.51 дБ 6:39 ?-The Equalizer--------------------------------------------------------------------------------
Количество треков: 11Реальные значения DR: DR9
Частота: 44100 ГцКаналов: 2Разрядность: 16Битрейт: 772 кбит/сКодек: FLAC================================================================================

Скриншот спектра частот

Доп. информация

Релиз полностью готов к воспроизведению в аудиоплеере (я ориентировался на foobar2000)При скачивании, если необходимо, переименуйте папку, в которой будет находиться альбомБольшая просьба к скачавшим поддерживать раздачу! Помогайте другим, ведь вам тоже может понадобиться помощь!Не забываем говорить "Спасибо"!Комментарии приветствуются!
[teatrix.ru].t10410.torrent 
Торрент: Зарегистрирован [ 2015-11-01 20:51 ] · BCF29BF5907AD93FFE4526FCEE05AC0CD4327B96

Скачать .torrent

Скачать

21 KB

Статус: проверено
Скачан: 1 раз
Размер: 248 MB
terms.php



Быстрый ответ

Имя:

      
Для отправки сообщений необходимо включить JavaScript
Показать сообщения:    

Текущее время: 10-Дек 17:42

Часовой пояс: UTC + 3


Вы можете начинать темы
Вы можете отвечать на сообщения
Вы не можете редактировать свои сообщения
Вы не можете удалять свои сообщения
Вы не можете голосовать в опросах
Вы не можете прикреплять файлы к сообщениям
Вы можете скачивать файлы