(Soundtrack) Various Artists (Movie Themes Go Disco!) (VA) - 2010, FLAC (image+.cue), lossless


Статистика раздачи [Обновить пиров]
Размер:  450 MB   |    Зарегистрирован:  1 год 1 месяц   |    Скачан:  0 раз

Полного источника не было: Никогда

Личеров:  1  [  0 KB/s  ]   Подробная статистика пиров
 
   
 
 
 

[Цитировать]

Various Artists - Movie Themes Go Disco!
Название альбома: Movie Themes Go Disco!
Жанр: Soundtrack
Композитор: VA
Год выпуска диска: 2010
Страна-производитель диска: EU
Издатель (лейбл): Universal Nusic Group
Номер по каталогу: 06007 5325446
Аудиокодек: FLAC (*.flac)
Тип рипа: image+.cue
Битрейт аудио: lossless
Продолжительность: 01:05:47
Источник: скачано с
сайт-источник/ник/другое: NNM Club (Pashketan ®)
Наличие сканов в содержимом раздачи: да
Треклист:
1 – Meco - Star Wars Theme / Cantina Band 3:45
2 – Love Unlimited Orchestra, The - Theme From King Kong 8:06
3 – Meco - The Empire Strikes Back (Medley) 4:03
4 – Galactic Light Orchestra - Also Sprach Zarathustra 3:53
5 – Meco - Theme From The Black Hole 3:39
6 – Rhythm Heritage - Three Days Of The Condor 3:10
7 – Philharmonic 2000 - Moonshine 3:26
8 – Meco - Love Theme From Star Trek 3:34
9 – Love Unlimited Orchestra, The - Theme From Superman 5:54
10 – Lalo Schifrin - Bolero 3:36
11 – Rhythm Heritage b- Theme From Lipstick 3:31
12 – Giorgio Moroder - Battlestar Galactica (Medley) 16:20
13 – Meco - Theme From Close Encounters 3:01

Лог создания рипа

Exact Audio Copy V1.0 beta 3 from 29. August 2011
Отчёт EAC об извлечении, выполненном 31. августа 2013, 21:53
Various / Jazzclub: Movie Themes Go Disco!
Дисковод: ASUS DRW-22B2ST Adapter: 2 ID: 1
Режим чтения : ДостоверностьИспользование точного потока : ДаОтключение кэша аудио : ДаИспользование указателей C2 : Нет
Коррекция смещения при чтении : 6Способность читать области Lead-in и Lead-out : НетЗаполнение пропущенных сэмплов тишиной : ДаУдаление блоков с тишиной в начале и конце : НетПри вычислениях CRC использовались нулевые сэмплы : ДаИнтерфейс : Установленный внешний ASPI-интерфейс
Выходной формат : Внутренние WAV-операцииФормат сэмплов : 44.100 Гц; 16 бит; стерео
TOC извлечённого CD
Трек | Старт | Длительность | Начальный сектор | Конечный сектор --------------------------------------------------------------------- 1 | 0:00.00 | 3:46.31 | 0 | 16980 2 | 3:46.31 | 8:06.58 | 16981 | 53488 3 | 11:53.14 | 4:03.71 | 53489 | 71784 4 | 15:57.10 | 3:53.59 | 71785 | 89318 5 | 19:50.69 | 3:39.20 | 89319 | 105763 6 | 23:30.14 | 3:11.48 | 105764 | 120136 7 | 26:41.62 | 3:28.00 | 120137 | 135736 8 | 30:09.62 | 3:33.71 | 135737 | 151782 9 | 33:43.58 | 5:55.48 | 151783 | 178455 10 | 39:39.31 | 3:27.11 | 178456 | 193991 11 | 43:06.42 | 3:32.08 | 193992 | 209899 12 | 46:38.50 | 16:21.66 | 209900 | 283540 13 | 63:00.41 | 3:01.20 | 283541 | 297135
Характеристики диапазона извлечения и сообщения об ошибках
Выбранный диапазон
Имя файла E:\MP3Files\МУЗ РАБОЧИЙ\EAC\WAV\Various - Jazzclub- Movie Themes Go Disco!.wav
Пиковый уровень 98.8 % Скорость извлечения 6.2 X Качество диапазона 100.0 % CRC теста 70B10AC2 CRC копии 70B10AC2 Копирование... OK
Ошибок не произошло
AccurateRip: сводка
Трек 1 : извлечено точно (доверие 7) [CEBB2A3D] (AR v2)Трек 2 : извлечено точно (доверие 7) [481E78FD] (AR v2)Трек 3 : извлечено точно (доверие 7) [9DE5FFA2] (AR v2)Трек 4 : извлечено точно (доверие 7) [2FF679F2] (AR v2)Трек 5 : извлечено точно (доверие 7) [C2045832] (AR v2)Трек 6 : извлечено точно (доверие 7) [A8241AF9] (AR v2)Трек 7 : извлечено точно (доверие 7) [58FAFBC2] (AR v2)Трек 8 : извлечено точно (доверие 7) [13E98DC0] (AR v2)Трек 9 : извлечено точно (доверие 7) [ECF4097D] (AR v2)Трек 10 : извлечено точно (доверие 7) [40441268] (AR v2)Трек 11 : извлечено точно (доверие 7) [60D1F497] (AR v2)Трек 12 : извлечено точно (доверие 7) [523CA81E] (AR v2)Трек 13 : извлечено точно (доверие 7) [370BE846] (AR v2)
Все треки извлечены точно
Конец отчёта
==== Контрольная сумма отчёта 1446E16E9641D8DA74AB568E6174AE8AC4034C01AAFAC1235F12DFBC0456644B ====

Содержание индексной карты (.CUE)

REM GENRE InstrumentalREM DATE 2010REM DISCID A80F790DREM COMMENTPERFORMER "Various"TITLE "Movie Themes Go Disco! "FILE "Various - Movie Themes Go Disco!.flac" WAVE TRACK 01 AUDIO TITLE "Star Wars Theme / Cantina Band" PERFORMER "Meco" INDEX 01 00:00:00 TRACK 02 AUDIO TITLE "Theme From ''King Kong''" PERFORMER "The Love Unlimited Orchestra" INDEX 00 03:45:06 INDEX 01 03:46:31 TRACK 03 AUDIO TITLE "The Empire Strikes Back (Medley)" PERFORMER "Meco" INDEX 00 11:52:15 INDEX 01 11:53:14 TRACK 04 AUDIO TITLE "Also Sprach Zarathustra" PERFORMER "Galactic Light Orchestra" INDEX 00 15:56:20 INDEX 01 15:57:10 TRACK 05 AUDIO TITLE "Theme From ''The Black Hole''" PERFORMER "Meco" INDEX 00 19:50:08 INDEX 01 19:50:69 TRACK 06 AUDIO TITLE "Three Days Of The Condor" PERFORMER "Rhythm Heritage" INDEX 01 23:30:14 TRACK 07 AUDIO TITLE "Moonshine" PERFORMER "Philharmonic 2000" INDEX 00 26:40:51 INDEX 01 26:41:62 TRACK 08 AUDIO TITLE "Love Theme From ''Star Trek''" PERFORMER "Meco" INDEX 00 30:08:22 INDEX 01 30:09:62 TRACK 09 AUDIO TITLE "Theme From ''Superman''" PERFORMER "The Love Unlimited Orchestra" INDEX 00 33:42:59 INDEX 01 33:43:58 TRACK 10 AUDIO TITLE "Bolero" PERFORMER "Lalo Schifrin" INDEX 00 39:38:14 INDEX 01 39:39:31 TRACK 11 AUDIO TITLE "Theme From ''Lipstick''" PERFORMER "Rhythm Heritage" INDEX 00 43:05:18 INDEX 01 43:06:42 TRACK 12 AUDIO TITLE "Battlestar Galactica (Medley)" PERFORMER "Giorgio Moroder" INDEX 00 46:37:34 INDEX 01 46:38:50 TRACK 13 AUDIO TITLE "Theme From ''Close Encounters''" PERFORMER "Meco" INDEX 00 62:59:13 INDEX 01 63:00:41
[teatrix.ru].t10411.torrent 
Торрент: Зарегистрирован [ 2015-11-01 20:51 ] · 116892067796806CD816763D01F839F87D214ECD

Скачать .torrent

Скачать

19 KB

Статус: проверено
Скачан: 0 раз
Размер: 450 MB
terms.php



Быстрый ответ

Имя:

      
Для отправки сообщений необходимо включить JavaScript
Показать сообщения:    

Текущее время: 06-Дек 22:47

Часовой пояс: UTC + 3


Вы можете начинать темы
Вы можете отвечать на сообщения
Вы не можете редактировать свои сообщения
Вы не можете удалять свои сообщения
Вы не можете голосовать в опросах
Вы не можете прикреплять файлы к сообщениям
Вы можете скачивать файлы