(Score) Тайны Смолвиля / Smallville [2CD Deluxe Edition] (Mark Snow & Louis Febre) - 2012, FLAC (tracks+.cue), lossless


Статистика раздачи [Обновить пиров]
Размер:  815 MB   |    Зарегистрирован:  1 год 1 месяц   |    Скачан:  1 раз

Полного источника не было: 15 дней

Личеров:  1  [  0 KB/s  ]   Подробная статистика пиров
 
   
 
 
 

[Цитировать]

Score [2CD Deluxe Edition]Score / SoundtrackЖанр: ScoreСтрана: USAГод издания: 2012Аудио кодек: FLAC (tracks+.cue)
Битрейт аудио: losslessИсточник (релизер): what.cdПродолжительность: 02:23:05
-

2012 - Mark Snow & Louis Febre [La-La Land LLLCD 1216] CD1 - 28 / 70:34

Music By Mark Snow
01. Grow Up Superboy (01:44)
02. Webmaster (01:11)
03. The Setup (03:16)
04. Where Am I (02:40)
05. Burn Baby Burn (03:31)
06. Freaks (05:18)
07. The Final Stone (04:10)
08. Their Only Poison (02:13)
09. Demon Dad (03:04)
10. Crash Landing (04:17)
11. Rigged to Blow (03:03)
Music By Louis Febre
12. Green Arrow (01:42)
13. Defeating Bizarro (02:41)
14. The Fortress Falls (01:38)
15. Lois’ Waltz (02:03)
16. Zatanna (02:02)
17. In the Rain (01:18)
18. Pandora’s Kiss (01:00)
19. A Hall of Heroes (02:26)
20. Supergirl Arrives (00:53)
21. Clark Tells Lois (02:29)
22. The Proposal (03:47)
23. To Fly (01:55)
24. Disguise Needed (03:31)
25. A Lemur in the Room (01:19)
26. Booster Gold (01:49)
27. Zod’s Demise (02:10)
28. Trials (03:09)

Лог создания рипа

Exact Audio Copy V1.0 beta 3 from 29. August 2011
EAC extraction logfile from 5. September 2012, 17:28
Mark Snow & Louis Febre / Smallville
Used drive : TSSTcorpCDDVDW SH-S203B Adapter: 5 ID: 0
Read mode : SecureUtilize accurate stream : YesDefeat audio cache : YesMake use of C2 pointers : No
Read offset correction : 6Overread into Lead-In and Lead-Out : NoFill up missing offset samples with silence : YesDelete leading and trailing silent blocks : NoNull samples used in CRC calculations : YesUsed interface : Native Win32 interface for Win NT & 2000Gap handling : Appended to previous track
Used output format : Internal WAV RoutinesSample format : 44.100 Hz; 16 Bit; Stereo
TOC of the extracted CD
Track | Start | Length | Start sector | End sector --------------------------------------------------------- 1 | 0:00.00 | 1:44.36 | 0 | 7835 2 | 1:44.36 | 1:11.18 | 7836 | 13178 3 | 2:55.54 | 3:16.68 | 13179 | 27946 4 | 6:12.47 | 2:40.72 | 27947 | 40018 5 | 8:53.44 | 3:31.45 | 40019 | 55888 6 | 12:25.14 | 5:18.57 | 55889 | 79795 7 | 17:43.71 | 4:10.09 | 79796 | 98554 8 | 21:54.05 | 2:13.69 | 98555 | 108598 9 | 24:07.74 | 3:04.26 | 108599 | 122424 10 | 27:12.25 | 4:17.26 | 122425 | 141725 11 | 31:29.51 | 3:03.35 | 141726 | 155485 12 | 34:33.11 | 1:42.61 | 155486 | 163196 13 | 36:15.72 | 2:41.30 | 163197 | 175301 14 | 38:57.27 | 1:38.10 | 175302 | 182661 15 | 40:35.37 | 2:03.73 | 182662 | 191959 16 | 42:39.35 | 2:02.59 | 191960 | 201168 17 | 44:42.19 | 1:18.22 | 201169 | 207040 18 | 46:00.41 | 1:00.43 | 207041 | 211583 19 | 47:01.09 | 2:26.25 | 211584 | 222558 20 | 49:27.34 | 0:53.43 | 222559 | 226576 21 | 50:21.02 | 2:29.74 | 226577 | 237825 22 | 52:51.01 | 3:47.53 | 237826 | 254903 23 | 56:38.54 | 1:55.11 | 254904 | 263539 24 | 58:33.65 | 3:31.72 | 263540 | 279436 25 | 62:05.62 | 1:19.35 | 279437 | 285396 26 | 63:25.22 | 1:49.73 | 285397 | 293644 27 | 65:15.20 | 2:10.00 | 293645 | 303394 28 | 67:25.20 | 3:09.28 | 303395 | 317597
Track 1
Filename E:\Music\EAC\Extraction\01 - Grow Up Superboy.wav
Pre-gap length 0:00:02.00
Peak level 66.3 % Extraction speed 2.3 X Track quality 100.0 % Test CRC E856242E Copy CRC E856242E Track not present in AccurateRip database Copy OK
Track 2
Filename E:\Music\EAC\Extraction\02 - Webmaster.wav
Pre-gap length 0:00:02.00
Peak level 95.8 % Extraction speed 2.1 X Track quality 100.0 % Test CRC 6C85BA40 Copy CRC 6C85BA40 Track not present in AccurateRip database Copy OK
Track 3
Filename E:\Music\EAC\Extraction\03 - The Setup.wav
Pre-gap length 0:00:02.00
Peak level 97.8 % Extraction speed 2.9 X Track quality 100.0 % Test CRC F671C127 Copy CRC F671C127 Track not present in AccurateRip database Copy OK
Track 4
Filename E:\Music\EAC\Extraction\04 - Where Am I.wav
Pre-gap length 0:00:02.00
Peak level 94.1 % Extraction speed 3.0 X Track quality 100.0 % Test CRC 13EEC537 Copy CRC 13EEC537 Track not present in AccurateRip database Copy OK
Track 5
Filename E:\Music\EAC\Extraction\05 - Burn Baby Burn.wav
Pre-gap length 0:00:02.00
Peak level 95.7 % Extraction speed 3.3 X Track quality 100.0 % Test CRC 5A4CE5D7 Copy CRC 5A4CE5D7 Track not present in AccurateRip database Copy OK
Track 6
Filename E:\Music\EAC\Extraction\06 - Freaks.wav
Pre-gap length 0:00:02.00
Peak level 96.5 % Extraction speed 3.8 X Track quality 100.0 % Test CRC 99209833 Copy CRC 99209833 Track not present in AccurateRip database Copy OK
Track 7
Filename E:\Music\EAC\Extraction\07 - The Final Stone.wav
Pre-gap length 0:00:02.00
Peak level 99.9 % Extraction speed 3.9 X Track quality 100.0 % Test CRC 6A87FABD Copy CRC 6A87FABD Track not present in AccurateRip database Copy OK
Track 8
Filename E:\Music\EAC\Extraction\08 - Their Only Poison.wav
Pre-gap length 0:00:02.00
Peak level 96.6 % Extraction speed 3.6 X Track quality 100.0 % Test CRC 502B45FE Copy CRC 502B45FE Track not present in AccurateRip database Copy OK
Track 9
Filename E:\Music\EAC\Extraction\09 - Demon Dad.wav
Pre-gap length 0:00:02.00
Peak level 90.8 % Extraction speed 4.0 X Track quality 100.0 % Test CRC 94CAB541 Copy CRC 94CAB541 Track not present in AccurateRip database Copy OK
Track 10
Filename E:\Music\EAC\Extraction\10 - Crash Landing.wav
Pre-gap length 0:00:02.00
Peak level 99.8 % Extraction speed 4.4 X Track quality 100.0 % Test CRC 47C2B7D5 Copy CRC 47C2B7D5 Track not present in AccurateRip database Copy OK
Track 11
Filename E:\Music\EAC\Extraction\11 - Rigged to Blow.wav
Pre-gap length 0:00:02.00
Peak level 96.6 % Extraction speed 4.3 X Track quality 100.0 % Test CRC CB8024E0 Copy CRC CB8024E0 Track not present in AccurateRip database Copy OK
Track 12
Filename E:\Music\EAC\Extraction\12 - Green Arrow.wav
Pre-gap length 0:00:02.00
Peak level 99.6 % Extraction speed 3.9 X Track quality 100.0 % Test CRC 6BF50FC2 Copy CRC 6BF50FC2 Track not present in AccurateRip database Copy OK
Track 13
Filename E:\Music\EAC\Extraction\13 - Defeating Bizarro.wav
Pre-gap length 0:00:02.00
Peak level 96.6 % Extraction speed 3.7 X Track quality 100.0 % Test CRC 8CF685DA Copy CRC 8CF685DA Track not present in AccurateRip database Copy OK
Track 14
Filename E:\Music\EAC\Extraction\14 - The Fortress Falls.wav
Pre-gap length 0:00:02.00
Peak level 99.9 % Extraction speed 3.9 X Track quality 100.0 % Test CRC 0279809B Copy CRC 0279809B Track not present in AccurateRip database Copy OK
Track 15
Filename E:\Music\EAC\Extraction\15 - Lois’ Waltz.wav
Pre-gap length 0:00:02.00
Peak level 80.2 % Extraction speed 4.3 X Track quality 100.0 % Test CRC AFA467F3 Copy CRC AFA467F3 Track not present in AccurateRip database Copy OK
Track 16
Filename E:\Music\EAC\Extraction\16 - Zatanna.wav
Pre-gap length 0:00:02.00
Peak level 98.3 % Extraction speed 4.3 X Track quality 100.0 % Test CRC F3AD12DB Copy CRC F3AD12DB Track not present in AccurateRip database Copy OK
Track 17
Filename E:\Music\EAC\Extraction\17 - In the Rain.wav
Pre-gap length 0:00:02.00
Peak level 71.9 % Extraction speed 3.8 X Track quality 100.0 % Test CRC 20F55A18 Copy CRC 20F55A18 Track not present in AccurateRip database Copy OK
Track 18
Filename E:\Music\EAC\Extraction\18 - Pandora’s Kiss.wav
Pre-gap length 0:00:02.00
Peak level 48.6 % Extraction speed 3.5 X Track quality 100.0 % Test CRC C5F918F4 Copy CRC C5F918F4 Track not present in AccurateRip database Copy OK
Track 19
Filename E:\Music\EAC\Extraction\19 - A Hall of Heroes.wav
Pre-gap length 0:00:02.00
Peak level 96.6 % Extraction speed 4.7 X Track quality 100.0 % Test CRC D99802F1 Copy CRC D99802F1 Track not present in AccurateRip database Copy OK
Track 20
Filename E:\Music\EAC\Extraction\20 - Supergirl Arrives.wav
Pre-gap length 0:00:02.00
Peak level 99.9 % Extraction speed 3.4 X Track quality 100.0 % Test CRC 4AB1C616 Copy CRC 4AB1C616 Track not present in AccurateRip database Copy OK
Track 21
Filename E:\Music\EAC\Extraction\21 - Clark Tells Lois.wav
Pre-gap length 0:00:02.00
Peak level 96.5 % Extraction speed 4.8 X Track quality 100.0 % Test CRC 56B050D3 Copy CRC 56B050D3 Track not present in AccurateRip database Copy OK
Track 22
Filename E:\Music\EAC\Extraction\22 - The Proposal.wav
Pre-gap length 0:00:02.00
Peak level 91.5 % Extraction speed 4.6 X Track quality 99.9 % Test CRC 4E666106 Copy CRC 4E666106 Track not present in AccurateRip database Copy OK
Track 23
Filename E:\Music\EAC\Extraction\23 - To Fly.wav
Pre-gap length 0:00:02.00
Peak level 95.7 % Extraction speed 4.7 X Track quality 100.0 % Test CRC 7FA4D44F Copy CRC 7FA4D44F Track not present in AccurateRip database Copy OK
Track 24
Filename E:\Music\EAC\Extraction\24 - Disguise Needed.wav
Pre-gap length 0:00:02.00
Peak level 96.6 % Extraction speed 5.4 X Track quality 100.0 % Test CRC D1F4E8CB Copy CRC D1F4E8CB Track not present in AccurateRip database Copy OK
Track 25
Filename E:\Music\EAC\Extraction\25 - A Lemur in the Room.wav
Pre-gap length 0:00:02.00
Peak level 98.9 % Extraction speed 4.4 X Track quality 100.0 % Test CRC AF04FA53 Copy CRC AF04FA53 Track not present in AccurateRip database Copy OK
Track 26
Filename E:\Music\EAC\Extraction\26 - Booster Gold.wav
Pre-gap length 0:00:02.00
Peak level 90.4 % Extraction speed 4.7 X Track quality 100.0 % Test CRC 422AC79D Copy CRC 422AC79D Track not present in AccurateRip database Copy OK
Track 27
Filename E:\Music\EAC\Extraction\27 - Zod’s Demise.wav
Pre-gap length 0:00:02.00
Peak level 99.9 % Extraction speed 5.1 X Track quality 100.0 % Test CRC DBD86156 Copy CRC DBD86156 Track not present in AccurateRip database Copy OK
Track 28
Filename E:\Music\EAC\Extraction\28 - Trials.wav
Pre-gap length 0:00:02.00
Peak level 99.0 % Extraction speed 5.6 X Track quality 100.0 % Test CRC A7EDC3F9 Copy CRC A7EDC3F9 Track not present in AccurateRip database Copy OK
None of the tracks are present in the AccurateRip database
No errors occurred
End of status report
---- CUETools DB Plugin V2.1.3
[CTDB TOCID: QSo1OF8Z_jzkxECRaJ9xl4jN1ZY-] disk not present in database, Submit result: QSo1OF8Z_jzkxECRaJ9xl4jN1ZY- has been uploaded
==== Log checksum 85A10CED5658782F9DCE3FA042D435B6D9F1C63E7ED4C75CEE14730EA73AA96D ====

Содержание индексной карты (.CUE)

REM GENRE SoundtrackREM DATE 2012REM DISCID 9F108A1CREM COMMENT "ExactAudioCopy v1.0b3"PERFORMER "Mark Snow & Louis Febre"TITLE "Smallville"FILE "01 - Grow Up Superboy.wav" WAVE TRACK 01 AUDIO TITLE "Grow Up Superboy" PERFORMER "Mark Snow & Louis Febre" FLAGS DCP INDEX 01 00:00:00 TRACK 02 AUDIO TITLE "Webmaster" PERFORMER "Mark Snow & Louis Febre" FLAGS DCP INDEX 00 01:42:36FILE "02 - Webmaster.wav" WAVE INDEX 01 00:00:00 TRACK 03 AUDIO TITLE "The Setup" PERFORMER "Mark Snow & Louis Febre" FLAGS DCP INDEX 00 01:09:18FILE "03 - The Setup.wav" WAVE INDEX 01 00:00:00 TRACK 04 AUDIO TITLE "Where Am I" PERFORMER "Mark Snow & Louis Febre" FLAGS DCP INDEX 00 03:14:68FILE "04 - Where Am I.wav" WAVE INDEX 01 00:00:00 TRACK 05 AUDIO TITLE "Burn Baby Burn" PERFORMER "Mark Snow & Louis Febre" FLAGS DCP INDEX 00 02:38:72FILE "05 - Burn Baby Burn.wav" WAVE INDEX 01 00:00:00 TRACK 06 AUDIO TITLE "Freaks" PERFORMER "Mark Snow & Louis Febre" FLAGS DCP INDEX 00 03:29:45FILE "06 - Freaks.wav" WAVE INDEX 01 00:00:00 TRACK 07 AUDIO TITLE "The Final Stone" PERFORMER "Mark Snow & Louis Febre" FLAGS DCP INDEX 00 05:16:57FILE "07 - The Final Stone.wav" WAVE INDEX 01 00:00:00 TRACK 08 AUDIO TITLE "Their Only Poison" PERFORMER "Mark Snow & Louis Febre" FLAGS DCP INDEX 00 04:08:09FILE "08 - Their Only Poison.wav" WAVE INDEX 01 00:00:00 TRACK 09 AUDIO TITLE "Demon Dad" PERFORMER "Mark Snow & Louis Febre" FLAGS DCP INDEX 00 02:11:69FILE "09 - Demon Dad.wav" WAVE INDEX 01 00:00:00 TRACK 10 AUDIO TITLE "Crash Landing" PERFORMER "Mark Snow & Louis Febre" FLAGS DCP INDEX 00 03:02:26FILE "10 - Crash Landing.wav" WAVE INDEX 01 00:00:00 TRACK 11 AUDIO TITLE "Rigged to Blow" PERFORMER "Mark Snow & Louis Febre" FLAGS DCP INDEX 00 04:15:26FILE "11 - Rigged to Blow.wav" WAVE INDEX 01 00:00:00 TRACK 12 AUDIO TITLE "Green Arrow" PERFORMER "Mark Snow & Louis Febre" FLAGS DCP INDEX 00 03:01:35FILE "12 - Green Arrow.wav" WAVE INDEX 01 00:00:00 TRACK 13 AUDIO TITLE "Defeating Bizarro" PERFORMER "Mark Snow & Louis Febre" FLAGS DCP INDEX 00 01:40:61FILE "13 - Defeating Bizarro.wav" WAVE INDEX 01 00:00:00 TRACK 14 AUDIO TITLE "The Fortress Falls" PERFORMER "Mark Snow & Louis Febre" FLAGS DCP INDEX 00 02:39:30FILE "14 - The Fortress Falls.wav" WAVE INDEX 01 00:00:00 TRACK 15 AUDIO TITLE "Lois’ Waltz" PERFORMER "Mark Snow & Louis Febre" FLAGS DCP INDEX 00 01:36:10FILE "15 - Lois’ Waltz.wav" WAVE INDEX 01 00:00:00 TRACK 16 AUDIO TITLE "Zatanna" PERFORMER "Mark Snow & Louis Febre" FLAGS DCP INDEX 00 02:01:73FILE "16 - Zatanna.wav" WAVE INDEX 01 00:00:00 TRACK 17 AUDIO TITLE "In the Rain" PERFORMER "Mark Snow & Louis Febre" FLAGS DCP INDEX 00 02:00:59FILE "17 - In the Rain.wav" WAVE INDEX 01 00:00:00 TRACK 18 AUDIO TITLE "Pandora’s Kiss" PERFORMER "Mark Snow & Louis Febre" FLAGS DCP INDEX 00 01:16:22FILE "18 - Pandora’s Kiss.wav" WAVE INDEX 01 00:00:00 TRACK 19 AUDIO TITLE "A Hall of Heroes" PERFORMER "Mark Snow & Louis Febre" FLAGS DCP INDEX 00 00:58:43FILE "19 - A Hall of Heroes.wav" WAVE INDEX 01 00:00:00 TRACK 20 AUDIO TITLE "Supergirl Arrives" PERFORMER "Mark Snow & Louis Febre" FLAGS DCP INDEX 00 02:24:25FILE "20 - Supergirl Arrives.wav" WAVE INDEX 01 00:00:00 TRACK 21 AUDIO TITLE "Clark Tells Lois" PERFORMER "Mark Snow & Louis Febre" FLAGS DCP INDEX 00 00:51:43FILE "21 - Clark Tells Lois.wav" WAVE INDEX 01 00:00:00 TRACK 22 AUDIO TITLE "The Proposal" PERFORMER "Mark Snow & Louis Febre" FLAGS DCP INDEX 00 02:27:74FILE "22 - The Proposal.wav" WAVE INDEX 01 00:00:00 TRACK 23 AUDIO TITLE "To Fly" PERFORMER "Mark Snow & Louis Febre" FLAGS DCP INDEX 00 03:45:53FILE "23 - To Fly.wav" WAVE INDEX 01 00:00:00 TRACK 24 AUDIO TITLE "Disguise Needed" PERFORMER "Mark Snow & Louis Febre" FLAGS DCP INDEX 00 01:53:11FILE "24 - Disguise Needed.wav" WAVE INDEX 01 00:00:00 TRACK 25 AUDIO TITLE "A Lemur in the Room" PERFORMER "Mark Snow & Louis Febre" FLAGS DCP INDEX 00 03:29:72FILE "25 - A Lemur in the Room.wav" WAVE INDEX 01 00:00:00 TRACK 26 AUDIO TITLE "Booster Gold" PERFORMER "Mark Snow & Louis Febre" FLAGS DCP INDEX 00 01:17:35FILE "26 - Booster Gold.wav" WAVE INDEX 01 00:00:00 TRACK 27 AUDIO TITLE "Zod’s Demise" PERFORMER "Mark Snow & Louis Febre" FLAGS DCP INDEX 00 01:47:73FILE "27 - Zod’s Demise.wav" WAVE INDEX 01 00:00:00 TRACK 28 AUDIO TITLE "Trials" PERFORMER "Mark Snow & Louis Febre" FLAGS DCP INDEX 00 02:08:00FILE "28 - Trials.wav" WAVE INDEX 01 00:00:00

2012 - Mark Snow & Louis Febre [La-La Land LLLCD 1216] CD2 - 29 / 72:31

Music By Mark Snow
01. Don't Come Knockin' (01:34)
02. Mixed Intentions (01:10)
03. Teaser (02:29)
04. Warrior Angel (01:57)
05. House Rules (02:21)
06. Secrets Revealed (03:54)
07. Branded (02:40)
08. Bug Eater (01:21)
09. Ferris Wheel (03:55)
10. I’m Ready (01:46)
11. Blood Cleansing (01:59)
12. Transformation Chain (01:16)
13. Clark is Gone (02:47)
14. Simone (04:05)
15. Start Digging (02:25)
Music By Louis Febre
16. Father Knows Best (02:40)
17. Lexmas (01:43)
18. Bizarro (01:29)
19. One Last Time (04:44)
20. Dance (01:50)
21. The First to Know (03:30)
22. Oliver Runs (01:44)
23. The Village (02:35)
24. Jonathan Kent (01:13)
25. Hooded Prototype (01:59)
26. Lois is Super (04:12)
27. Hawkman in the Desert (02:24)
28. Meet Cat Grant (02:16)
29. The Amulet (04:20)

Лог создания рипа

Exact Audio Copy V1.0 beta 3 from 29. August 2011
EAC extraction logfile from 5. September 2012, 18:45
Mark Snow & Louis Febre / Smallville
Used drive : TSSTcorpCDDVDW SH-S203B Adapter: 5 ID: 0
Read mode : SecureUtilize accurate stream : YesDefeat audio cache : YesMake use of C2 pointers : No
Read offset correction : 6Overread into Lead-In and Lead-Out : NoFill up missing offset samples with silence : YesDelete leading and trailing silent blocks : NoNull samples used in CRC calculations : YesUsed interface : Native Win32 interface for Win NT & 2000Gap handling : Appended to previous track
Used output format : Internal WAV RoutinesSample format : 44.100 Hz; 16 Bit; Stereo
TOC of the extracted CD
Track | Start | Length | Start sector | End sector --------------------------------------------------------- 1 | 0:00.00 | 1:34.15 | 0 | 7064 2 | 1:34.15 | 1:10.59 | 7065 | 12373 3 | 2:44.74 | 2:29.72 | 12374 | 23620 4 | 5:14.71 | 1:57.34 | 23621 | 32429 5 | 7:12.30 | 2:21.38 | 32430 | 43042 6 | 9:33.68 | 3:54.36 | 43043 | 60628 7 | 13:28.29 | 2:40.47 | 60629 | 72675 8 | 16:09.01 | 1:21.63 | 72676 | 78813 9 | 17:30.64 | 3:55.10 | 78814 | 96448 10 | 21:25.74 | 1:46.33 | 96449 | 104431 11 | 23:12.32 | 1:59.48 | 104432 | 113404 12 | 25:12.05 | 1:16.49 | 113405 | 119153 13 | 26:28.54 | 2:47.60 | 119154 | 131738 14 | 29:16.39 | 4:05.72 | 131739 | 150185 15 | 33:22.36 | 2:25.28 | 150186 | 161088 16 | 35:47.64 | 2:40.20 | 161089 | 173108 17 | 38:28.09 | 1:43.52 | 173109 | 180885 18 | 40:11.61 | 1:29.21 | 180886 | 187581 19 | 41:41.07 | 4:44.14 | 187582 | 208895 20 | 46:25.21 | 1:50.00 | 208896 | 217145 21 | 48:15.21 | 3:30.72 | 217146 | 232967 22 | 51:46.18 | 1:44.07 | 232968 | 240774 23 | 53:30.25 | 2:35.04 | 240775 | 252403 24 | 56:05.29 | 1:13.20 | 252404 | 257898 25 | 57:18.49 | 1:59.11 | 257899 | 266834 26 | 59:17.60 | 4:12.28 | 266835 | 285762 27 | 63:30.13 | 2:24.22 | 285763 | 296584 28 | 65:54.35 | 2:16.21 | 296585 | 306805 29 | 68:10.56 | 4:20.27 | 306806 | 326332
Track 1
Filename E:\Music\EAC\Extraction\01 - Don't Come Knockin'.wav
Pre-gap length 0:00:02.00
Peak level 97.1 % Extraction speed 1.6 X Track quality 100.0 % Test CRC 731931A1 Copy CRC 731931A1 Track not present in AccurateRip database Copy OK
Track 2
Filename E:\Music\EAC\Extraction\02 - Mixed Intentions.wav
Pre-gap length 0:00:02.00
Peak level 86.9 % Extraction speed 1.5 X Track quality 100.0 % Test CRC A85E750A Copy CRC A85E750A Track not present in AccurateRip database Copy OK
Track 3
Filename E:\Music\EAC\Extraction\03 - Teaser.wav
Pre-gap length 0:00:02.00
Peak level 77.9 % Extraction speed 2.0 X Track quality 100.0 % Test CRC 651706AD Copy CRC 651706AD Track not present in AccurateRip database Copy OK
Track 4
Filename E:\Music\EAC\Extraction\04 - Warrior Angel.wav
Pre-gap length 0:00:02.00
Peak level 95.7 % Extraction speed 1.9 X Track quality 100.0 % Test CRC CED4F80E Copy CRC CED4F80E Track not present in AccurateRip database Copy OK
Track 5
Filename E:\Music\EAC\Extraction\05 - House Rules.wav
Pre-gap length 0:00:02.00
Peak level 81.2 % Extraction speed 2.1 X Track quality 100.0 % Test CRC F4790752 Copy CRC F4790752 Track not present in AccurateRip database Copy OK
Track 6
Filename E:\Music\EAC\Extraction\06 - Secrets Revealed.wav
Pre-gap length 0:00:02.00
Peak level 90.9 % Extraction speed 2.4 X Track quality 100.0 % Test CRC 713CF8DE Copy CRC 713CF8DE Track not present in AccurateRip database Copy OK
Track 7
Filename E:\Music\EAC\Extraction\07 - Branded.wav
Pre-gap length 0:00:02.00
Peak level 88.7 % Extraction speed 2.3 X Track quality 100.0 % Test CRC B6E9E041 Copy CRC B6E9E041 Track not present in AccurateRip database Copy OK
Track 8
Filename E:\Music\EAC\Extraction\08 - Bug Eater.wav
Pre-gap length 0:00:02.00
Peak level 93.2 % Extraction speed 1.9 X Track quality 100.0 % Test CRC AAB9BD57 Copy CRC AAB9BD57 Track not present in AccurateRip database Copy OK
Track 9
Filename E:\Music\EAC\Extraction\09 - Ferris Wheel.wav
Pre-gap length 0:00:02.00
Peak level 88.3 % Extraction speed 2.6 X Track quality 100.0 % Test CRC F2B282DD Copy CRC F2B282DD Track not present in AccurateRip database Copy OK
Track 10
Filename E:\Music\EAC\Extraction\10 - I’m Ready.wav
Pre-gap length 0:00:02.00
Peak level 80.2 % Extraction speed 2.2 X Track quality 100.0 % Test CRC 6E04FFAB Copy CRC 6E04FFAB Track not present in AccurateRip database Copy OK
Track 11
Filename E:\Music\EAC\Extraction\11 - Blood Cleansing.wav
Pre-gap length 0:00:02.00
Peak level 99.9 % Extraction speed 2.4 X Track quality 100.0 % Test CRC 4DB7CC55 Copy CRC 4DB7CC55 Track not present in AccurateRip database Copy OK
Track 12
Filename E:\Music\EAC\Extraction\12 - Transformation Chain.wav
Pre-gap length 0:00:02.00
Peak level 96.1 % Extraction speed 1.5 X Track quality 99.8 % Test CRC 9366C42A Copy CRC 9366C42A Track not present in AccurateRip database Copy OK
Track 13
Filename E:\Music\EAC\Extraction\13 - Clark is Gone.wav
Pre-gap length 0:00:02.00
Peak level 99.9 % Extraction speed 2.6 X Track quality 100.0 % Test CRC D52E5A0B Copy CRC D52E5A0B Track not present in AccurateRip database Copy OK
Track 14
Filename E:\Music\EAC\Extraction\14 - Simone.wav
Pre-gap length 0:00:02.00
Peak level 89.2 % Extraction speed 2.9 X Track quality 100.0 % Test CRC 53FE3BCC Copy CRC 53FE3BCC Track not present in AccurateRip database Copy OK
Track 15
Filename E:\Music\EAC\Extraction\15 - Start Digging.wav
Pre-gap length 0:00:02.00
Peak level 71.8 % Extraction speed 2.7 X Track quality 100.0 % Test CRC 443AC41E Copy CRC 443AC41E Track not present in AccurateRip database Copy OK
Track 16
Filename E:\Music\EAC\Extraction\16 - Father Knows Best.wav
Pre-gap length 0:00:02.00
Peak level 83.4 % Extraction speed 2.7 X Track quality 100.0 % Test CRC 2BED8513 Copy CRC 2BED8513 Track not present in AccurateRip database Copy OK
Track 17
Filename E:\Music\EAC\Extraction\17 - Lexmas.wav
Pre-gap length 0:00:02.00
Peak level 78.4 % Extraction speed 2.5 X Track quality 100.0 % Test CRC 58640C19 Copy CRC 58640C19 Track not present in AccurateRip database Copy OK
Track 18
Filename E:\Music\EAC\Extraction\18 - Bizarro.wav
Pre-gap length 0:00:02.00
Peak level 98.7 % Extraction speed 1.7 X Track quality 99.8 % Test CRC 1EBD88FC Copy CRC 1EBD88FC Track not present in AccurateRip database Copy OK
Track 19
Filename E:\Music\EAC\Extraction\19 - One Last Time.wav
Pre-gap length 0:00:02.00
Peak level 62.7 % Extraction speed 2.8 X Track quality 99.9 % Test CRC 55DCF709 Copy CRC 55DCF709 Track not present in AccurateRip database Copy OK
Track 20
Filename E:\Music\EAC\Extraction\20 - Dance.wav
Pre-gap length 0:00:02.00
Peak level 55.3 % Extraction speed 2.5 X Track quality 100.0 % Test CRC 1BFF896D Copy CRC 1BFF896D Track not present in AccurateRip database Copy OK
Track 21
Filename E:\Music\EAC\Extraction\21 - The First to Know.wav
Pre-gap length 0:00:02.00
Peak level 99.9 % Extraction speed 3.1 X Track quality 100.0 % Test CRC 62B873BE Copy CRC 62B873BE Track not present in AccurateRip database Copy OK
Track 22
Filename E:\Music\EAC\Extraction\22 - Oliver Runs.wav
Pre-gap length 0:00:02.00
Peak level 98.6 % Extraction speed 2.6 X Track quality 100.0 % Test CRC 889EB0A7 Copy CRC 889EB0A7 Track not present in AccurateRip database Copy OK
Track 23
Filename E:\Music\EAC\Extraction\23 - The Village.wav
Pre-gap length 0:00:02.00
Peak level 98.9 % Extraction speed 2.4 X Track quality 99.9 % Test CRC 1EFB1517 Copy CRC 1EFB1517 Track not present in AccurateRip database Copy OK
Track 24
Filename E:\Music\EAC\Extraction\24 - Jonathan Kent.wav
Pre-gap length 0:00:02.00
Peak level 40.0 % Extraction speed 2.3 X Track quality 100.0 % Test CRC 9644191B Copy CRC 9644191B Track not present in AccurateRip database Copy OK
Track 25
Filename E:\Music\EAC\Extraction\25 - Hooded Prototype.wav
Pre-gap length 0:00:02.00
Peak level 97.3 % Extraction speed 2.7 X Track quality 100.0 % Test CRC 2306CA9D Copy CRC 2306CA9D Track not present in AccurateRip database Copy OK
Track 26
Filename E:\Music\EAC\Extraction\26 - Lois is Super.wav
Pre-gap length 0:00:02.00
Peak level 98.8 % Extraction speed 3.4 X Track quality 100.0 % Test CRC 2986BDB4 Copy CRC 2986BDB4 Track not present in AccurateRip database Copy OK
Track 27
Filename E:\Music\EAC\Extraction\27 - Hawkman in the Desert.wav
Pre-gap length 0:00:02.00
Peak level 91.2 % Extraction speed 3.0 X Track quality 100.0 % Test CRC 8400C178 Copy CRC 8400C178 Track not present in AccurateRip database Copy OK
Track 28
Filename E:\Music\EAC\Extraction\28 - Meet Cat Grant.wav
Pre-gap length 0:00:02.00
Peak level 99.3 % Extraction speed 2.9 X Track quality 100.0 % Test CRC 1560D663 Copy CRC 1560D663 Track not present in AccurateRip database Copy OK
Track 29
Filename E:\Music\EAC\Extraction\29 - The Amulet.wav
Pre-gap length 0:00:02.00
Peak level 99.6 % Extraction speed 3.4 X Track quality 100.0 % Test CRC F5E08803 Copy CRC F5E08803 Track not present in AccurateRip database Copy OK
None of the tracks are present in the AccurateRip database
No errors occurred
End of status report
---- CUETools DB Plugin V2.1.3
[CTDB TOCID: M7N.5JhNzitkHqWALmUftExediA-] disk not present in database, Submit result: M7N.5JhNzitkHqWALmUftExediA- has been uploaded
==== Log checksum 070F052F2EE0A529D85CDD8284371151B0FCD8DE0ADB361D0A3860F235947A29 ====

Содержание индексной карты (.CUE)

REM GENRE SoundtrackREM DATE 2012REM DISCID 9710FF1DREM COMMENT "ExactAudioCopy v1.0b3"PERFORMER "Mark Snow & Louis Febre"TITLE "Smallville"FILE "01 - Don't Come Knockin'.wav" WAVE TRACK 01 AUDIO TITLE "Don't Come Knockin'" PERFORMER "Mark Snow & Louis Febre" FLAGS DCP INDEX 01 00:00:00 TRACK 02 AUDIO TITLE "Mixed Intentions" PERFORMER "Mark Snow & Louis Febre" FLAGS DCP INDEX 00 01:32:15FILE "02 - Mixed Intentions.wav" WAVE INDEX 01 00:00:00 TRACK 03 AUDIO TITLE "Teaser" PERFORMER "Mark Snow & Louis Febre" FLAGS DCP INDEX 00 01:08:59FILE "03 - Teaser.wav" WAVE INDEX 01 00:00:00 TRACK 04 AUDIO TITLE "Warrior Angel" PERFORMER "Mark Snow & Louis Febre" FLAGS DCP INDEX 00 02:27:72FILE "04 - Warrior Angel.wav" WAVE INDEX 01 00:00:00 TRACK 05 AUDIO TITLE "House Rules" PERFORMER "Mark Snow & Louis Febre" FLAGS DCP INDEX 00 01:55:34FILE "05 - House Rules.wav" WAVE INDEX 01 00:00:00 TRACK 06 AUDIO TITLE "Secrets Revealed" PERFORMER "Mark Snow & Louis Febre" FLAGS DCP INDEX 00 02:19:38FILE "06 - Secrets Revealed.wav" WAVE INDEX 01 00:00:00 TRACK 07 AUDIO TITLE "Branded" PERFORMER "Mark Snow & Louis Febre" FLAGS DCP INDEX 00 03:52:36FILE "07 - Branded.wav" WAVE INDEX 01 00:00:00 TRACK 08 AUDIO TITLE "Bug Eater" PERFORMER "Mark Snow & Louis Febre" FLAGS DCP INDEX 00 02:38:47FILE "08 - Bug Eater.wav" WAVE INDEX 01 00:00:00 TRACK 09 AUDIO TITLE "Ferris Wheel" PERFORMER "Mark Snow & Louis Febre" FLAGS DCP INDEX 00 01:19:63FILE "09 - Ferris Wheel.wav" WAVE INDEX 01 00:00:00 TRACK 10 AUDIO TITLE "I’m Ready" PERFORMER "Mark Snow & Louis Febre" FLAGS DCP INDEX 00 03:53:10FILE "10 - I’m Ready.wav" WAVE INDEX 01 00:00:00 TRACK 11 AUDIO TITLE "Blood Cleansing" PERFORMER "Mark Snow & Louis Febre" FLAGS DCP INDEX 00 01:44:33FILE "11 - Blood Cleansing.wav" WAVE INDEX 01 00:00:00 TRACK 12 AUDIO TITLE "Transformation Chain" PERFORMER "Mark Snow & Louis Febre" FLAGS DCP INDEX 00 01:57:48FILE "12 - Transformation Chain.wav" WAVE INDEX 01 00:00:00 TRACK 13 AUDIO TITLE "Clark is Gone" PERFORMER "Mark Snow & Louis Febre" FLAGS DCP INDEX 00 01:14:49FILE "13 - Clark is Gone.wav" WAVE INDEX 01 00:00:00 TRACK 14 AUDIO TITLE "Simone" PERFORMER "Mark Snow & Louis Febre" FLAGS DCP INDEX 00 02:45:60FILE "14 - Simone.wav" WAVE INDEX 01 00:00:00 TRACK 15 AUDIO TITLE "Start Digging" PERFORMER "Mark Snow & Louis Febre" FLAGS DCP INDEX 00 04:03:72FILE "15 - Start Digging.wav" WAVE INDEX 01 00:00:00 TRACK 16 AUDIO TITLE "Father Knows Best" PERFORMER "Mark Snow & Louis Febre" FLAGS DCP INDEX 00 02:23:28FILE "16 - Father Knows Best.wav" WAVE INDEX 01 00:00:00 TRACK 17 AUDIO TITLE "Lexmas" PERFORMER "Mark Snow & Louis Febre" FLAGS DCP INDEX 00 02:38:20FILE "17 - Lexmas.wav" WAVE INDEX 01 00:00:00 TRACK 18 AUDIO TITLE "Bizarro" PERFORMER "Mark Snow & Louis Febre" FLAGS DCP INDEX 00 01:41:52FILE "18 - Bizarro.wav" WAVE INDEX 01 00:00:00 TRACK 19 AUDIO TITLE "One Last Time" PERFORMER "Mark Snow & Louis Febre" FLAGS DCP INDEX 00 01:27:21FILE "19 - One Last Time.wav" WAVE INDEX 01 00:00:00 TRACK 20 AUDIO TITLE "Dance" PERFORMER "Mark Snow & Louis Febre" FLAGS DCP INDEX 00 04:42:14FILE "20 - Dance.wav" WAVE INDEX 01 00:00:00 TRACK 21 AUDIO TITLE "The First to Know" PERFORMER "Mark Snow & Louis Febre" FLAGS DCP INDEX 00 01:48:00FILE "21 - The First to Know.wav" WAVE INDEX 01 00:00:00 TRACK 22 AUDIO TITLE "Oliver Runs" PERFORMER "Mark Snow & Louis Febre" FLAGS DCP INDEX 00 03:28:72FILE "22 - Oliver Runs.wav" WAVE INDEX 01 00:00:00 TRACK 23 AUDIO TITLE "The Village" PERFORMER "Mark Snow & Louis Febre" FLAGS DCP INDEX 00 01:42:07FILE "23 - The Village.wav" WAVE INDEX 01 00:00:00 TRACK 24 AUDIO TITLE "Jonathan Kent" PERFORMER "Mark Snow & Louis Febre" FLAGS DCP INDEX 00 02:33:04FILE "24 - Jonathan Kent.wav" WAVE INDEX 01 00:00:00 TRACK 25 AUDIO TITLE "Hooded Prototype" PERFORMER "Mark Snow & Louis Febre" FLAGS DCP INDEX 00 01:11:20FILE "25 - Hooded Prototype.wav" WAVE INDEX 01 00:00:00 TRACK 26 AUDIO TITLE "Lois is Super" PERFORMER "Mark Snow & Louis Febre" FLAGS DCP INDEX 00 01:57:11FILE "26 - Lois is Super.wav" WAVE INDEX 01 00:00:00 TRACK 27 AUDIO TITLE "Hawkman in the Desert" PERFORMER "Mark Snow & Louis Febre" FLAGS DCP INDEX 00 04:10:28FILE "27 - Hawkman in the Desert.wav" WAVE INDEX 01 00:00:00 TRACK 28 AUDIO TITLE "Meet Cat Grant" PERFORMER "Mark Snow & Louis Febre" FLAGS DCP INDEX 00 02:22:22FILE "28 - Meet Cat Grant.wav" WAVE INDEX 01 00:00:00 TRACK 29 AUDIO TITLE "The Amulet" PERFORMER "Mark Snow & Louis Febre" FLAGS DCP INDEX 00 02:14:21FILE "29 - The Amulet.wav" WAVE INDEX 01 00:00:00
-
[teatrix.ru].t10415.torrent 
Торрент: Зарегистрирован [ 2015-11-01 20:51 ] · EEEC8443098806BFA756E79848E5C76DFB7F8FD2

Скачать .torrent

Скачать

21 KB

Статус: проверено
Скачан: 1 раз
Размер: 815 MB
terms.php



Быстрый ответ

Имя:

      
Для отправки сообщений необходимо включить JavaScript
Показать сообщения:    

Текущее время: 10-Дек 21:36

Часовой пояс: UTC + 3


Вы можете начинать темы
Вы можете отвечать на сообщения
Вы не можете редактировать свои сообщения
Вы не можете удалять свои сообщения
Вы не можете голосовать в опросах
Вы не можете прикреплять файлы к сообщениям
Вы можете скачивать файлы