(Soundtrack) Тайны Смолвиля / Smallville Mix Vol. 1-2 [The Talon Mix, Metropolis Mix] (VA) - 2003-2005, FLAC (tracks+.cue), lossless


Статистика раздачи [Обновить пиров]
Размер:  874 MB   |    Зарегистрирован:  1 год 1 месяц   |    Скачан:  0 раз

Полного источника не было: Никогда

Личеров:  1  [  0 KB/s  ]   Подробная статистика пиров
 
   
 
 
 

[Цитировать]

Smallville Mix Vol. 1-2Score / SoundtrackЖанр: SoundtrackСтрана: USAГод издания: 2003-2005Аудио кодек: FLAC (tracks+.cue)
Битрейт аудио: losslessИсточник (релизер): what.cd (prophet17)Продолжительность: 01:41:26
-

2003 - Smallville, Vol. 1 - The Talon Mix [Elektra 7559-62792-2] - 12 / 47:54

01. Remy Zero - Save Me (04:01)
02. Vonray - Inside Out (03:38)
03. Weezer - Island in the Sun (03:21)
04. Five for Fighting - Superman (It's Not Easy) (03:41)
05. Ryan Adams - Nuclear (03:25)
06. Phantom Planet - Lonely Day (03:45)
07. The Flaming Lips - Fight Test (03:54)
08. Sixpence None the Richer - Don't Dream It's Over (04:01)
09. Steadman - Wave Goodbye (04:02)
10. AM Radio - I Just Wanna Be Loved (03:57)
11. Lifehouse - Everything (06:08)
12. Eva Cassidy - Time After Time (03:58)

Лог создания рипа

Exact Audio Copy V0.99 prebeta 5 from 4. May 2009
EAC extraction logfile from 26. September 2010, 19:12
Various / Smallville, Vol. 1: The Talon Mix
Used drive : PLEXTOR CD-R PREMIUM2 Adapter: 1 ID: 0
Read mode : SecureUtilize accurate stream : YesDefeat audio cache : YesMake use of C2 pointers : No
Read offset correction : 30Overread into Lead-In and Lead-Out : YesFill up missing offset samples with silence : YesDelete leading and trailing silent blocks : NoNull samples used in CRC calculations : YesUsed interface : Installed external ASPI interfaceGap handling : Appended to previous track
Used output format : Internal WAV RoutinesSample format : 44.100 Hz; 16 Bit; Stereo
TOC of the extracted CD
Track | Start | Length | Start sector | End sector --------------------------------------------------------- 1 | 0:00.00 | 4:01.17 | 0 | 18091 2 | 4:01.17 | 3:38.33 | 18092 | 34474 3 | 7:39.50 | 3:21.12 | 34475 | 49561 4 | 11:00.62 | 3:41.13 | 49562 | 66149 5 | 14:42.00 | 3:25.00 | 66150 | 81524 6 | 18:07.00 | 3:45.00 | 81525 | 98399 7 | 21:52.00 | 3:54.25 | 98400 | 115974 8 | 25:46.25 | 4:01.22 | 115975 | 134071 9 | 29:47.47 | 4:02.18 | 134072 | 152239 10 | 33:49.65 | 3:57.22 | 152240 | 170036 11 | 37:47.12 | 6:08.30 | 170037 | 197666 12 | 43:55.42 | 3:58.50 | 197667 | 215566 13 | 50:26.17 | 10:33.63 | 226967 | 274504
Track 1
Filename C:\_supang_\Soundtrack\Various -2003- Smallville, Vol. 1 - The Talon Mix {Elektra 7559-62792-2}\01. Remy Zero - Save Me.wav
Pre-gap length 0:00:02.00
Peak level 94.2 % Track quality 100.0 % Test CRC 7B2EF554 Copy CRC 7B2EF554 Accurately ripped (confidence 4) [D1506B6F] Copy OK
Track 2
Filename C:\_supang_\Soundtrack\Various -2003- Smallville, Vol. 1 - The Talon Mix {Elektra 7559-62792-2}\02. Vonray - Inside Out.wav
Peak level 99.8 % Track quality 100.0 % Test CRC 50770354 Copy CRC 50770354 Accurately ripped (confidence 4) [33929D5D] Copy OK
Track 3
Filename C:\_supang_\Soundtrack\Various -2003- Smallville, Vol. 1 - The Talon Mix {Elektra 7559-62792-2}\03. Weezer - Island in the Sun.wav
Pre-gap length 0:00:00.15
Peak level 99.7 % Track quality 100.0 % Test CRC 36A61736 Copy CRC 36A61736 Accurately ripped (confidence 4) [EE7A2BA1] Copy OK
Track 4
Filename C:\_supang_\Soundtrack\Various -2003- Smallville, Vol. 1 - The Talon Mix {Elektra 7559-62792-2}\04. Five for Fighting - Superman (It's Not Easy).wav
Pre-gap length 0:00:00.37
Peak level 94.7 % Track quality 99.9 % Test CRC FC54125B Copy CRC FC54125B Accurately ripped (confidence 4) [D8E9B7B1] Copy OK
Track 5
Filename C:\_supang_\Soundtrack\Various -2003- Smallville, Vol. 1 - The Talon Mix {Elektra 7559-62792-2}\05. Ryan Adams - Nuclear.wav
Peak level 94.9 % Track quality 100.0 % Test CRC 848D429C Copy CRC 848D429C Accurately ripped (confidence 4) [81E48174] Copy OK
Track 6
Filename C:\_supang_\Soundtrack\Various -2003- Smallville, Vol. 1 - The Talon Mix {Elektra 7559-62792-2}\06. Phantom Planet - Lonely Day.wav
Pre-gap length 0:00:00.23
Peak level 99.7 % Track quality 100.0 % Test CRC 1F55A99A Copy CRC 1F55A99A Accurately ripped (confidence 4) [E6E49BDB] Copy OK
Track 7
Filename C:\_supang_\Soundtrack\Various -2003- Smallville, Vol. 1 - The Talon Mix {Elektra 7559-62792-2}\07. The Flaming Lips - Fight Test.wav
Peak level 83.9 % Track quality 100.0 % Test CRC 397D54E8 Copy CRC 397D54E8 Accurately ripped (confidence 4) [492D6105] Copy OK
Track 8
Filename C:\_supang_\Soundtrack\Various -2003- Smallville, Vol. 1 - The Talon Mix {Elektra 7559-62792-2}\08. Sixpence None the Richer - Don't Dream It's Over.wav
Pre-gap length 0:00:00.10
Peak level 94.6 % Track quality 100.0 % Test CRC 819EF7F3 Copy CRC 819EF7F3 Accurately ripped (confidence 4) [224630D8] Copy OK
Track 9
Filename C:\_supang_\Soundtrack\Various -2003- Smallville, Vol. 1 - The Talon Mix {Elektra 7559-62792-2}\09. Steadman - Wave Goodbye.wav
Peak level 96.3 % Track quality 100.0 % Test CRC DA81E25F Copy CRC DA81E25F Accurately ripped (confidence 4) [080C443B] Copy OK
Track 10
Filename C:\_supang_\Soundtrack\Various -2003- Smallville, Vol. 1 - The Talon Mix {Elektra 7559-62792-2}\10. AM Radio - I Just Wanna Be Loved.wav
Peak level 99.8 % Track quality 100.0 % Test CRC 5767F428 Copy CRC 5767F428 Accurately ripped (confidence 4) [82791E8D] Copy OK
Track 11
Filename C:\_supang_\Soundtrack\Various -2003- Smallville, Vol. 1 - The Talon Mix {Elektra 7559-62792-2}\11. Lifehouse - Everything.wav
Pre-gap length 0:00:00.25
Peak level 99.7 % Track quality 100.0 % Test CRC 325AF04A Copy CRC 325AF04A Accurately ripped (confidence 4) [F1795A05] Copy OK
Track 12
Filename C:\_supang_\Soundtrack\Various -2003- Smallville, Vol. 1 - The Talon Mix {Elektra 7559-62792-2}\12. Eva Cassidy - Time After Time.wav
Pre-gap length 0:00:00.07
Peak level 90.1 % Track quality 100.0 % Test CRC E4AC705A Copy CRC E4AC705A Accurately ripped (confidence 4) [30195F92] Copy OK
All tracks accurately ripped
No errors occurred
End of status report

Содержание индексной карты (.CUE)

REM GENRE "Soundtrack; Alternative Rock"REM DATE 2003REM DISCID B60E4C0DREM COMMENT "Elektra 7559-62792-2"PERFORMER "Various"TITLE "Smallville, Vol. 1: The Talon Mix"FILE "Range.wav" WAVE TRACK 01 AUDIO TITLE "Save Me" PERFORMER "Remy Zero" INDEX 01 00:00:00 TRACK 02 AUDIO TITLE "Inside Out" PERFORMER "Vonray" INDEX 01 04:01:17 TRACK 03 AUDIO TITLE "Island in the Sun" PERFORMER "Weezer" INDEX 00 07:39:35 INDEX 01 07:39:50 TRACK 04 AUDIO TITLE "Superman (It's Not Easy)" PERFORMER "Five for Fighting" INDEX 00 11:00:25 INDEX 01 11:00:62 TRACK 05 AUDIO TITLE "Nuclear" PERFORMER "Ryan Adams" INDEX 01 14:42:00 TRACK 06 AUDIO TITLE "Lonely Day" PERFORMER "Phantom Planet" INDEX 00 18:06:52 INDEX 01 18:07:00 TRACK 07 AUDIO TITLE "Fight Test" PERFORMER "The Flaming Lips" INDEX 01 21:52:00 TRACK 08 AUDIO TITLE "Don't Dream It's Over" PERFORMER "Sixpence None the Richer" INDEX 00 25:46:15 INDEX 01 25:46:25 TRACK 09 AUDIO TITLE "Wave Goodbye" PERFORMER "Steadman" INDEX 01 29:47:47 TRACK 10 AUDIO TITLE "I Just Wanna Be Loved" PERFORMER "AM Radio" INDEX 01 33:49:65 TRACK 11 AUDIO TITLE "Everything" PERFORMER "Lifehouse" INDEX 00 37:46:62 INDEX 01 37:47:12 TRACK 12 AUDIO TITLE "Time After Time" PERFORMER "Eva Cassidy" INDEX 00 43:55:35 INDEX 01 43:55:42

2005 - Smallville, Vol. 2 - Metropolis Mix [Hollywood Records 2061-62555-2] - 14 / 53:32

01. Breaking Benjamin - Forget It (03:36)
02. Depeche Mode - Precious (04:11)
03. Lifehouse - You and Me [Wedding Version] (05:15)
04. Stereophonics - Superman (05:07)
05. The All-American Rejects - Dirty Little Secret (03:15)
06. Josh Kelley - Almost Honest (03:19)
07. The Dandy Warhols - All the Money or the Simple Life Honey [Remix] (03:30)
08. Brendan Benson - Cold Hands (Warm Heart) (03:23)
09. Diamond Nights - The Girl's Attractive (03:14)
10. Flashlight Brown - I'm a Human (03:25)
11. HIM - Wicked Game (04:07)
12. KT Tunstall - Other Side of the World (03:34)
13. Minnie Driver - Hungry Heart (04:08)
14. Rascal Flatts - Feels Like Today (03:21)

Лог создания рипа

Exact Audio Copy V0.99 prebeta 5 from 4. May 2009
EAC extraction logfile from 26. September 2010, 20:08
Various / Smallville, Vol. 2: Metropolis Mix
Used drive : PLEXTOR CD-R PREMIUM2 Adapter: 1 ID: 0
Read mode : SecureUtilize accurate stream : YesDefeat audio cache : YesMake use of C2 pointers : No
Read offset correction : 30Overread into Lead-In and Lead-Out : YesFill up missing offset samples with silence : YesDelete leading and trailing silent blocks : NoNull samples used in CRC calculations : YesUsed interface : Installed external ASPI interfaceGap handling : Appended to previous track
Used output format : Internal WAV RoutinesSample format : 44.100 Hz; 16 Bit; Stereo
TOC of the extracted CD
Track | Start | Length | Start sector | End sector --------------------------------------------------------- 1 | 0:00.00 | 3:36.31 | 0 | 16230 2 | 3:36.31 | 4:11.64 | 16231 | 35119 3 | 7:48.20 | 5:15.52 | 35120 | 58796 4 | 13:03.72 | 5:07.36 | 58797 | 81857 5 | 18:11.33 | 3:15.34 | 81858 | 96516 6 | 21:26.67 | 3:19.18 | 96517 | 111459 7 | 24:46.10 | 3:30.56 | 111460 | 127265 8 | 28:16.66 | 3:23.63 | 127266 | 142553 9 | 31:40.54 | 3:14.23 | 142554 | 157126 10 | 34:55.02 | 3:25.44 | 157127 | 172545 11 | 38:20.46 | 4:07.04 | 172546 | 191074 12 | 42:27.50 | 3:34.43 | 191075 | 207167 13 | 46:02.18 | 4:08.59 | 207168 | 225826 14 | 50:11.02 | 3:21.47 | 225827 | 240948
Track 1
Filename C:\_supang_\Soundtrack\Various -2005- Smallville, Vol. 2 - Metropolis Mix {Hollywood Records 2061-62555-2}\01. Breaking Benjamin - Forget It.wav
Pre-gap length 0:00:02.00
Peak level 98.8 % Track quality 100.0 % Test CRC B7B973A4 Copy CRC B7B973A4 Accurately ripped (confidence 3) [456562AF] Copy OK
Track 2
Filename C:\_supang_\Soundtrack\Various -2005- Smallville, Vol. 2 - Metropolis Mix {Hollywood Records 2061-62555-2}\02. Depeche Mode - Precious.wav
Peak level 87.1 % Track quality 100.0 % Test CRC 93AA5A57 Copy CRC 93AA5A57 Accurately ripped (confidence 3) [61E08FFD] Copy OK
Track 3
Filename C:\_supang_\Soundtrack\Various -2005- Smallville, Vol. 2 - Metropolis Mix {Hollywood Records 2061-62555-2}\03. Lifehouse - You and Me [Wedding Version].wav
Pre-gap length 0:00:01.18
Peak level 98.8 % Track quality 100.0 % Test CRC 365214D5 Copy CRC 365214D5 Accurately ripped (confidence 3) [C9EEE9F7] Copy OK
Track 4
Filename C:\_supang_\Soundtrack\Various -2005- Smallville, Vol. 2 - Metropolis Mix {Hollywood Records 2061-62555-2}\04. Stereophonics - Superman.wav
Peak level 98.8 % Track quality 99.9 % Test CRC 5079DF71 Copy CRC 5079DF71 Accurately ripped (confidence 3) [504A1D9F] Copy OK
Track 5
Filename C:\_supang_\Soundtrack\Various -2005- Smallville, Vol. 2 - Metropolis Mix {Hollywood Records 2061-62555-2}\05. The All-American Rejects - Dirty Little Secret.wav
Pre-gap length 0:00:00.14
Peak level 94.5 % Track quality 100.0 % Test CRC 2D9428D8 Copy CRC 2D9428D8 Accurately ripped (confidence 3) [57849389] Copy OK
Track 6
Filename C:\_supang_\Soundtrack\Various -2005- Smallville, Vol. 2 - Metropolis Mix {Hollywood Records 2061-62555-2}\06. Josh Kelley - Almost Honest.wav
Pre-gap length 0:00:02.07
Peak level 98.8 % Track quality 99.9 % Test CRC 91B59989 Copy CRC 91B59989 Accurately ripped (confidence 3) [45E9D37D] Copy OK
Track 7
Filename C:\_supang_\Soundtrack\Various -2005- Smallville, Vol. 2 - Metropolis Mix {Hollywood Records 2061-62555-2}\07. The Dandy Warhols - All the Money or the Simple Life Honey [Remix].wav
Peak level 91.2 % Track quality 100.0 % Test CRC 4770D612 Copy CRC 4770D612 Accurately ripped (confidence 3) [D645D55A] Copy OK
Track 8
Filename C:\_supang_\Soundtrack\Various -2005- Smallville, Vol. 2 - Metropolis Mix {Hollywood Records 2061-62555-2}\08. Brendan Benson - Cold Hands (Warm Heart).wav
Pre-gap length 0:00:00.33
Peak level 98.8 % Track quality 100.0 % Test CRC CDEA82E5 Copy CRC CDEA82E5 Accurately ripped (confidence 3) [480B6F4A] Copy OK
Track 9
Filename C:\_supang_\Soundtrack\Various -2005- Smallville, Vol. 2 - Metropolis Mix {Hollywood Records 2061-62555-2}\09. Diamond Nights - The Girl's Attractive.wav
Peak level 100.0 % Track quality 100.0 % Test CRC 82085BAE Copy CRC 82085BAE Accurately ripped (confidence 3) [A0935972] Copy OK
Track 10
Filename C:\_supang_\Soundtrack\Various -2005- Smallville, Vol. 2 - Metropolis Mix {Hollywood Records 2061-62555-2}\10. Flashlight Brown - I'm a Human.wav
Peak level 98.8 % Track quality 100.0 % Test CRC 13B7E798 Copy CRC 13B7E798 Accurately ripped (confidence 3) [1CDD1072] Copy OK
Track 11
Filename C:\_supang_\Soundtrack\Various -2005- Smallville, Vol. 2 - Metropolis Mix {Hollywood Records 2061-62555-2}\11. HIM - Wicked Game.wav
Peak level 98.8 % Track quality 99.9 % Test CRC 01B5BA98 Copy CRC 01B5BA98 Accurately ripped (confidence 3) [CF40A091] Copy OK
Track 12
Filename C:\_supang_\Soundtrack\Various -2005- Smallville, Vol. 2 - Metropolis Mix {Hollywood Records 2061-62555-2}\12. KT Tunstall - Other Side of the World.wav
Pre-gap length 0:00:02.16
Peak level 98.8 % Track quality 100.0 % Test CRC BE038B2C Copy CRC BE038B2C Accurately ripped (confidence 3) [CF64D9AF] Copy OK
Track 13
Filename C:\_supang_\Soundtrack\Various -2005- Smallville, Vol. 2 - Metropolis Mix {Hollywood Records 2061-62555-2}\13. Minnie Driver - Hungry Heart.wav
Peak level 93.3 % Track quality 100.0 % Test CRC 1FBA3280 Copy CRC 1FBA3280 Accurately ripped (confidence 3) [35AD208E] Copy OK
Track 14
Filename C:\_supang_\Soundtrack\Various -2005- Smallville, Vol. 2 - Metropolis Mix {Hollywood Records 2061-62555-2}\14. Rascal Flatts - Feels Like Today.wav
Peak level 98.8 % Track quality 100.0 % Test CRC 272F5B4D Copy CRC 272F5B4D Accurately ripped (confidence 3) [C7C03C71] Copy OK
All tracks accurately ripped
No errors occurred
End of status report

Содержание индексной карты (.CUE)

REM GENRE "Soundtrack; Alternative Rock"REM DATE 2005REM DISCID CC0C8C0EREM COMMENT "Hollywood Records 2061-62555-2"PERFORMER "Various"TITLE "Smallville, Vol. 2: Metropolis Mix"FILE "Range.wav" WAVE TRACK 01 AUDIO TITLE "Forget It" PERFORMER "Breaking Benjamin" INDEX 01 00:00:00 TRACK 02 AUDIO TITLE "Precious" PERFORMER "Depeche Mode" INDEX 01 03:36:31 TRACK 03 AUDIO TITLE "You and Me [Wedding Version]" PERFORMER "Lifehouse" INDEX 00 07:47:02 INDEX 01 07:48:20 TRACK 04 AUDIO TITLE "Superman" PERFORMER "Stereophonics" INDEX 01 13:03:72 TRACK 05 AUDIO TITLE "Dirty Little Secret" PERFORMER "The All-American Rejects" INDEX 00 18:11:19 INDEX 01 18:11:33 TRACK 06 AUDIO TITLE "Almost Honest" PERFORMER "Josh Kelley" INDEX 00 21:24:60 INDEX 01 21:26:67 TRACK 07 AUDIO TITLE "All the Money or the Simple Life Honey [Remix]" PERFORMER "The Dandy Warhols" INDEX 01 24:46:10 TRACK 08 AUDIO TITLE "Cold Hands (Warm Heart)" PERFORMER "Brendan Benson" INDEX 00 28:16:33 INDEX 01 28:16:66 TRACK 09 AUDIO TITLE "The Girl's Attractive" PERFORMER "Diamond Nights" INDEX 01 31:40:54 TRACK 10 AUDIO TITLE "I'm a Human" PERFORMER "Flashlight Brown" INDEX 01 34:55:02 TRACK 11 AUDIO TITLE "Wicked Game" PERFORMER "HIM" INDEX 01 38:20:46 TRACK 12 AUDIO TITLE "Other Side of the World" PERFORMER "KT Tunstall" INDEX 00 42:25:34 INDEX 01 42:27:50 TRACK 13 AUDIO TITLE "Hungry Heart" PERFORMER "Minnie Driver" INDEX 01 46:02:18 TRACK 14 AUDIO TITLE "Feels Like Today" PERFORMER "Rascal Flatts" INDEX 01 50:11:02
-
[teatrix.ru].t10416.torrent 
Торрент: Зарегистрирован [ 2015-11-01 20:51 ] · 21EDD4F3595A0CFB47AB361B621FFB2E32DC4A2D

Скачать .torrent

Скачать

25 KB

Статус: проверено
Скачан: 0 раз
Размер: 874 MB
terms.php



Быстрый ответ

Имя:

      
Для отправки сообщений необходимо включить JavaScript
Показать сообщения:    

Текущее время: 05-Дек 03:24

Часовой пояс: UTC + 3


Вы можете начинать темы
Вы можете отвечать на сообщения
Вы не можете редактировать свои сообщения
Вы не можете удалять свои сообщения
Вы не можете голосовать в опросах
Вы не можете прикреплять файлы к сообщениям
Вы можете скачивать файлы