(Score) Толстяк и Малыш (Создатели теней) / Fat Man and Little Boy (The Shadowmakers) (by Ennio Morricone) - 2011 (1989), FLAC (image+.cue), lossless


Статистика раздачи [Обновить пиров]
Размер:  1.08 GB   |    Зарегистрирован:  1 год 1 месяц   |    Скачан:  0 раз

Полного источника не было: Никогда

 
   
 
 
 

[Цитировать]

-Толстяк и Малыш / Fat Man and Little Boy
Composed and Conducted by Ennio Morricone
Limited Edition of 3000 Copies
- -Жанр: Score | Дата выпуска: 29 ноября 2011
Издатель (лейбл): La-La Land Records | Номер по каталогу: LLLCD 1196
Аудиокодек: FLAC | Тип рипа: image+.cue | Битрейт аудио: lossless
Общая продолжительность: 63:40 + 40:29
Источник: Рип оригинальных дисков из личной коллекции
-

Disc 1 - Original Film Score


★★ DISC ONE • ORIGINAL FILM SCORE ★★
01. Above The Clouds (Theme From Fat Man And Little Boy) [6:00]
02. Fat Man Logo / Main Titles / Mysterious Meeting / A Faustian Bargain / Arrival at Camp [6:52]
03. Fat Man and Little Boy / We Are People, Not Numbers [2:42]
04. 2 A.M. News / Groves' Advantage / First Accident [2:22]
05. No Options / Madness and Suspicion / Oppie's Reflections [3:16]
06. One Thousand Times Love / Love is Ended [4:32]
07. Icy Fusion Fizzles [1:04]
08. Groves' Madness [1:51]
09. Implosion Test / Bad News & In The Tank [1:47]
10. Human Indecision [3:16]
11. Give 'Em Dignity / Secret File / Guillotine [2:13]
12. Second Explosion / Pressure Oppie / Oppie's Indecision / Against The Test [3:46]
13. In The Train [2:23]
14. Critical Mass / Innocent Love [2:20]
15. Merriman's Accident [2:41]
16. Will To Survive [2:24]
17. Why Me? [2:25]
18. Do It! / It's a Go! / Kathleen's Goodbye [2:53]
19. Hiroshima and Nagasaki [3:04]
20. Finale / End Title (Film Version) [5:49]

Лог создания рипа

Exact Audio Copy V1.0 beta 3 from 29. August 2011
EAC extraction logfile from 26. September 2014, 10:19
Ennio Morricone / Fat Man And Little Boy (Disc 1)
Used drive : TSSTcorpCDDVDW SN-S082N Adapter: 3 ID: 0
Read mode : SecureUtilize accurate stream : YesDefeat audio cache : YesMake use of C2 pointers : No
Read offset correction : 6Overread into Lead-In and Lead-Out : NoFill up missing offset samples with silence : YesDelete leading and trailing silent blocks : NoNull samples used in CRC calculations : YesUsed interface : Native Win32 interface for Win NT & 2000
Used output format : Internal WAV RoutinesSample format : 44.100 Hz; 16 Bit; Stereo
TOC of the extracted CD
Track | Start | Length | Start sector | End sector --------------------------------------------------------- 1 | 0:00.00 | 6:01.50 | 0 | 27124 2 | 6:01.50 | 6:48.44 | 27125 | 57768 3 | 12:50.19 | 2:42.09 | 57769 | 69927 4 | 15:32.28 | 2:24.49 | 69928 | 80776 5 | 17:57.02 | 3:14.55 | 80777 | 95381 6 | 21:11.57 | 4:32.42 | 95382 | 115823 7 | 25:44.24 | 1:04.58 | 115824 | 120681 8 | 26:49.07 | 1:50.37 | 120682 | 128968 9 | 28:39.44 | 1:47.58 | 128969 | 137051 10 | 30:27.27 | 3:16.38 | 137052 | 151789 11 | 33:43.65 | 2:12.63 | 151790 | 161752 12 | 35:56.53 | 3:45.52 | 161753 | 178679 13 | 39:42.30 | 2:24.19 | 178680 | 189498 14 | 42:06.49 | 2:19.02 | 189499 | 199925 15 | 44:25.51 | 2:40.38 | 199926 | 211963 16 | 47:06.14 | 2:23.20 | 211964 | 222708 17 | 49:29.34 | 2:24.43 | 222709 | 233551 18 | 51:54.02 | 2:53.23 | 233552 | 246549 19 | 54:47.25 | 3:08.04 | 246550 | 260653 20 | 57:55.29 | 5:43.05 | 260654 | 286383
Range status and errors
Selected range
Filename D:\Ennio Morricone (1989) Fat Man and Little Boy\Ennio Morricone - Fat Man And Little Boy (Disc 1) (LLLCD 1196).wav
Peak level 92.0 % Extraction speed 4.5 X Range quality 100.0 % Test CRC F8ECFCDE Copy CRC F8ECFCDE Copy OK
No errors occurred
AccurateRip summary
Track 1 accurately ripped (confidence 11) [13100058] (AR v2)Track 2 accurately ripped (confidence 11) [F8E96B4F] (AR v2)Track 3 accurately ripped (confidence 11) [AB9EA992] (AR v2)Track 4 accurately ripped (confidence 11) [15730888] (AR v2)Track 5 accurately ripped (confidence 11) [8A55AC29] (AR v2)Track 6 accurately ripped (confidence 11) [B69C8E23] (AR v2)Track 7 accurately ripped (confidence 11) [255A32AB] (AR v2)Track 8 accurately ripped (confidence 11) [E3D16DD3] (AR v2)Track 9 accurately ripped (confidence 11) [87B31F98] (AR v2)Track 10 accurately ripped (confidence 11) [40131ECA] (AR v2)Track 11 accurately ripped (confidence 11) [630AAAD1] (AR v2)Track 12 accurately ripped (confidence 11) [6F7D07D9] (AR v2)Track 13 accurately ripped (confidence 11) [5503F0C9] (AR v2)Track 14 accurately ripped (confidence 11) [FCF20841] (AR v2)Track 15 accurately ripped (confidence 11) [7D592C7B] (AR v2)Track 16 accurately ripped (confidence 11) [8C76C64E] (AR v2)Track 17 accurately ripped (confidence 11) [4E36A714] (AR v2)Track 18 accurately ripped (confidence 11) [1A155D73] (AR v2)Track 19 accurately ripped (confidence 11) [86CCB536] (AR v2)Track 20 accurately ripped (confidence 11) [BAC0A2EB] (AR v2)
All tracks accurately ripped
End of status report
---- CUETools DB Plugin V2.1.4
[CTDB TOCID: z3sgnAqDG70yPHpdHAQDF1PczzE-] foundSubmit result: z3sgnAqDG70yPHpdHAQDF1PczzE- has been confirmedTrack | CTDB Status 1 | (6/6) Accurately ripped 2 | (6/6) Accurately ripped 3 | (6/6) Accurately ripped 4 | (6/6) Accurately ripped 5 | (6/6) Accurately ripped 6 | (6/6) Accurately ripped 7 | (6/6) Accurately ripped 8 | (6/6) Accurately ripped 9 | (6/6) Accurately ripped 10 | (6/6) Accurately ripped 11 | (6/6) Accurately ripped 12 | (6/6) Accurately ripped 13 | (6/6) Accurately ripped 14 | (6/6) Accurately ripped 15 | (6/6) Accurately ripped 16 | (6/6) Accurately ripped 17 | (6/6) Accurately ripped 18 | (6/6) Accurately ripped 19 | (6/6) Accurately ripped 20 | (6/6) Accurately ripped
==== Log checksum B52C72F597F6D94DFD093801E6CF52F8B7E8AE48B22342F9F7286D054958C9C1 ====

Содержание индексной карты (.CUE)

REM GENRE SoundtrackREM DATE 1989REM DISCID 320EEA14REM COMMENT "ExactAudioCopy v1.0b3"PERFORMER "Ennio Morricone"TITLE "Fat Man And Little Boy (Disc 1)"FILE "Ennio Morricone - Fat Man And Little Boy (Disc 1) (LLLCD 1196).flac" WAVE TRACK 01 AUDIO TITLE "Above the Clouds" PERFORMER "Ennio Morricone" INDEX 01 00:00:00 TRACK 02 AUDIO TITLE "Fat Man Logo; Main Titles; Mysterious Meeting; A Faustian Bargain; Arrival at Camp" PERFORMER "Ennio Morricone" INDEX 00 05:58:29 INDEX 01 06:01:50 TRACK 03 AUDIO TITLE "Fat Man and Little Boy; We Are People, Not Numbers" PERFORMER "Ennio Morricone" INDEX 01 12:50:19 TRACK 04 AUDIO TITLE "2 A.M. News; Grove's Advantage; First Accident" PERFORMER "Ennio Morricone" INDEX 01 15:32:28 TRACK 05 AUDIO TITLE "No Options; Madness and Suspicion; Oppie's Reflections" PERFORMER "Ennio Morricone" INDEX 00 17:54:37 INDEX 01 17:57:02 TRACK 06 AUDIO TITLE "One Thousand Times Love; Love is Ended" PERFORMER "Ennio Morricone" INDEX 00 21:10:52 INDEX 01 21:11:57 TRACK 07 AUDIO TITLE "Icy Fusion Fizzles" PERFORMER "Ennio Morricone" INDEX 00 25:43:06 INDEX 01 25:44:24 TRACK 08 AUDIO TITLE "Groves' Madness" PERFORMER "Ennio Morricone" INDEX 00 26:47:13 INDEX 01 26:49:07 TRACK 09 AUDIO TITLE "Implosion Test; Bad News & In the Tank" PERFORMER "Ennio Morricone" INDEX 00 28:38:24 INDEX 01 28:39:44 TRACK 10 AUDIO TITLE "Human Indecision" PERFORMER "Ennio Morricone" INDEX 00 30:25:51 INDEX 01 30:27:27 TRACK 11 AUDIO TITLE "Give 'Em Dignity; Secret File; Guillotine" PERFORMER "Ennio Morricone" INDEX 00 33:42:10 INDEX 01 33:43:65 TRACK 12 AUDIO TITLE "Second Explosion; Presure Oppie; Oppie's Indecision; Against the Test" PERFORMER "Ennio Morricone" INDEX 00 35:54:64 INDEX 01 35:56:53 TRACK 13 AUDIO TITLE "In the Train" PERFORMER "Ennio Morricone" INDEX 00 39:40:36 INDEX 01 39:42:30 TRACK 14 AUDIO TITLE "Critical Mass; Innocent Love" PERFORMER "Ennio Morricone" INDEX 00 42:03:40 INDEX 01 42:06:49 TRACK 15 AUDIO TITLE "Merriman's Accident" PERFORMER "Ennio Morricone" INDEX 00 44:23:25 INDEX 01 44:25:51 TRACK 16 AUDIO TITLE "Will to Survive" PERFORMER "Ennio Morricone" INDEX 00 47:03:65 INDEX 01 47:06:14 TRACK 17 AUDIO TITLE "Why Me?" PERFORMER "Ennio Morricone" INDEX 00 49:27:30 INDEX 01 49:29:34 TRACK 18 AUDIO TITLE "Do It! - It's A Go! - Kathleen's Goodbye" PERFORMER "Ennio Morricone" INDEX 00 51:52:14 INDEX 01 51:54:02 TRACK 19 AUDIO TITLE "Hiroshima And Nagasaki" PERFORMER "Ennio Morricone" INDEX 00 54:45:10 INDEX 01 54:47:25 TRACK 20 AUDIO TITLE "Finale; End Title (Film Version)" PERFORMER "Ennio Morricone" INDEX 00 57:49:05 INDEX 01 57:55:29

Disc 2 - Source Cues + Alternates


★★ DISC TWO • SOURCES CUES ★★
01. First Expectation [1:27]
02. Piano Source [0:44]
03. Celebration [1:03]
04. Fireworks [1:48]
05. Slow Dancing [0:39]
06. Go Dancing [1:26]
07. Radiation Blues* [1:38]
08. Sonata #17 in D Minor (Op. 31 No. 2, 'Tempest') Beethoven [1:05]
09. Danse Villageoise (from 'Dix Pieces Pittoresques') Chabrier [1:14]
★★ ALTERNATES ★★
10. We Must Not Forget [6:19]
11. Mysterious Meeting [0:55]
12. A Faustian Bargain [1:43]
13. Icy Fusion Fizzles [1:03]
14. Final Celebration [1:43]
15. Higher And Higher [5:53]
16. Innocent Love [1:36]
17. Why Me? [2:25]
18. Final Celebration [1:45]
19. One Hope [6:04]

Лог создания рипа

Exact Audio Copy V1.0 beta 3 from 29. August 2011
EAC extraction logfile from 26. September 2014, 11:32
Ennio Morricone / Fat Man And Little Boy (Disc 2)
Used drive : TSSTcorpCDDVDW SN-S082N Adapter: 3 ID: 0
Read mode : SecureUtilize accurate stream : YesDefeat audio cache : YesMake use of C2 pointers : No
Read offset correction : 6Overread into Lead-In and Lead-Out : NoFill up missing offset samples with silence : YesDelete leading and trailing silent blocks : NoNull samples used in CRC calculations : YesUsed interface : Native Win32 interface for Win NT & 2000
Used output format : Internal WAV RoutinesSample format : 44.100 Hz; 16 Bit; Stereo
TOC of the extracted CD
Track | Start | Length | Start sector | End sector --------------------------------------------------------- 1 | 0:00.00 | 1:27.36 | 0 | 6560 2 | 1:27.36 | 0:43.57 | 6561 | 9842 3 | 2:11.18 | 1:03.09 | 9843 | 14576 4 | 3:14.27 | 1:47.21 | 14577 | 22622 5 | 5:01.48 | 0:38.61 | 22623 | 25533 6 | 5:40.34 | 1:27.07 | 25534 | 32065 7 | 7:07.41 | 1:38.08 | 32066 | 39423 8 | 8:45.49 | 1:04.16 | 39424 | 44239 9 | 9:49.65 | 1:21.67 | 44240 | 50381 10 | 11:11.57 | 6:11.54 | 50382 | 78260 11 | 17:23.36 | 0:55.39 | 78261 | 82424 12 | 18:19.00 | 1:42.46 | 82425 | 90120 13 | 20:01.46 | 1:04.06 | 90121 | 94926 14 | 21:05.52 | 1:41.60 | 94927 | 102561 15 | 22:47.37 | 5:52.64 | 102562 | 129025 16 | 28:40.26 | 1:34.58 | 129026 | 136133 17 | 30:15.09 | 2:27.04 | 136134 | 147162 18 | 32:42.13 | 1:42.56 | 147163 | 154868 19 | 34:24.69 | 6:02.09 | 154869 | 182027
Range status and errors
Selected range
Filename D:\Ennio Morricone (1989) Fat Man and Little Boy\Ennio Morricone - Fat Man And Little Boy (Disc 2) (LLLCD 1196).wav
Peak level 83.0 % Extraction speed 1.1 X Range quality 100.0 % Test CRC DB24A9AF Copy CRC DB24A9AF Copy OK
No errors occurred
AccurateRip summary
Track 1 accurately ripped (confidence 11) [F44963CF] (AR v2)Track 2 accurately ripped (confidence 11) [12717445] (AR v2)Track 3 accurately ripped (confidence 11) [9FBA0F59] (AR v2)Track 4 accurately ripped (confidence 11) [7D613303] (AR v2)Track 5 accurately ripped (confidence 11) [AD11CE9A] (AR v2)Track 6 accurately ripped (confidence 11) [EDE26841] (AR v2)Track 7 accurately ripped (confidence 11) [7C3106F4] (AR v2)Track 8 accurately ripped (confidence 11) [8872E3D1] (AR v2)Track 9 accurately ripped (confidence 11) [DD2C6F1C] (AR v2)Track 10 accurately ripped (confidence 11) [060400F4] (AR v2)Track 11 accurately ripped (confidence 11) [6432F48C] (AR v2)Track 12 accurately ripped (confidence 11) [D624B074] (AR v2)Track 13 accurately ripped (confidence 11) [E135173C] (AR v2)Track 14 accurately ripped (confidence 11) [B6C59BB6] (AR v2)Track 15 accurately ripped (confidence 11) [A758862B] (AR v2)Track 16 accurately ripped (confidence 11) [DA58DC40] (AR v2)Track 17 accurately ripped (confidence 11) [5AB8800D] (AR v2)Track 18 accurately ripped (confidence 11) [FCDB651D] (AR v2)Track 19 accurately ripped (confidence 11) [401EAFD8] (AR v2)
All tracks accurately ripped
End of status report
---- CUETools DB Plugin V2.1.4
[CTDB TOCID: vsYIV_Z.K5LHwE6FmY5C2Qv4nu4-] foundSubmit result: vsYIV_Z.K5LHwE6FmY5C2Qv4nu4- has been confirmedTrack | CTDB Status 1 | (5/5) Accurately ripped 2 | (5/5) Accurately ripped 3 | (5/5) Accurately ripped 4 | (5/5) Accurately ripped 5 | (5/5) Accurately ripped 6 | (5/5) Accurately ripped 7 | (5/5) Accurately ripped 8 | (5/5) Accurately ripped 9 | (5/5) Accurately ripped 10 | (5/5) Accurately ripped 11 | (5/5) Accurately ripped 12 | (5/5) Accurately ripped 13 | (5/5) Accurately ripped 14 | (5/5) Accurately ripped 15 | (5/5) Accurately ripped 16 | (5/5) Accurately ripped 17 | (5/5) Accurately ripped 18 | (5/5) Accurately ripped 19 | (5/5) Accurately ripped
==== Log checksum 6628A248C7CEFEE9733A59F2ED5ED2BC7B0D4CB7639630530FC14581401D148A ====

Содержание индексной карты (.CUE)

REM GENRE SoundtrackREM DATE 1989REM DISCID EA097B13REM COMMENT "ExactAudioCopy v1.0b3"PERFORMER "Ennio Morricone"TITLE "Fat Man And Little Boy (Disc 2)"FILE "Ennio Morricone - Fat Man And Little Boy (Disc 2) (LLLCD 1196).flac" WAVE TRACK 01 AUDIO TITLE "First Expectation" PERFORMER "Ennio Morricone" INDEX 01 00:00:00 TRACK 02 AUDIO TITLE "Piano Source" PERFORMER "Ennio Morricone" INDEX 00 01:25:31 INDEX 01 01:27:36 TRACK 03 AUDIO TITLE "Celebration" PERFORMER "Ennio Morricone" INDEX 00 02:09:10 INDEX 01 02:11:18 TRACK 04 AUDIO TITLE "Fireworks" PERFORMER "Ennio Morricone" INDEX 00 03:11:65 INDEX 01 03:14:27 TRACK 05 AUDIO TITLE "Slow Dancing" PERFORMER "Ennio Morricone" INDEX 00 04:59:73 INDEX 01 05:01:48 TRACK 06 AUDIO TITLE "Go Dancing" PERFORMER "Ennio Morricone" INDEX 00 05:39:22 INDEX 01 05:40:34 TRACK 07 AUDIO TITLE "Radiation Blues" PERFORMER "Ennio Morricone" INDEX 00 07:05:42 INDEX 01 07:07:41 TRACK 08 AUDIO TITLE "Sonata #17 in D Major (Beethoven)" PERFORMER "Ennio Morricone" INDEX 00 08:43:41 INDEX 01 08:45:49 TRACK 09 AUDIO TITLE "Danse Villageoise (Chabrier)" PERFORMER "Ennio Morricone" INDEX 00 09:48:62 INDEX 01 09:49:65 TRACK 10 AUDIO TITLE "We Must Not Forget" PERFORMER "Ennio Morricone" INDEX 00 11:03:25 INDEX 01 11:11:57 TRACK 11 AUDIO TITLE "Mysterious Meeting" PERFORMER "Ennio Morricone" INDEX 00 17:22:01 INDEX 01 17:23:36 TRACK 12 AUDIO TITLE "A Faustian Bargain" PERFORMER "Ennio Morricone" INDEX 00 18:17:11 INDEX 01 18:19:00 TRACK 13 AUDIO TITLE "Icy Fusion Fizzles" PERFORMER "Ennio Morricone" INDEX 00 19:59:57 INDEX 01 20:01:46 TRACK 14 AUDIO TITLE "Final Celebration" PERFORMER "Ennio Morricone" INDEX 00 21:02:30 INDEX 01 21:05:52 TRACK 15 AUDIO TITLE "Higher and Higher" PERFORMER "Ennio Morricone" INDEX 00 22:45:13 INDEX 01 22:47:37 TRACK 16 AUDIO TITLE "Innocent Love" PERFORMER "Ennio Morricone" INDEX 00 28:37:64 INDEX 01 28:40:26 TRACK 17 AUDIO TITLE "Why Me?" PERFORMER "Ennio Morricone" INDEX 00 30:13:50 INDEX 01 30:15:09 TRACK 18 AUDIO TITLE "Final Celebration" PERFORMER "Ennio Morricone" INDEX 00 32:38:50 INDEX 01 32:42:13 TRACK 19 AUDIO TITLE "One Hope" PERFORMER "Ennio Morricone" INDEX 00 34:23:35 INDEX 01 34:24:69
[teatrix.ru].t10417.torrent 
Торрент: Зарегистрирован [ 2015-11-01 20:51 ] · DEF0CF056EB6A8BAFE29C47FAD5CDFF523A88023

Скачать .torrent

Скачать

13 KB

Статус: проверено
Скачан: 0 раз
Размер: 1.08 GB
terms.php



Быстрый ответ

Имя:

      
Для отправки сообщений необходимо включить JavaScript
Показать сообщения:    

Текущее время: 03-Дек 01:21

Часовой пояс: UTC + 3


Вы можете начинать темы
Вы можете отвечать на сообщения
Вы не можете редактировать свои сообщения
Вы не можете удалять свои сообщения
Вы не можете голосовать в опросах
Вы не можете прикреплять файлы к сообщениям
Вы можете скачивать файлы