(Soundtrack) Канкан / Кан-кан / Can-Can (by Cole Porter) - 1989, FLAC (image+.cue), lossless


Статистика раздачи [Обновить пиров]
Размер:  130 MB   |    Зарегистрирован:  1 год 2 месяца   |    Скачан:  1 раз

Полного источника не было: 6 месяцев 26 дней

 
   
 
 
 

[Цитировать]

Канкан (Кан-кан) / Can-Can Жанр: Soundtrack
Композитор: Cole Porter
Год выпуска диска: 1989
Год выпуска фильма: 1960
Издатель (лейбл): World Music
Номер по каталогу: WM 88009
Аудиокодек: FLAC (*.flac)
Тип рипа: image+.cue
Битрейт аудио: lossless
Продолжительность: 32:01
Rip by luckburz
Наличие сканов в содержимом раздачи: да
Треклист:
01. Entr' Acte (Orchestra) (3:20)
02. It's All Right With Me (Frank Sinatra) (4:14)
03. Come Along With Me (Shirley MacLaine) (3:04)
04. Live And Let Live (Maurice Chevalier & Louis Jordan) (1:50)
05. You Do Something To Me (Louis Jordan) (1:58)
06. Let's Do It (Frank Sinatra & Shirley MacLaine) (2:48)
07. Main Title / I Love Paris / Montmart' (Frank Sinatra, Maurice Chevalier & Chorus) (2:59)
08. C'est Magnifique (Frank Sinatra) (2:00)
09. Maidens Typical Of France (Various) (2:02)
10. Just One Of Thoses Things (Maurice Chevalier) (2:08)
11. I Love Paris (Frank Sinatra & Maurice Chevalier) (2:20)
12. Can-Can (Orchestra) (3:18)

Лог создания рипа

Exact Audio Copy V1.0 beta 3 from 29. August 2011
EAC extraction logfile from 15. September 2013, 10:39
Frank Sinatra, Shirley McLaine, Maurice Chevalier, Louis Jordan & Nelson Riddle Orchestra / Can-Can
Used drive : PIONEER BD-RW BDR-206 Adapter: 0 ID: 2
Read mode : SecureUtilize accurate stream : YesDefeat audio cache : YesMake use of C2 pointers : No
Read offset correction : 667Overread into Lead-In and Lead-Out : NoFill up missing offset samples with silence : YesDelete leading and trailing silent blocks : NoNull samples used in CRC calculations : YesUsed interface : Native Win32 interface for Win NT & 2000
Used output format : User Defined EncoderSelected bitrate : 1024 kBit/sQuality : HighAdd ID3 tag : YesCommand line compressor : C:\Program Files\FLAC\flac.exeAdditional command line options : -5 -T "Artist=%artist%" -T "Title=%title%" -T "Album=%albumtitle%" -T "Date=%year%" -T "Tracknumber=%tracknr%" -T "Genre=%genre%" %source% -o %dest%
TOC of the extracted CD
Track | Start | Length | Start sector | End sector --------------------------------------------------------- 1 | 0:00.32 | 3:20.30 | 32 | 15061 2 | 3:20.62 | 4:13.48 | 15062 | 34084 3 | 7:34.35 | 3:04.05 | 34085 | 47889 4 | 10:38.40 | 1:50.17 | 47890 | 56156 5 | 12:28.57 | 1:57.40 | 56157 | 64971 6 | 14:26.22 | 2:47.55 | 64972 | 77551 7 | 17:14.02 | 2:58.48 | 77552 | 90949 8 | 20:12.50 | 1:59.60 | 90950 | 99934 9 | 22:12.35 | 2:02.17 | 99935 | 109101 10 | 24:14.52 | 2:07.50 | 109102 | 118676 11 | 26:22.27 | 2:20.20 | 118677 | 129196 12 | 28:42.47 | 3:18.23 | 129197 | 144069
Range status and errors
Selected range
Filename F:\=== VINYL RIPS ===\=== EAC===\X FRESH RIP\Frank Sinatra, Shirley McLaine, Maurice Chevalier, Louis Jordan & Nelson Riddle Orchestra - Can-Can.wav
Peak level 72.5 % Extraction speed 6.2 X Range quality 99.9 % Test CRC 4AF7864D Copy CRC 4AF7864D Copy OK
No errors occurred
AccurateRip summary
Track 1 accurately ripped (confidence 2) [E2CED630] (AR v1)Track 2 accurately ripped (confidence 2) [0289D254] (AR v1)Track 3 accurately ripped (confidence 2) [7E823768] (AR v1)Track 4 accurately ripped (confidence 2) [DE29E93D] (AR v1)Track 5 accurately ripped (confidence 2) [E1A1DBAD] (AR v1)Track 6 accurately ripped (confidence 2) [D0BC0783] (AR v1)Track 7 accurately ripped (confidence 2) [18EA42F6] (AR v1)Track 8 accurately ripped (confidence 2) [9A0125D0] (AR v1)Track 9 accurately ripped (confidence 2) [51A49F5F] (AR v1)Track 10 accurately ripped (confidence 2) [8986AD50] (AR v1)Track 11 accurately ripped (confidence 2) [A59E6BB5] (AR v1)Track 12 accurately ripped (confidence 2) [61DDCEDC] (AR v1)
All tracks accurately ripped
End of status report
---- CUETools DB Plugin V2.1.3
[CTDB TOCID: T2VURolUOKPoRkF3EZgmt18lz0A-] disk not present in database, Submit result: discs with pregaps not supported in this protocol version
==== Log checksum A8C10CC5BE65A49E3827C7BFB58AB4F83EEEAC187868589D18E3F5D97F94C48E ====
[teatrix.ru].t10418.torrent 
Торрент: Зарегистрирован [ 2015-11-01 20:51 ] · A2C4A0FC29F82468A667B9C380730F34C324891D

Скачать .torrent

Скачать

4 KB

Статус: проверено
Скачан: 1 раз
Размер: 130 MB
terms.php



Быстрый ответ

Имя:

      
Для отправки сообщений необходимо включить JavaScript
Показать сообщения:    

Текущее время: 19-Янв 16:05

Часовой пояс: UTC + 3


Вы можете начинать темы
Вы можете отвечать на сообщения
Вы не можете редактировать свои сообщения
Вы не можете удалять свои сообщения
Вы не можете голосовать в опросах
Вы не можете прикреплять файлы к сообщениям
Вы можете скачивать файлы