(Score) Грань: Сезоны 1-5 / Fringe: Seasons 1-5 (Michael Giacchino, Chris Tilton, Chad Seiter) - 2010-2013, FLAC (tracks+.cue), lossless


Статистика раздачи [Обновить пиров]
Размер:  1.48 GB   |    Зарегистрирован:  1 год 1 месяц   |    Скачан:  0 раз

Полного источника не было: Никогда

 
   
 
 
 

[Цитировать]

Original Television Soundtrack S E A S O N
1-5
Music by Michael Giacchino, Chris Tilton, Chad SeiterЖанр: ScoreСтрана: USAГод издания: 2010-2013Аудио кодек: FLAC (tracks+.cue)
Битрейт аудио: losslessИсточник (релизер): what.cd (nazgul68)Продолжительность: 06:20:44
-

2010 - Season 1 (Michael Giacchino, Chris Tilton, Chad Seiter) [Varèse Sarabande 302 067 013 2] - 24 / 70:46

01. Fringe Main Title Theme (00:35)
02. Logan's Run (00:55)
03. The Bishop of Essex County (02:28)
04. Transfusion Triumph (01:44)
05. Steig on the Run (01:40)
06. I See Frozen People (03:39)
07. Waking Strife (02:20)
08. Why Can't I Be Goo? (03:36)
09. The Shocking Dead (02:38)
10. The Chess Club (02:14)
11. The Equation (02:14)
12. The Dreamscape (06:55)
13. The Light Fantastic (04:33)
14. Gurney for Your Thoughts (05:25)
15. Masters of the Multiverse (02:01)
16. Now That's Just Nicked Up (01:20)
17. Simultaneous Combustion (02:35)
18. Sanford and Shunned (04:00)
19. A Destroyed Life (03:24)
20. Keeping Up With the Jones (01:35)
21. There's More Than One of Everything (01:50)
22. Connecting the Fringe-Cidents (05:28)
23. Reiden Out the Storm (03:58)
24. All Along the Bell Towers (03:30)

Лог создания рипа

Exact Audio Copy V0.99 prebeta 5 from 4. May 2009
EAC extraction logfile from 29. April 2010, 19:57
Various / Fringe Season 1
Used drive : Optiarc DVD RW AD-7241S Adapter: 1 ID: 1
Read mode : SecureUtilize accurate stream : YesDefeat audio cache : YesMake use of C2 pointers : No
Read offset correction : 48Overread into Lead-In and Lead-Out : NoFill up missing offset samples with silence : YesDelete leading and trailing silent blocks : NoNull samples used in CRC calculations : YesUsed interface : Native Win32 interface for Win NT & 2000Gap handling : Appended to previous track
Used output format : User Defined EncoderSelected bitrate : 128 kBit/sQuality : HighAdd ID3 tag : NoCommand line compressor : C:\Program Files (x86)\Exact Audio Copy\Flac\flac.exeAdditional command line options : -8 -V -T "artist=%a" -T "title=%t" -T "album=%g" -T "date=%y" -T "tracknumber=%n" -T "genre=%m" %s
TOC of the extracted CD
Track | Start | Length | Start sector | End sector --------------------------------------------------------- 1 | 0:00.00 | 0:35.27 | 0 | 2651 2 | 0:35.27 | 0:55.22 | 2652 | 6798 3 | 1:30.49 | 2:28.15 | 6799 | 17913 4 | 3:58.64 | 1:44.22 | 17914 | 25735 5 | 5:43.11 | 1:40.50 | 25736 | 33285 6 | 7:23.61 | 3:39.05 | 33286 | 49715 7 | 11:02.66 | 2:20.38 | 49716 | 60253 8 | 13:23.29 | 3:36.29 | 60254 | 76482 9 | 16:59.58 | 2:38.41 | 76483 | 88373 10 | 19:38.24 | 2:14.32 | 88374 | 98455 11 | 21:52.56 | 2:14.03 | 98456 | 108508 12 | 24:06.59 | 6:55.08 | 108509 | 139641 13 | 31:01.67 | 4:33.06 | 139642 | 160122 14 | 35:34.73 | 5:25.55 | 160123 | 184552 15 | 41:00.53 | 2:01.13 | 184553 | 193640 16 | 43:01.66 | 1:20.48 | 193641 | 199688 17 | 44:22.39 | 2:35.16 | 199689 | 211329 18 | 46:57.55 | 4:00.52 | 211330 | 229381 19 | 50:58.32 | 3:24.42 | 229382 | 244723 20 | 54:22.74 | 1:35.25 | 244724 | 251873 21 | 55:58.24 | 1:50.29 | 251874 | 260152 22 | 57:48.53 | 5:28.67 | 260153 | 284819 23 | 63:17.45 | 3:58.09 | 284820 | 302678 24 | 67:15.54 | 3:30.23 | 302679 | 318451
Track 1
Filename C:\Users\chris\Desktop\Rips\01 - Fringe Main Title Theme.wav
Pre-gap length 0:00:02.00
Peak level 99.9 % Track quality 100.0 % Test CRC 70EDBF9D Copy CRC 70EDBF9D Track not present in AccurateRip database Copy OK
Track 2
Filename C:\Users\chris\Desktop\Rips\02 - Logan's Run.wav
Peak level 99.9 % Track quality 100.0 % Test CRC 8C9A21B5 Copy CRC 8C9A21B5 Track not present in AccurateRip database Copy OK
Track 3
Filename C:\Users\chris\Desktop\Rips\03 - The Bishop of Essex County.wav
Pre-gap length 0:00:01.35
Peak level 99.7 % Track quality 100.0 % Test CRC 5869118B Copy CRC 5869118B Track not present in AccurateRip database Copy OK
Track 4
Filename C:\Users\chris\Desktop\Rips\04 - Transfusion Triumph.wav
Pre-gap length 0:00:01.71
Peak level 91.7 % Track quality 99.8 % Test CRC BC329333 Copy CRC BC329333 Track not present in AccurateRip database Copy OK
Track 5
Filename C:\Users\chris\Desktop\Rips\05 - Steig on the Run.wav
Pre-gap length 0:00:00.73
Peak level 97.6 % Track quality 100.0 % Test CRC C9124637 Copy CRC C9124637 Track not present in AccurateRip database Copy OK
Track 6
Filename C:\Users\chris\Desktop\Rips\06 - I See Frozen People.wav
Pre-gap length 0:00:01.73
Peak level 99.9 % Track quality 100.0 % Test CRC 9E462623 Copy CRC 9E462623 Track not present in AccurateRip database Copy OK
Track 7
Filename C:\Users\chris\Desktop\Rips\07 - Waking Strife.wav
Peak level 87.6 % Track quality 100.0 % Test CRC 018672D5 Copy CRC 018672D5 Track not present in AccurateRip database Copy OK
Track 8
Filename C:\Users\chris\Desktop\Rips\08 - Why Can't I Be Goo .wav
Pre-gap length 0:00:01.13
Peak level 99.9 % Track quality 100.0 % Test CRC 8E89F5E2 Copy CRC 8E89F5E2 Track not present in AccurateRip database Copy OK
Track 9
Filename C:\Users\chris\Desktop\Rips\09 - The Shocking Dead.wav
Pre-gap length 0:00:02.37
Peak level 99.8 % Track quality 100.0 % Test CRC 7BA2F56F Copy CRC 7BA2F56F Track not present in AccurateRip database Copy OK
Track 10
Filename C:\Users\chris\Desktop\Rips\10 - The Chess Club.wav
Pre-gap length 0:00:00.72
Peak level 99.9 % Track quality 100.0 % Test CRC 18FBF91F Copy CRC 18FBF91F Track not present in AccurateRip database Copy OK
Track 11
Filename C:\Users\chris\Desktop\Rips\11 - The Equation.wav
Pre-gap length 0:00:01.35
Peak level 65.6 % Track quality 100.0 % Test CRC 500C951C Copy CRC 500C951C Track not present in AccurateRip database Copy OK
Track 12
Filename C:\Users\chris\Desktop\Rips\12 - The Dreamscape.wav
Pre-gap length 0:00:00.73
Peak level 99.9 % Track quality 100.0 % Test CRC 29CF3811 Copy CRC 29CF3811 Track not present in AccurateRip database Copy OK
Track 13
Filename C:\Users\chris\Desktop\Rips\13 - The Light Fantastic.wav
Pre-gap length 0:00:00.52
Peak level 97.6 % Track quality 100.0 % Test CRC E26AEF1B Copy CRC E26AEF1B Track not present in AccurateRip database Copy OK
Track 14
Filename C:\Users\chris\Desktop\Rips\14 - Gurney for Your Thoughts.wav
Peak level 99.9 % Track quality 99.9 % Test CRC 37C53387 Copy CRC 37C53387 Track not present in AccurateRip database Copy OK
Track 15
Filename C:\Users\chris\Desktop\Rips\15 - Masters of the Multiverse.wav
Pre-gap length 0:00:01.34
Peak level 99.9 % Track quality 99.9 % Test CRC C145FB6C Copy CRC C145FB6C Track not present in AccurateRip database Copy OK
Track 16
Filename C:\Users\chris\Desktop\Rips\16 - Now That's Just Nicked Up.wav
Pre-gap length 0:00:00.72
Peak level 99.8 % Track quality 100.0 % Test CRC C012E28E Copy CRC C012E28E Track not present in AccurateRip database Copy OK
Track 17
Filename C:\Users\chris\Desktop\Rips\17 - Simultaneous Combustion.wav
Peak level 99.8 % Track quality 100.0 % Test CRC 15F5B510 Copy CRC 15F5B510 Track not present in AccurateRip database Copy OK
Track 18
Filename C:\Users\chris\Desktop\Rips\18 - Sanford and Shunned.wav
Pre-gap length 0:00:01.71
Peak level 99.9 % Track quality 100.0 % Test CRC 42777372 Copy CRC 42777372 Track not present in AccurateRip database Copy OK
Track 19
Filename C:\Users\chris\Desktop\Rips\19 - A Destroyed Life.wav
Pre-gap length 0:00:00.48
Peak level 66.6 % Track quality 99.9 % Test CRC 49E9161E Copy CRC 49E9161E Track not present in AccurateRip database Copy OK
Track 20
Filename C:\Users\chris\Desktop\Rips\20 - Keeping Up With the Jones.wav
Pre-gap length 0:00:00.72
Peak level 99.9 % Track quality 100.0 % Test CRC 0925DDA9 Copy CRC 0925DDA9 Track not present in AccurateRip database Copy OK
Track 21
Filename C:\Users\chris\Desktop\Rips\21 - There's More Than One of Everything.wav
Pre-gap length 0:00:01.11
Peak level 99.7 % Track quality 100.0 % Test CRC 80C6EA54 Copy CRC 80C6EA54 Track not present in AccurateRip database Copy OK
Track 22
Filename C:\Users\chris\Desktop\Rips\22 - Connecting the Fringe-Cidents.wav
Pre-gap length 0:00:01.33
Peak level 99.9 % Track quality 100.0 % Test CRC FEBBAFBF Copy CRC FEBBAFBF Track not present in AccurateRip database Copy OK
Track 23
Filename C:\Users\chris\Desktop\Rips\23 - Reiden Out the Storm.wav
Peak level 99.9 % Track quality 100.0 % Test CRC 574531BD Copy CRC 574531BD Track not present in AccurateRip database Copy OK
Track 24
Filename C:\Users\chris\Desktop\Rips\24 - All Along the Bell Towers.wav
Pre-gap length 0:00:00.72
Peak level 99.9 % Track quality 100.0 % Test CRC BAC4F451 Copy CRC BAC4F451 Track not present in AccurateRip database Copy OK
None of the tracks are present in the AccurateRip database
No errors occurred
End of status report

Содержание индексной карты (.CUE)

REM GENRE SoundtrackREM DATE 2010REM DISCID 3C109618REM COMMENT "ExactAudioCopy v0.99pb5"PERFORMER "Various"TITLE "Fringe Season 1"FILE "01 - Fringe Main Title Theme.wav" WAVE TRACK 01 AUDIO TITLE "Fringe Main Title Theme" PERFORMER "J.J. Abrams" INDEX 01 00:00:00FILE "02 - Logan's Run.wav" WAVE TRACK 02 AUDIO TITLE "Logan's Run" PERFORMER "Chad Seiter" INDEX 01 00:00:00 TRACK 03 AUDIO TITLE "The Bishop of Essex County" PERFORMER "Michael Giacchino" INDEX 00 00:53:62FILE "03 - The Bishop of Essex County.wav" WAVE INDEX 01 00:00:00 TRACK 04 AUDIO TITLE "Transfusion Triumph" PERFORMER "Chad Seiter" INDEX 00 02:26:19FILE "04 - Transfusion Triumph.wav" WAVE INDEX 01 00:00:00 TRACK 05 AUDIO TITLE "Steig on the Run" PERFORMER "Chad Seiter" INDEX 00 01:43:24FILE "05 - Steig on the Run.wav" WAVE INDEX 01 00:00:00 TRACK 06 AUDIO TITLE "I See Frozen People" PERFORMER "Michael Giacchino" INDEX 00 01:38:52FILE "06 - I See Frozen People.wav" WAVE INDEX 01 00:00:00FILE "07 - Waking Strife.wav" WAVE TRACK 07 AUDIO TITLE "Waking Strife" PERFORMER "Chad Seiter" INDEX 01 00:00:00 TRACK 08 AUDIO TITLE "Why Can't I Be Goo?" PERFORMER "Chad Seiter" INDEX 00 02:19:25FILE "08 - Why Can't I Be Goo .wav" WAVE INDEX 01 00:00:00 TRACK 09 AUDIO TITLE "The Shocking Dead" PERFORMER "Chad Seiter" INDEX 00 03:33:67FILE "09 - The Shocking Dead.wav" WAVE INDEX 01 00:00:00 TRACK 10 AUDIO TITLE "The Chess Club" PERFORMER "Chad Seiter" INDEX 00 02:37:44FILE "10 - The Chess Club.wav" WAVE INDEX 01 00:00:00 TRACK 11 AUDIO TITLE "The Equation" PERFORMER "Chad Seiter" INDEX 00 02:12:72FILE "11 - The Equation.wav" WAVE INDEX 01 00:00:00 TRACK 12 AUDIO TITLE "The Dreamscape" PERFORMER "Chad Seiter" INDEX 00 02:13:05FILE "12 - The Dreamscape.wav" WAVE INDEX 01 00:00:00 TRACK 13 AUDIO TITLE "The Light Fantastic" PERFORMER "Chad Seiter" INDEX 00 06:54:31FILE "13 - The Light Fantastic.wav" WAVE INDEX 01 00:00:00FILE "14 - Gurney for Your Thoughts.wav" WAVE TRACK 14 AUDIO TITLE "Gurney for Your Thoughts" PERFORMER "Chris Tilton" INDEX 01 00:00:00 TRACK 15 AUDIO TITLE "Masters of the Multiverse" PERFORMER "Chris Tilton" INDEX 00 05:24:21FILE "15 - Masters of the Multiverse.wav" WAVE INDEX 01 00:00:00 TRACK 16 AUDIO TITLE "Now That's Just Nicked Up" PERFORMER "Chris Tilton" INDEX 00 02:00:16FILE "16 - Now That's Just Nicked Up.wav" WAVE INDEX 01 00:00:00FILE "17 - Simultaneous Combustion.wav" WAVE TRACK 17 AUDIO TITLE "Simultaneous Combustion" PERFORMER "Chris Tilton" INDEX 01 00:00:00 TRACK 18 AUDIO TITLE "Sanford and Shunned" PERFORMER "Chris Tilton" INDEX 00 02:33:20FILE "18 - Sanford and Shunned.wav" WAVE INDEX 01 00:00:00 TRACK 19 AUDIO TITLE "A Destroyed Life" PERFORMER "Chris Tilton" INDEX 00 04:00:04FILE "19 - A Destroyed Life.wav" WAVE INDEX 01 00:00:00 TRACK 20 AUDIO TITLE "Keeping Up With the Jones" PERFORMER "Chris Tilton" INDEX 00 03:23:45FILE "20 - Keeping Up With the Jones.wav" WAVE INDEX 01 00:00:00 TRACK 21 AUDIO TITLE "There's More Than One of Everything" PERFORMER "Chris Tilton" INDEX 00 01:34:14FILE "21 - There's More Than One of Everything.wav" WAVE INDEX 01 00:00:00 TRACK 22 AUDIO TITLE "Connecting the Fringe-Cidents" PERFORMER "Chris Tilton" INDEX 00 01:48:71FILE "22 - Connecting the Fringe-Cidents.wav" WAVE INDEX 01 00:00:00FILE "23 - Reiden Out the Storm.wav" WAVE TRACK 23 AUDIO TITLE "Reiden Out the Storm" PERFORMER "Chris Tilton" INDEX 01 00:00:00 TRACK 24 AUDIO TITLE "All Along the Bell Towers" PERFORMER "Chris Tilton" INDEX 00 03:57:12FILE "24 - All Along the Bell Towers.wav" WAVE INDEX 01 00:00:00

2011 - Season 2 (Chris Tilton, Michael Giacchino) [Varèse Sarabande 302 067 067 2] - 29 / 78:21

01. A New Day In The Old Town (01:44)
02. Good Ol’ Charlie (02:03)
03. The Coma-naut (05:27)
04. Hypnotic Suggestions (01:08)
05. Observers Everywhere Everytime (02:13)
06. Love And Death On Observer Island (03:24)
07. What A Gas (04:35)
08. Forest Of Dreams (03:27)
09. Where Dunham Fears To Tread (01:55)
10. The Building Theft (01:20)
11. The Window Of Opportunity (03:14)
12. Reiden Out To Madness (03:56)
13. Doppelganger Up on Reality (02:52)
14. Breach To The Choir (03:32)
15. Olivia’s Cross To Share (00:58)
16. Over There (02:14)
17. The Son Also Rises (02:05)
18. Devastation Nation (01:12)
19. Saved By The Belly (02:27)
20. Haste Makes Wasteland (01:36)
21. Quibbles And Fits (03:20)
22. Doubled Over (02:18)
23. Love In The Time Of Crossing Over (03:09)
24. Bells And Missiles (03:54)
25. Give My Regards To Fraudway (02:18)
26. End Title Theme (00:35)
27. Fringe 85 (00:25)
28. Red Russian Down (01:35)
29. Brown Betty Suite (09:09)

Лог создания рипа

Exact Audio Copy V0.99 prebeta 5 from 4. May 2009
EAC extraction logfile from 14. April 2011, 18:21
Various / Fringe: Season 2
Used drive : Optiarc DVD RW AD-7241S Adapter: 1 ID: 0
Read mode : SecureUtilize accurate stream : YesDefeat audio cache : YesMake use of C2 pointers : No
Read offset correction : 48Overread into Lead-In and Lead-Out : NoFill up missing offset samples with silence : YesDelete leading and trailing silent blocks : NoNull samples used in CRC calculations : YesUsed interface : Native Win32 interface for Win NT & 2000Gap handling : Appended to previous track
Used output format : User Defined EncoderSelected bitrate : 128 kBit/sQuality : HighAdd ID3 tag : NoCommand line compressor : C:\Program Files (x86)\Exact Audio Copy\Flac\flac.exeAdditional command line options : -8 -V -T "artist=%a" -T "title=%t" -T "album=%g" -T "date=%y" -T "tracknumber=%n" -T "genre=%m" %s
TOC of the extracted CD
Track | Start | Length | Start sector | End sector --------------------------------------------------------- 1 | 0:02.12 | 1:44.59 | 162 | 8020 2 | 1:46.71 | 2:03.05 | 8021 | 17250 3 | 3:50.01 | 5:27.46 | 17251 | 41821 4 | 9:17.47 | 1:08.53 | 41822 | 46974 5 | 10:26.25 | 2:13.52 | 46975 | 57001 6 | 12:40.02 | 3:24.46 | 57002 | 72347 7 | 16:04.48 | 4:35.09 | 72348 | 92981 8 | 20:39.57 | 3:27.42 | 92982 | 108548 9 | 24:07.24 | 1:55.68 | 108549 | 117241 10 | 26:03.17 | 1:20.18 | 117242 | 123259 11 | 27:23.35 | 3:14.22 | 123260 | 137831 12 | 30:37.57 | 3:56.70 | 137832 | 155601 13 | 34:34.52 | 2:52.72 | 155602 | 168573 14 | 37:27.49 | 3:32.72 | 168574 | 184545 15 | 41:00.46 | 0:58.50 | 184546 | 188945 16 | 41:59.21 | 2:14.56 | 188946 | 199051 17 | 44:14.02 | 2:05.11 | 199052 | 208437 18 | 46:19.13 | 1:12.63 | 208438 | 213900 19 | 47:32.01 | 2:27.38 | 213901 | 224963 20 | 49:59.39 | 1:36.71 | 224964 | 232234 21 | 51:36.35 | 3:20.18 | 232235 | 247252 22 | 54:56.53 | 2:18.08 | 247253 | 257610 23 | 57:14.61 | 3:09.43 | 257611 | 271828 24 | 60:24.29 | 3:54.69 | 271829 | 289447 25 | 64:19.23 | 2:18.09 | 289448 | 299806 26 | 66:37.32 | 0:35.50 | 299807 | 302481 27 | 67:13.07 | 0:25.55 | 302482 | 304411 28 | 67:38.62 | 1:35.43 | 304412 | 311579 29 | 69:14.30 | 9:09.20 | 311580 | 352774
Track 1
Filename C:\Users\chris\Desktop\Rips\01 - A New Day In The Old Town.wav
Pre-gap length 0:00:04.12
Peak level 96.2 % Track quality 100.0 % Test CRC 2E45C8D7 Copy CRC 2E45C8D7 Track not present in AccurateRip database Copy OK
Track 2
Filename C:\Users\chris\Desktop\Rips\02 - Good Ol’ Charlie.wav
Pre-gap length 0:00:00.67
Peak level 94.4 % Track quality 100.0 % Test CRC E1C728F6 Copy CRC E1C728F6 Track not present in AccurateRip database Copy OK
Track 3
Filename C:\Users\chris\Desktop\Rips\03 - The Coma-naut.wav
Pre-gap length 0:00:00.67
Peak level 98.6 % Track quality 100.0 % Test CRC FA21CDE9 Copy CRC FA21CDE9 Track not present in AccurateRip database Copy OK
Track 4
Filename C:\Users\chris\Desktop\Rips\04 - Hypnotic Suggestions.wav
Pre-gap length 0:00:00.67
Peak level 94.4 % Track quality 100.0 % Test CRC 87AA06D0 Copy CRC 87AA06D0 Track not present in AccurateRip database Copy OK
Track 5
Filename C:\Users\chris\Desktop\Rips\05 - Observers Everywhere Everytime.wav
Pre-gap length 0:00:00.67
Peak level 94.4 % Track quality 100.0 % Test CRC B188FA91 Copy CRC B188FA91 Track not present in AccurateRip database Copy OK
Track 6
Filename C:\Users\chris\Desktop\Rips\06 - Love And Death On Observer Island.wav
Pre-gap length 0:00:00.67
Peak level 47.3 % Track quality 100.0 % Test CRC 3F1FAE1D Copy CRC 3F1FAE1D Track not present in AccurateRip database Copy OK
Track 7
Filename C:\Users\chris\Desktop\Rips\07 - What A Gas.wav
Pre-gap length 0:00:00.67
Peak level 94.4 % Track quality 100.0 % Test CRC 632EF059 Copy CRC 632EF059 Track not present in AccurateRip database Copy OK
Track 8
Filename C:\Users\chris\Desktop\Rips\08 - Forest Of Dreams.wav
Pre-gap length 0:00:00.67
Peak level 94.4 % Track quality 99.9 % Test CRC 2678D20E Copy CRC 2678D20E Track not present in AccurateRip database Copy OK
Track 9
Filename C:\Users\chris\Desktop\Rips\09 - Where Dunham Fears To Tread.wav
Pre-gap length 0:00:00.67
Peak level 88.0 % Track quality 99.9 % Test CRC C12438DC Copy CRC C12438DC Track not present in AccurateRip database Copy OK
Track 10
Filename C:\Users\chris\Desktop\Rips\10 - The Building Theft.wav
Pre-gap length 0:00:00.67
Peak level 94.4 % Track quality 100.0 % Test CRC 5E55A5EC Copy CRC 5E55A5EC Track not present in AccurateRip database Copy OK
Track 11
Filename C:\Users\chris\Desktop\Rips\11 - The Window Of Opportunity.wav
Pre-gap length 0:00:00.67
Peak level 94.4 % Track quality 100.0 % Test CRC DFCC141C Copy CRC DFCC141C Track not present in AccurateRip database Copy OK
Track 12
Filename C:\Users\chris\Desktop\Rips\12 - Reiden Out To Madness.wav
Pre-gap length 0:00:00.67
Peak level 94.4 % Track quality 100.0 % Test CRC FF08C58F Copy CRC FF08C58F Track not present in AccurateRip database Copy OK
Track 13
Filename C:\Users\chris\Desktop\Rips\13 - Doppelganger Up on Reality.wav
Pre-gap length 0:00:00.67
Peak level 94.9 % Track quality 100.0 % Test CRC B1693860 Copy CRC B1693860 Track not present in AccurateRip database Copy OK
Track 14
Filename C:\Users\chris\Desktop\Rips\14 - Breach To The Choir.wav
Pre-gap length 0:00:00.67
Peak level 94.4 % Track quality 100.0 % Test CRC 5B071717 Copy CRC 5B071717 Track not present in AccurateRip database Copy OK
Track 15
Filename C:\Users\chris\Desktop\Rips\15 - Olivia’s Cross To Share.wav
Pre-gap length 0:00:00.67
Peak level 79.0 % Track quality 100.0 % Test CRC 94B0659B Copy CRC 94B0659B Track not present in AccurateRip database Copy OK
Track 16
Filename C:\Users\chris\Desktop\Rips\16 - Over There.wav
Pre-gap length 0:00:00.67
Peak level 98.9 % Track quality 100.0 % Test CRC 88824CDB Copy CRC 88824CDB Track not present in AccurateRip database Copy OK
Track 17
Filename C:\Users\chris\Desktop\Rips\17 - The Son Also Rises.wav
Pre-gap length 0:00:00.67
Peak level 96.8 % Track quality 100.0 % Test CRC 0DA64D94 Copy CRC 0DA64D94 Track not present in AccurateRip database Copy OK
Track 18
Filename C:\Users\chris\Desktop\Rips\18 - Devastation Nation.wav
Pre-gap length 0:00:00.67
Peak level 59.7 % Track quality 100.0 % Test CRC BE1D6663 Copy CRC BE1D6663 Track not present in AccurateRip database Copy OK
Track 19
Filename C:\Users\chris\Desktop\Rips\19 - Saved By The Belly.wav
Pre-gap length 0:00:00.56
Peak level 94.4 % Track quality 100.0 % Test CRC 22E7966A Copy CRC 22E7966A Track not present in AccurateRip database Copy OK
Track 20
Filename C:\Users\chris\Desktop\Rips\20 - Haste Makes Wasteland.wav
Pre-gap length 0:00:00.67
Peak level 94.9 % Track quality 99.8 % Test CRC 04156BDB Copy CRC 04156BDB Track not present in AccurateRip database Copy OK
Track 21
Filename C:\Users\chris\Desktop\Rips\21 - Quibbles And Fits.wav
Pre-gap length 0:00:00.67
Peak level 94.4 % Track quality 99.9 % Test CRC 3E9791BA Copy CRC 3E9791BA Track not present in AccurateRip database Copy OK
Track 22
Filename C:\Users\chris\Desktop\Rips\22 - Doubled Over.wav
Pre-gap length 0:00:00.67
Peak level 95.6 % Track quality 100.0 % Test CRC 0E02CCC3 Copy CRC 0E02CCC3 Track not present in AccurateRip database Copy OK
Track 23
Filename C:\Users\chris\Desktop\Rips\23 - Love In The Time Of Crossing Over.wav
Pre-gap length 0:00:00.67
Peak level 97.4 % Track quality 99.9 % Test CRC E29641B4 Copy CRC E29641B4 Track not present in AccurateRip database Copy OK
Track 24
Filename C:\Users\chris\Desktop\Rips\24 - Bells And Missiles.wav
Pre-gap length 0:00:00.67
Peak level 94.4 % Track quality 100.0 % Test CRC E702EB27 Copy CRC E702EB27 Track not present in AccurateRip database Copy OK
Track 25
Filename C:\Users\chris\Desktop\Rips\25 - Give My Regards To Fraudway.wav
Pre-gap length 0:00:00.67
Peak level 94.4 % Track quality 99.9 % Test CRC 8D04FB52 Copy CRC 8D04FB52 Track not present in AccurateRip database Copy OK
Track 26
Filename C:\Users\chris\Desktop\Rips\26 - End Title Theme.wav
Pre-gap length 0:00:00.67
Peak level 94.4 % Track quality 100.0 % Test CRC 41A8CF1D Copy CRC 41A8CF1D Track not present in AccurateRip database Copy OK
Track 27
Filename C:\Users\chris\Desktop\Rips\27 - Fringe 85.wav
Pre-gap length 0:00:04.65
Peak level 84.2 % Track quality 100.0 % Test CRC 1B1A69B2 Copy CRC 1B1A69B2 Track not present in AccurateRip database Copy OK
Track 28
Filename C:\Users\chris\Desktop\Rips\28 - Red Russian Down.wav
Pre-gap length 0:00:00.67
Peak level 94.4 % Track quality 100.0 % Test CRC EBE95244 Copy CRC EBE95244 Track not present in AccurateRip database Copy OK
Track 29
Filename C:\Users\chris\Desktop\Rips\29 - Brown Betty Suite.wav
Pre-gap length 0:00:00.67
Peak level 94.6 % Track quality 99.9 % Test CRC 7B6E889B Copy CRC 7B6E889B Track not present in AccurateRip database Copy OK
None of the tracks are present in the AccurateRip database
No errors occurred
End of status report

Содержание индексной карты (.CUE)

REM GENRE SoundtrackREM DATE 2011REM DISCID C1125D1DREM COMMENT "ExactAudioCopy v0.99pb5"PERFORMER "Various"TITLE "Fringe: Season 2"FILE "01 - A New Day In The Old Town.wav" WAVE TRACK 01 AUDIO TITLE "A New Day In The Old Town" PERFORMER "Chris Tilton" PREGAP 00:02:12 INDEX 01 00:00:00 TRACK 02 AUDIO TITLE "Good Ol’ Charlie" PERFORMER "Chris Tilton" INDEX 00 01:43:67FILE "02 - Good Ol’ Charlie.wav" WAVE INDEX 01 00:00:00 TRACK 03 AUDIO TITLE "The Coma-naut" PERFORMER "Chris Tilton" INDEX 00 02:02:13FILE "03 - The Coma-naut.wav" WAVE INDEX 01 00:00:00 TRACK 04 AUDIO TITLE "Hypnotic Suggestions" PERFORMER "Chris Tilton" INDEX 00 05:26:54FILE "04 - Hypnotic Suggestions.wav" WAVE INDEX 01 00:00:00 TRACK 05 AUDIO TITLE "Observers Everywhere Everytime" PERFORMER "Chris Tilton" INDEX 00 01:07:61FILE "05 - Observers Everywhere Everytime.wav" WAVE INDEX 01 00:00:00 TRACK 06 AUDIO TITLE "Love And Death On Observer Island" PERFORMER "Chris Tilton" INDEX 00 02:12:60FILE "06 - Love And Death On Observer Island.wav" WAVE INDEX 01 00:00:00 TRACK 07 AUDIO TITLE "What A Gas" PERFORMER "Chris Tilton" INDEX 00 03:23:54FILE "07 - What A Gas.wav" WAVE INDEX 01 00:00:00 TRACK 08 AUDIO TITLE "Forest Of Dreams" PERFORMER "Chris Tilton" INDEX 00 04:34:17FILE "08 - Forest Of Dreams.wav" WAVE INDEX 01 00:00:00 TRACK 09 AUDIO TITLE "Where Dunham Fears To Tread" PERFORMER "Chris Tilton" INDEX 00 03:26:50FILE "09 - Where Dunham Fears To Tread.wav" WAVE INDEX 01 00:00:00 TRACK 10 AUDIO TITLE "The Building Theft" PERFORMER "Chris Tilton" INDEX 00 01:55:01FILE "10 - The Building Theft.wav" WAVE INDEX 01 00:00:00 TRACK 11 AUDIO TITLE "The Window Of Opportunity" PERFORMER "Chris Tilton" INDEX 00 01:19:26FILE "11 - The Window Of Opportunity.wav" WAVE INDEX 01 00:00:00 TRACK 12 AUDIO TITLE "Reiden Out To Madness" PERFORMER "Chris Tilton" INDEX 00 03:13:30FILE "12 - Reiden Out To Madness.wav" WAVE INDEX 01 00:00:00 TRACK 13 AUDIO TITLE "Doppelganger Up on Reality" PERFORMER "Chris Tilton" INDEX 00 03:56:03FILE "13 - Doppelganger Up on Reality.wav" WAVE INDEX 01 00:00:00 TRACK 14 AUDIO TITLE "Breach To The Choir" PERFORMER "Chris Tilton" INDEX 00 02:52:05FILE "14 - Breach To The Choir.wav" WAVE INDEX 01 00:00:00 TRACK 15 AUDIO TITLE "Olivia’s Cross To Share" PERFORMER "Chris Tilton" INDEX 00 03:32:05FILE "15 - Olivia’s Cross To Share.wav" WAVE INDEX 01 00:00:00 TRACK 16 AUDIO TITLE "Over There" PERFORMER "Chris Tilton" INDEX 00 00:57:58FILE "16 - Over There.wav" WAVE INDEX 01 00:00:00 TRACK 17 AUDIO TITLE "The Son Also Rises" PERFORMER "Chris Tilton" INDEX 00 02:13:64FILE "17 - The Son Also Rises.wav" WAVE INDEX 01 00:00:00 TRACK 18 AUDIO TITLE "Devastation Nation" PERFORMER "Chris Tilton" INDEX 00 02:04:19FILE "18 - Devastation Nation.wav" WAVE INDEX 01 00:00:00 TRACK 19 AUDIO TITLE "Saved By The Belly" PERFORMER "Chris Tilton" INDEX 00 01:12:07FILE "19 - Saved By The Belly.wav" WAVE INDEX 01 00:00:00 TRACK 20 AUDIO TITLE "Haste Makes Wasteland" PERFORMER "Chris Tilton" INDEX 00 02:26:46FILE "20 - Haste Makes Wasteland.wav" WAVE INDEX 01 00:00:00 TRACK 21 AUDIO TITLE "Quibbles And Fits" PERFORMER "Chris Tilton" INDEX 00 01:36:04FILE "21 - Quibbles And Fits.wav" WAVE INDEX 01 00:00:00 TRACK 22 AUDIO TITLE "Doubled Over" PERFORMER "Chris Tilton" INDEX 00 03:19:26FILE "22 - Doubled Over.wav" WAVE INDEX 01 00:00:00 TRACK 23 AUDIO TITLE "Love In The Time Of Crossing Over" PERFORMER "Chris Tilton" INDEX 00 02:17:16FILE "23 - Love In The Time Of Crossing Over.wav" WAVE INDEX 01 00:00:00 TRACK 24 AUDIO TITLE "Bells And Missiles" PERFORMER "Chris Tilton" INDEX 00 03:08:51FILE "24 - Bells And Missiles.wav" WAVE INDEX 01 00:00:00 TRACK 25 AUDIO TITLE "Give My Regards To Fraudway" PERFORMER "Chris Tilton" INDEX 00 03:54:02FILE "25 - Give My Regards To Fraudway.wav" WAVE INDEX 01 00:00:00 TRACK 26 AUDIO TITLE "End Title Theme" PERFORMER "Michael Giacchino" INDEX 00 02:17:17FILE "26 - End Title Theme.wav" WAVE INDEX 01 00:00:00 TRACK 27 AUDIO TITLE "Fringe 85" PERFORMER "J.J. Abrams" INDEX 00 00:30:60FILE "27 - Fringe 85.wav" WAVE INDEX 01 00:00:00 TRACK 28 AUDIO TITLE "Red Russian Down" PERFORMER "Chris Tilton" INDEX 00 00:24:63FILE "28 - Red Russian Down.wav" WAVE INDEX 01 00:00:00 TRACK 29 AUDIO TITLE "Brown Betty Suite" PERFORMER "Chris Tilton" INDEX 00 01:34:51FILE "29 - Brown Betty Suite.wav" WAVE INDEX 01 00:00:00

2012 - Season 3 (Chris Tilton) [Varèse Sarabande 302 067 132 2] - 34 / 76:31

01. The Escape From Liberty Island (02:17)
02. Slow Motion Sickness (01:46)
03. Newton's Last Mission (01:50)
04. May The Best World Win (04:56)
05. Sneaking Sense Of Liberty (03:13)
06. Hot Brief Injection (01:22)
07. Capturing The Dunhams (03:39)
08. Take It To The Tank (02:08)
09. The Original Dunham (01:01)
10. I Thought She Was You (01:28)
11. My So-Called Strife (01:13)
12. Olivia (02:17)
13. The Firefly (01:44)
14. Best Chase Scenario (03:37)
15. The Observers (01:52)
16. Reciprocity (03:27)
17. The Persistence Of Walternate's Vision (02:16)
18. Imagination Building (03:19)
19. The House Of Birth (04:45)
20. Oppenheimer Maneuvers (01:00)
21. Wwpd (01:22)
22. Singe And Surge (01:53)
23. Peter (01:59)
24. Apocalypse In Judgement (00:41)
25. As The Crowbar Flies (01:09)
26. Wake Up And Smell The Catastrophe (01:33)
27. The Way The World Crumbles (04:50)
28. Walter Skelter (00:35)
29. A Universe For A Universe (02:24)
30. Funerla Pyre Straits (02:26)
31. The Mourning After (01:05)
32. We Are A Strange Loop (02:02)
33. The Vanishing Bishop (03:57)
34. Fringe Division (01:10)

Лог создания рипа

Exact Audio Copy V1.0 beta 3 from 29. August 2011
EAC extraction logfile from 27. April 2012, 17:11
Chris Tilton / Fringe: Season 3
Used drive : Optiarc DVD RW AD-7241S Adapter: 1 ID: 0
Read mode : SecureUtilize accurate stream : YesDefeat audio cache : YesMake use of C2 pointers : No
Read offset correction : 48Overread into Lead-In and Lead-Out : NoFill up missing offset samples with silence : YesDelete leading and trailing silent blocks : NoNull samples used in CRC calculations : YesUsed interface : Native Win32 interface for Win NT & 2000Gap handling : Appended to previous track
Used output format : User Defined EncoderSelected bitrate : 768 kBit/sQuality : HighAdd ID3 tag : NoCommand line compressor : C:\Program Files (x86)\Exact Audio Copy\FLAC\FLAC.EXEAdditional command line options : -8 -V -T "ARTIST=%artist%" -T "TITLE=%title%" -T "ALBUM=%albumtitle%" -T "DATE=%year%" -T "TRACKNUMBER=%tracknr%" -T "GENRE=%genre%" -T "PERFORMER=%albuminterpret%" -T "COMPOSER=%composer%" %haslyrics%--tag-from-file=LYRICS="%lyricsfile%"%haslyrics% -T "ALBUMARTIST=%albumartist%" -T "ALBUM ARTIST=%albumartist%" -T "DISCNUMBER=%cdnumber%" -T "TOTALDISCS=%totalcds%" -T "TOTALTRACKS=%numtracks%" -T "COMMENT=%comment%" %source% -o %dest%
TOC of the extracted CD
Track | Start | Length | Start sector | End sector --------------------------------------------------------- 1 | 0:00.00 | 2:17.16 | 0 | 10290 2 | 2:17.16 | 1:46.14 | 10291 | 18254 3 | 4:03.30 | 1:50.61 | 18255 | 26565 4 | 5:54.16 | 4:56.10 | 26566 | 48775 5 | 10:50.26 | 3:13.65 | 48776 | 63315 6 | 14:04.16 | 1:22.06 | 63316 | 69471 7 | 15:26.22 | 3:39.19 | 69472 | 85915 8 | 19:05.41 | 2:08.70 | 85916 | 95585 9 | 21:14.36 | 1:01.26 | 95586 | 100186 10 | 22:15.62 | 1:28.25 | 100187 | 106811 11 | 23:44.12 | 1:13.26 | 106812 | 112312 12 | 24:57.38 | 2:17.74 | 112313 | 122661 13 | 27:15.37 | 1:44.64 | 122662 | 130525 14 | 29:00.26 | 3:37.28 | 130526 | 146828 15 | 32:37.54 | 1:52.21 | 146829 | 155249 16 | 34:30.00 | 3:27.26 | 155250 | 170800 17 | 37:57.26 | 2:16.63 | 170801 | 181063 18 | 40:14.14 | 3:19.15 | 181064 | 196003 19 | 43:33.29 | 4:45.35 | 196004 | 217413 20 | 48:18.64 | 1:00.27 | 217414 | 221940 21 | 49:19.16 | 1:22.55 | 221941 | 228145 22 | 50:41.71 | 1:53.53 | 228146 | 236673 23 | 52:35.49 | 1:59.35 | 236674 | 245633 24 | 54:35.09 | 0:41.25 | 245634 | 248733 25 | 55:16.34 | 1:09.10 | 248734 | 253918 26 | 56:25.44 | 1:33.15 | 253919 | 260908 27 | 57:58.59 | 4:50.12 | 260909 | 282670 28 | 62:48.71 | 0:35.34 | 282671 | 285329 29 | 63:24.30 | 2:24.61 | 285330 | 296190 30 | 65:49.16 | 2:26.20 | 296191 | 307160 31 | 68:15.36 | 1:05.05 | 307161 | 312040 32 | 69:20.41 | 2:02.68 | 312041 | 321258 33 | 71:23.34 | 3:57.43 | 321259 | 339076 34 | 75:21.02 | 1:10.49 | 339077 | 344375
Track 1
Filename C:\Users\chris\Desktop\Rips\01 - The Escape From Liberty Island.wav
Pre-gap length 0:00:02.00
Peak level 97.7 % Extraction speed 2.2 X Track quality 100.0 % Test CRC E126A79B Copy CRC E126A79B Track not present in AccurateRip database Copy OK
Track 2
Filename C:\Users\chris\Desktop\Rips\02 - Slow Motion Sickness.wav
Peak level 97.7 % Extraction speed 2.1 X Track quality 100.0 % Test CRC 7C19A744 Copy CRC 7C19A744 Track not present in AccurateRip database Copy OK
Track 3
Filename C:\Users\chris\Desktop\Rips\03 - Newton's Last Mission.wav
Peak level 97.7 % Extraction speed 2.2 X Track quality 100.0 % Test CRC 62EDBAB6 Copy CRC 62EDBAB6 Track not present in AccurateRip database Copy OK
Track 4
Filename C:\Users\chris\Desktop\Rips\04 - May The Best World Win.wav
Peak level 99.1 % Extraction speed 2.6 X Track quality 99.9 % Test CRC 40D93678 Copy CRC 40D93678 Track not present in AccurateRip database Copy OK
Track 5
Filename C:\Users\chris\Desktop\Rips\05 - Sneaking Sense Of Liberty.wav
Peak level 97.7 % Extraction speed 2.5 X Track quality 99.9 % Test CRC BAEC0E96 Copy CRC BAEC0E96 Track not present in AccurateRip database Copy OK
Track 6
Filename C:\Users\chris\Desktop\Rips\06 - Hot Brief Injection.wav
Peak level 97.7 % Extraction speed 2.5 X Track quality 100.0 % Test CRC 3960A686 Copy CRC 3960A686 Track not present in AccurateRip database Copy OK
Track 7
Filename C:\Users\chris\Desktop\Rips\07 - Capturing The Dunhams.wav
Peak level 97.7 % Extraction speed 3.3 X Track quality 100.0 % Test CRC 514E60DC Copy CRC 514E60DC Track not present in AccurateRip database Copy OK
Track 8
Filename C:\Users\chris\Desktop\Rips\08 - Take It To The Tank.wav
Peak level 97.7 % Extraction speed 3.1 X Track quality 100.0 % Test CRC 1D15D7A6 Copy CRC 1D15D7A6 Track not present in AccurateRip database Copy OK
Track 9
Filename C:\Users\chris\Desktop\Rips\09 - The Original Dunham.wav
Peak level 30.2 % Extraction speed 2.4 X Track quality 100.0 % Test CRC E0C34365 Copy CRC E0C34365 Track not present in AccurateRip database Copy OK
Track 10
Filename C:\Users\chris\Desktop\Rips\10 - I Thought She Was You.wav
Peak level 24.0 % Extraction speed 2.8 X Track quality 100.0 % Test CRC D4320C90 Copy CRC D4320C90 Track not present in AccurateRip database Copy OK
Track 11
Filename C:\Users\chris\Desktop\Rips\11 - My So-Called Strife.wav
Peak level 34.5 % Extraction speed 2.1 X Track quality 99.8 % Test CRC 40596F74 Copy CRC 40596F74 Track not present in AccurateRip database Copy OK
Track 12
Filename C:\Users\chris\Desktop\Rips\12 - Olivia.wav
Pre-gap length 0:00:00.60
Peak level 46.3 % Extraction speed 3.3 X Track quality 100.0 % Test CRC 1B4AAEF6 Copy CRC 1B4AAEF6 Track not present in AccurateRip database Copy OK
Track 13
Filename C:\Users\chris\Desktop\Rips\13 - The Firefly.wav
Peak level 33.0 % Extraction speed 3.2 X Track quality 100.0 % Test CRC 18665C99 Copy CRC 18665C99 Track not present in AccurateRip database Copy OK
Track 14
Filename C:\Users\chris\Desktop\Rips\14 - Best Chase Scenario.wav
Peak level 100.0 % Extraction speed 3.8 X Track quality 100.0 % Test CRC 35BEDA9E Copy CRC 35BEDA9E Track not present in AccurateRip database Copy OK
Track 15
Filename C:\Users\chris\Desktop\Rips\15 - The Observers.wav
Peak level 43.1 % Extraction speed 3.5 X Track quality 100.0 % Test CRC 9610A462 Copy CRC 9610A462 Track not present in AccurateRip database Copy OK
Track 16
Filename C:\Users\chris\Desktop\Rips\16 - Reciprocity.wav
Peak level 97.7 % Extraction speed 4.0 X Track quality 100.0 % Test CRC 55C59C9D Copy CRC 55C59C9D Track not present in AccurateRip database Copy OK
Track 17
Filename C:\Users\chris\Desktop\Rips\17 - The Persistence Of Walternate's Vision.wav
Peak level 77.3 % Extraction speed 3.9 X Track quality 100.0 % Test CRC 3B572509 Copy CRC 3B572509 Track not present in AccurateRip database Copy OK
Track 18
Filename C:\Users\chris\Desktop\Rips\18 - Imagination Building.wav
Peak level 97.7 % Extraction speed 3.7 X Track quality 99.9 % Test CRC 056396FA Copy CRC 056396FA Track not present in AccurateRip database Copy OK
Track 19
Filename C:\Users\chris\Desktop\Rips\19 - The House Of Birth.wav
Peak level 97.7 % Extraction speed 4.6 X Track quality 100.0 % Test CRC 798D2B62 Copy CRC 798D2B62 Track not present in AccurateRip database Copy OK
Track 20
Filename C:\Users\chris\Desktop\Rips\20 - Oppenheimer Maneuvers.wav
Peak level 31.2 % Extraction speed 3.1 X Track quality 100.0 % Test CRC 8413540C Copy CRC 8413540C Track not present in AccurateRip database Copy OK
Track 21
Filename C:\Users\chris\Desktop\Rips\21 - Wwpd.wav
Peak level 90.8 % Extraction speed 3.7 X Track quality 100.0 % Test CRC 98F5FB10 Copy CRC 98F5FB10 Track not present in AccurateRip database Copy OK
Track 22
Filename C:\Users\chris\Desktop\Rips\22 - Singe And Surge.wav
Peak level 95.2 % Extraction speed 4.1 X Track quality 100.0 % Test CRC 2DC24A9F Copy CRC 2DC24A9F Track not present in AccurateRip database Copy OK
Track 23
Filename C:\Users\chris\Desktop\Rips\23 - Peter.wav
Peak level 97.7 % Extraction speed 4.2 X Track quality 100.0 % Test CRC 8FB7FEC4 Copy CRC 8FB7FEC4 Track not present in AccurateRip database Copy OK
Track 24
Filename C:\Users\chris\Desktop\Rips\24 - Apocalypse In Judgement.wav
Peak level 97.7 % Extraction speed 2.9 X Track quality 100.0 % Test CRC 875C45C6 Copy CRC 875C45C6 Track not present in AccurateRip database Copy OK
Track 25
Filename C:\Users\chris\Desktop\Rips\25 - As The Crowbar Flies.wav
Peak level 93.9 % Extraction speed 3.6 X Track quality 100.0 % Test CRC E93E2C6F Copy CRC E93E2C6F Track not present in AccurateRip database Copy OK
Track 26
Filename C:\Users\chris\Desktop\Rips\26 - Wake Up And Smell The Catastrophe.wav
Peak level 95.5 % Extraction speed 4.0 X Track quality 100.0 % Test CRC 7DBEF807 Copy CRC 7DBEF807 Track not present in AccurateRip database Copy OK
Track 27
Filename C:\Users\chris\Desktop\Rips\27 - The Way The World Crumbles.wav
Peak level 97.7 % Extraction speed 4.6 X Track quality 99.9 % Test CRC 71F89994 Copy CRC 71F89994 Track not present in AccurateRip database Copy OK
Track 28
Filename C:\Users\chris\Desktop\Rips\28 - Walter Skelter.wav
Peak level 86.1 % Extraction speed 2.7 X Track quality 100.0 % Test CRC 8FA48866 Copy CRC 8FA48866 Track not present in AccurateRip database Copy OK
Track 29
Filename C:\Users\chris\Desktop\Rips\29 - A Universe For A Universe.wav
Peak level 97.7 % Extraction speed 4.8 X Track quality 100.0 % Test CRC EEA29D43 Copy CRC EEA29D43 Track not present in AccurateRip database Copy OK
Track 30
Filename C:\Users\chris\Desktop\Rips\30 - Funerla Pyre Straits.wav
Peak level 97.7 % Extraction speed 4.8 X Track quality 100.0 % Test CRC B32EF034 Copy CRC B32EF034 Track not present in AccurateRip database Copy OK
Track 31
Filename C:\Users\chris\Desktop\Rips\31 - The Mourning After.wav
Peak level 43.3 % Extraction speed 2.7 X Track quality 99.8 % Test CRC B6D6FF03 Copy CRC B6D6FF03 Track not present in AccurateRip database Copy OK
Track 32
Filename C:\Users\chris\Desktop\Rips\32 - We Are A Strange Loop.wav
Peak level 97.7 % Extraction speed 4.7 X Track quality 100.0 % Test CRC 119429A5 Copy CRC 119429A5 Track not present in AccurateRip database Copy OK
Track 33
Filename C:\Users\chris\Desktop\Rips\33 - The Vanishing Bishop.wav
Peak level 97.7 % Extraction speed 5.4 X Track quality 100.0 % Test CRC 513EA0BE Copy CRC 513EA0BE Track not present in AccurateRip database Copy OK
Track 34
Filename C:\Users\chris\Desktop\Rips\34 - Fringe Division.wav
Peak level 97.7 % Extraction speed 4.1 X Track quality 100.0 % Test CRC 5AEA5379 Copy CRC 5AEA5379 Track not present in AccurateRip database Copy OK
None of the tracks are present in the AccurateRip database
No errors occurred
End of status report
==== Log checksum 941DAAAA7DA4A2EB2A322E3E04F4D7CC16A94FA15010ECD33C03D0782B205B00 ====

Содержание индексной карты (.CUE)

REM GENRE SoundtrackREM DATE 2012REM DISCID 0F11EF22REM COMMENT "ExactAudioCopy v1.0b3"PERFORMER "Chris Tilton"TITLE "Fringe: Season 3"FILE "01 - The Escape From Liberty Island.wav" WAVE TRACK 01 AUDIO TITLE "The Escape From Liberty Island" PERFORMER "Chris Tilton" INDEX 01 00:00:00FILE "02 - Slow Motion Sickness.wav" WAVE TRACK 02 AUDIO TITLE "Slow Motion Sickness" PERFORMER "Chris Tilton" INDEX 01 00:00:00FILE "03 - Newton's Last Mission.wav" WAVE TRACK 03 AUDIO TITLE "Newton's Last Mission" PERFORMER "Chris Tilton" INDEX 01 00:00:00FILE "04 - May The Best World Win.wav" WAVE TRACK 04 AUDIO TITLE "May The Best World Win" PERFORMER "Chris Tilton" INDEX 01 00:00:00FILE "05 - Sneaking Sense Of Liberty.wav" WAVE TRACK 05 AUDIO TITLE "Sneaking Sense Of Liberty" PERFORMER "Chris Tilton" INDEX 01 00:00:00FILE "06 - Hot Brief Injection.wav" WAVE TRACK 06 AUDIO TITLE "Hot Brief Injection" PERFORMER "Chris Tilton" INDEX 01 00:00:00FILE "07 - Capturing The Dunhams.wav" WAVE TRACK 07 AUDIO TITLE "Capturing The Dunhams" PERFORMER "Chris Tilton" INDEX 01 00:00:00FILE "08 - Take It To The Tank.wav" WAVE TRACK 08 AUDIO TITLE "Take It To The Tank" PERFORMER "Chris Tilton" INDEX 01 00:00:00FILE "09 - The Original Dunham.wav" WAVE TRACK 09 AUDIO TITLE "The Original Dunham" PERFORMER "Chris Tilton" INDEX 01 00:00:00FILE "10 - I Thought She Was You.wav" WAVE TRACK 10 AUDIO TITLE "I Thought She Was You" PERFORMER "Chris Tilton" INDEX 01 00:00:00FILE "11 - My So-Called Strife.wav" WAVE TRACK 11 AUDIO TITLE "My So-Called Strife" PERFORMER "Chris Tilton" INDEX 01 00:00:00 TRACK 12 AUDIO TITLE "Olivia" PERFORMER "Chris Tilton" INDEX 00 01:12:41FILE "12 - Olivia.wav" WAVE INDEX 01 00:00:00FILE "13 - The Firefly.wav" WAVE TRACK 13 AUDIO TITLE "The Firefly" PERFORMER "Chris Tilton" INDEX 01 00:00:00FILE "14 - Best Chase Scenario.wav" WAVE TRACK 14 AUDIO TITLE "Best Chase Scenario" PERFORMER "Chris Tilton" INDEX 01 00:00:00FILE "15 - The Observers.wav" WAVE TRACK 15 AUDIO TITLE "The Observers" PERFORMER "Chris Tilton" INDEX 01 00:00:00FILE "16 - Reciprocity.wav" WAVE TRACK 16 AUDIO TITLE "Reciprocity" PERFORMER "Chris Tilton" INDEX 01 00:00:00FILE "17 - The Persistence Of Walternate's Vision.wav" WAVE TRACK 17 AUDIO TITLE "The Persistence Of Walternate's Vision" PERFORMER "Chris Tilton" INDEX 01 00:00:00FILE "18 - Imagination Building.wav" WAVE TRACK 18 AUDIO TITLE "Imagination Building" PERFORMER "Chris Tilton" INDEX 01 00:00:00FILE "19 - The House Of Birth.wav" WAVE TRACK 19 AUDIO TITLE "The House Of Birth" PERFORMER "Chris Tilton" INDEX 01 00:00:00FILE "20 - Oppenheimer Maneuvers.wav" WAVE TRACK 20 AUDIO TITLE "Oppenheimer Maneuvers" PERFORMER "Chris Tilton" INDEX 01 00:00:00FILE "21 - Wwpd.wav" WAVE TRACK 21 AUDIO TITLE "Wwpd" PERFORMER "Chris Tilton" INDEX 01 00:00:00FILE "22 - Singe And Surge.wav" WAVE TRACK 22 AUDIO TITLE "Singe And Surge" PERFORMER "Chris Tilton" INDEX 01 00:00:00FILE "23 - Peter.wav" WAVE TRACK 23 AUDIO TITLE "Peter" PERFORMER "Chris Tilton" INDEX 01 00:00:00FILE "24 - Apocalypse In Judgement.wav" WAVE TRACK 24 AUDIO TITLE "Apocalypse In Judgement" PERFORMER "Chris Tilton" INDEX 01 00:00:00FILE "25 - As The Crowbar Flies.wav" WAVE TRACK 25 AUDIO TITLE "As The Crowbar Flies" PERFORMER "Chris Tilton" INDEX 01 00:00:00FILE "26 - Wake Up And Smell The Catastrophe.wav" WAVE TRACK 26 AUDIO TITLE "Wake Up And Smell The Catastrophe" PERFORMER "Chris Tilton" INDEX 01 00:00:00FILE "27 - The Way The World Crumbles.wav" WAVE TRACK 27 AUDIO TITLE "The Way The World Crumbles" PERFORMER "Chris Tilton" INDEX 01 00:00:00FILE "28 - Walter Skelter.wav" WAVE TRACK 28 AUDIO TITLE "Walter Skelter" PERFORMER "Chris Tilton" INDEX 01 00:00:00FILE "29 - A Universe For A Universe.wav" WAVE TRACK 29 AUDIO TITLE "A Universe For A Universe" PERFORMER "Chris Tilton" INDEX 01 00:00:00FILE "30 - Funerla Pyre Straits.wav" WAVE TRACK 30 AUDIO TITLE "Funerla Pyre Straits" PERFORMER "Chris Tilton" INDEX 01 00:00:00FILE "31 - The Mourning After.wav" WAVE TRACK 31 AUDIO TITLE "The Mourning After" PERFORMER "Chris Tilton" INDEX 01 00:00:00FILE "32 - We Are A Strange Loop.wav" WAVE TRACK 32 AUDIO TITLE "We Are A Strange Loop" PERFORMER "Chris Tilton" INDEX 01 00:00:00FILE "33 - The Vanishing Bishop.wav" WAVE TRACK 33 AUDIO TITLE "The Vanishing Bishop" PERFORMER "Chris Tilton" INDEX 01 00:00:00FILE "34 - Fringe Division.wav" WAVE TRACK 34 AUDIO TITLE "Fringe Division" PERFORMER "Chris Tilton" INDEX 01 00:00:00

2012 - Season 4 (Chris Tilton) [Varèse Sarabande 302 067 172 2] - 30 / 77:29

01. The Skill Of The Chase (01:06)
02. A Protest In September (01:47)
03. Born Again Fishin’ (02:27)
04. Where The Son Doesn’t Shine (02:58)
05. Don’t Follow The Money (04:11)
06. Shut Your Worm Hole (03:12)
07. Enemy Of My Enemy (02:16)
08. The House Of Forgotten Dreams (01:32)
09. The End Of All Things (06:22)
10. Together Again For The Very First Time (03:00)
11. Funeral While It Lasted (01:38)
12. To Betray Or Not To Betray (02:32)
13. The Future Is How (00:52)
14. Letters Of Transit (03:03)
15. The Satanic Observers (04:01)
16. The Sacrificial Stance (01:42)
17. What’s The Etta With You? (01:08)
18. The Singularity Is Upon Us (03:37)
19. From One Universe To Another (02:33)
20. Shining A Satellite On The Problem (02:57)
21. Don’t Cross The Beams (02:00)
22. Telekinetic Energy (01:55)
23. Kicking Some Astrid (02:00)
24. Brave New World (00:37)
25. The Time Traveler’s Strife (03:08)
26. Support Of Call (01:28)
27. Biblical Distortions (06:51)
28. Regeneration X (02:43)
29. The Nine Lives Of Olivia Dunham (02:11)
30. Henrietta (01:27)

Лог создания рипа

Exact Audio Copy V1.0 beta 3 from 29. August 2011
EAC extraction logfile from 30. October 2012, 7:34
Chris Tilton / Fringe: Season 4
Used drive : HL-DT-STBD-RE BH10LS38 Adapter: 1 ID: 0
Read mode : SecureUtilize accurate stream : YesDefeat audio cache : YesMake use of C2 pointers : No
Read offset correction : 667Overread into Lead-In and Lead-Out : NoFill up missing offset samples with silence : YesDelete leading and trailing silent blocks : NoNull samples used in CRC calculations : YesUsed interface : Native Win32 interface for Win NT & 2000Gap handling : Appended to previous track
Used output format : User Defined EncoderSelected bitrate : 768 kBit/sQuality : HighAdd ID3 tag : NoCommand line compressor : C:\Program Files (x86)\Exact Audio Copy\FLAC\FLAC.EXEAdditional command line options : -8 -V -T "ARTIST=%artist%" -T "TITLE=%title%" -T "ALBUM=%albumtitle%" -T "DATE=%year%" -T "TRACKNUMBER=%tracknr%" -T "GENRE=%genre%" -T "PERFORMER=%albuminterpret%" -T "COMPOSER=%composer%" %haslyrics%--tag-from-file=LYRICS="%lyricsfile%"%haslyrics% -T "ALBUMARTIST=%albumartist%" -T "ALBUM ARTIST=%albumartist%" -T "DISCNUMBER=%cdnumber%" -T "TOTALDISCS=%totalcds%" -T "TOTALTRACKS=%numtracks%" -T "COMMENT=%comment%" %source% -o %dest%
TOC of the extracted CD
Track | Start | Length | Start sector | End sector --------------------------------------------------------- 1 | 0:00.00 | 1:06.03 | 0 | 4952 2 | 1:06.03 | 1:47.06 | 4953 | 12983 3 | 2:53.09 | 2:27.03 | 12984 | 24011 4 | 5:20.12 | 2:58.34 | 24012 | 37395 5 | 8:18.46 | 4:11.47 | 37396 | 56267 6 | 12:30.18 | 3:12.14 | 56268 | 70681 7 | 15:42.32 | 2:16.65 | 70682 | 80946 8 | 17:59.22 | 1:32.65 | 80947 | 87911 9 | 19:32.12 | 6:22.42 | 87912 | 116603 10 | 25:54.54 | 3:00.48 | 116604 | 130151 11 | 28:55.27 | 1:38.62 | 130152 | 137563 12 | 30:34.14 | 2:32.74 | 137564 | 149037 13 | 33:07.13 | 0:52.63 | 149038 | 153000 14 | 34:00.01 | 3:03.62 | 153001 | 166787 15 | 37:03.63 | 4:01.14 | 166788 | 184876 16 | 41:05.02 | 1:42.54 | 184877 | 192580 17 | 42:47.56 | 1:08.08 | 192581 | 197688 18 | 43:55.64 | 3:37.24 | 197689 | 213987 19 | 47:33.13 | 2:33.45 | 213988 | 225507 20 | 50:06.58 | 2:57.52 | 225508 | 238834 21 | 53:04.35 | 2:00.08 | 238835 | 247842 22 | 55:04.43 | 1:55.41 | 247843 | 256508 23 | 57:00.09 | 2:00.63 | 256509 | 265571 24 | 59:00.72 | 0:37.67 | 265572 | 268413 25 | 59:38.64 | 3:08.30 | 268414 | 282543 26 | 62:47.19 | 1:28.45 | 282544 | 289188 27 | 64:15.64 | 6:51.09 | 289189 | 320022 28 | 71:06.73 | 2:43.31 | 320023 | 332278 29 | 73:50.29 | 2:11.51 | 332279 | 342154 30 | 76:02.05 | 1:27.31 | 342155 | 348710
Track 1
Filename C:\Users\chris\Desktop\Rips\01 - The Skill Of The Chase.wav
Pre-gap length 0:00:02.00
Peak level 98.6 % Extraction speed 0.6 X Track quality 99.8 % Test CRC 34246EA7 Copy CRC 34246EA7 Track not present in AccurateRip database Copy OK
Track 2
Filename C:\Users\chris\Desktop\Rips\02 - A Protest In September.wav
Peak level 98.2 % Extraction speed 1.0 X Track quality 100.0 % Test CRC A45504BA Copy CRC A45504BA Track not present in AccurateRip database Copy OK
Track 3
Filename C:\Users\chris\Desktop\Rips\03 - Born Again Fishin’.wav
Peak level 98.5 % Extraction speed 1.0 X Track quality 99.9 % Test CRC 42F329B4 Copy CRC 42F329B4 Track not present in AccurateRip database Copy OK
Track 4
Filename C:\Users\chris\Desktop\Rips\04 - Where The Son Doesn’t Shine.wav
Peak level 97.9 % Extraction speed 1.3 X Track quality 100.0 % Test CRC E5C0D9BC Copy CRC E5C0D9BC Track not present in AccurateRip database Copy OK
Track 5
Filename C:\Users\chris\Desktop\Rips\05 - Don’t Follow The Money.wav
Peak level 98.7 % Extraction speed 1.3 X Track quality 99.9 % Test CRC E7EBF96F Copy CRC E7EBF96F Track not present in AccurateRip database Copy OK
Track 6
Filename C:\Users\chris\Desktop\Rips\06 - Shut Your Worm Hole.wav
Peak level 98.6 % Extraction speed 1.5 X Track quality 100.0 % Test CRC 270F4A20 Copy CRC 270F4A20 Track not present in AccurateRip database Copy OK
Track 7
Filename C:\Users\chris\Desktop\Rips\07 - Enemy Of My Enemy.wav
Peak level 98.3 % Extraction speed 1.4 X Track quality 100.0 % Test CRC F634224E Copy CRC F634224E Track not present in AccurateRip database Copy OK
Track 8
Filename C:\Users\chris\Desktop\Rips\08 - The House Of Forgotten Dreams.wav
Peak level 98.3 % Extraction speed 1.3 X Track quality 100.0 % Test CRC A14AB007 Copy CRC A14AB007 Track not present in AccurateRip database Copy OK
Track 9
Filename C:\Users\chris\Desktop\Rips\09 - The End Of All Things.wav
Peak level 98.1 % Extraction speed 1.8 X Track quality 100.0 % Test CRC FEDB81BE Copy CRC FEDB81BE Track not present in AccurateRip database Copy OK
Track 10
Filename C:\Users\chris\Desktop\Rips\10 - Together Again For The Very First Time.wav
Peak level 98.0 % Extraction speed 1.7 X Track quality 100.0 % Test CRC 6300D70F Copy CRC 6300D70F Track not present in AccurateRip database Copy OK
Track 11
Filename C:\Users\chris\Desktop\Rips\11 - Funeral While It Lasted.wav
Peak level 97.9 % Extraction speed 1.6 X Track quality 100.0 % Test CRC 5698791F Copy CRC 5698791F Track not present in AccurateRip database Copy OK
Track 12
Filename C:\Users\chris\Desktop\Rips\12 - To Betray Or Not To Betray.wav
Peak level 98.8 % Extraction speed 1.8 X Track quality 100.0 % Test CRC 808327DC Copy CRC 808327DC Track not present in AccurateRip database Copy OK
Track 13
Filename C:\Users\chris\Desktop\Rips\13 - The Future Is How.wav
Peak level 98.8 % Extraction speed 1.3 X Track quality 100.0 % Test CRC 900DF66B Copy CRC 900DF66B Track not present in AccurateRip database Copy OK
Track 14
Filename C:\Users\chris\Desktop\Rips\14 - Letters Of Transit.wav
Peak level 98.6 % Extraction speed 1.9 X Track quality 100.0 % Test CRC 2FF1BA5F Copy CRC 2FF1BA5F Track not present in AccurateRip database Copy OK
Track 15
Filename C:\Users\chris\Desktop\Rips\15 - The Satanic Observers.wav
Peak level 98.4 % Extraction speed 2.0 X Track quality 100.0 % Test CRC 82280691 Copy CRC 82280691 Track not present in AccurateRip database Copy OK
Track 16
Filename C:\Users\chris\Desktop\Rips\16 - The Sacrificial Stance.wav
Peak level 98.5 % Extraction speed 1.7 X Track quality 100.0 % Test CRC 643F5749 Copy CRC 643F5749 Track not present in AccurateRip database Copy OK
Track 17
Filename C:\Users\chris\Desktop\Rips\17 - What’s The Etta With You.wav
Peak level 98.3 % Extraction speed 1.5 X Track quality 100.0 % Test CRC 5F8815F0 Copy CRC 5F8815F0 Track not present in AccurateRip database Copy OK
Track 18
Filename C:\Users\chris\Desktop\Rips\18 - The Singularity Is Upon Us.wav
Peak level 98.6 % Extraction speed 2.1 X Track quality 100.0 % Test CRC FB8B7A66 Copy CRC FB8B7A66 Track not present in AccurateRip database Copy OK
Track 19
Filename C:\Users\chris\Desktop\Rips\19 - From One Universe To Another.wav
Peak level 97.5 % Extraction speed 2.0 X Track quality 100.0 % Test CRC 8E0FCFAF Copy CRC 8E0FCFAF Track not present in AccurateRip database Copy OK
Track 20
Filename C:\Users\chris\Desktop\Rips\20 - Shining A Satellite On The Problem.wav
Peak level 98.8 % Extraction speed 2.1 X Track quality 100.0 % Test CRC 9938C72D Copy CRC 9938C72D Track not present in AccurateRip database Copy OK
Track 21
Filename C:\Users\chris\Desktop\Rips\21 - Don’t Cross The Beams.wav
Peak level 98.7 % Extraction speed 2.0 X Track quality 100.0 % Test CRC 28824A42 Copy CRC 28824A42 Track not present in AccurateRip database Copy OK
Track 22
Filename C:\Users\chris\Desktop\Rips\22 - Telekinetic Energy.wav
Peak level 98.5 % Extraction speed 1.6 X Track quality 99.9 % Test CRC 9D9CE77C Copy CRC 9D9CE77C Track not present in AccurateRip database Copy OK
Track 23
Filename C:\Users\chris\Desktop\Rips\23 - Kicking Some Astrid.wav
Peak level 98.2 % Extraction speed 1.7 X Track quality 99.9 % Test CRC 53DCFAF1 Copy CRC 53DCFAF1 Track not present in AccurateRip database Copy OK
Track 24
Filename C:\Users\chris\Desktop\Rips\24 - Brave New World.wav
Peak level 87.6 % Extraction speed 1.3 X Track quality 100.0 % Test CRC 52B532E9 Copy CRC 52B532E9 Track not present in AccurateRip database Copy OK
Track 25
Filename C:\Users\chris\Desktop\Rips\25 - The Time Traveler’s Strife.wav
Peak level 97.1 % Extraction speed 2.3 X Track quality 100.0 % Test CRC F035189C Copy CRC F035189C Track not present in AccurateRip database Copy OK
Track 26
Filename C:\Users\chris\Desktop\Rips\26 - Support Of Call.wav
Peak level 98.1 % Extraction speed 1.5 X Track quality 99.8 % Test CRC 938EA074 Copy CRC 938EA074 Track not present in AccurateRip database Copy OK
Track 27
Filename C:\Users\chris\Desktop\Rips\27 - Biblical Distortions.wav
Peak level 98.8 % Extraction speed 2.7 X Track quality 100.0 % Test CRC F364371B Copy CRC F364371B Track not present in AccurateRip database Copy OK
Track 28
Filename C:\Users\chris\Desktop\Rips\28 - Regeneration X.wav
Peak level 63.3 % Extraction speed 2.4 X Track quality 100.0 % Test CRC C6BACA1E Copy CRC C6BACA1E Track not present in AccurateRip database Copy OK
Track 29
Filename C:\Users\chris\Desktop\Rips\29 - The Nine Lives Of Olivia Dunham.wav
Peak level 98.3 % Extraction speed 2.3 X Track quality 100.0 % Test CRC 95ABA917 Copy CRC 95ABA917 Track not present in AccurateRip database Copy OK
Track 30
Filename C:\Users\chris\Desktop\Rips\30 - Henrietta.wav
Peak level 97.8 % Extraction speed 2.1 X Track quality 100.0 % Test CRC E364BF16 Copy CRC E364BF16 Track not present in AccurateRip database Copy OK
None of the tracks are present in the AccurateRip database
No errors occurred
End of status report
==== Log checksum 239D48C2BC970E11D2389C211121863E7B5332DAF66EDA5D3794754EB2A1080F ====

Содержание индексной карты (.CUE)

REM GENRE SoundtrackREM DATE 2012REM DISCID C812291EREM COMMENT "ExactAudioCopy v1.0b3"PERFORMER "Chris Tilton"TITLE "Fringe: Season 4"FILE "01 - The Skill Of The Chase.wav" WAVE TRACK 01 AUDIO TITLE "The Skill Of The Chase" PERFORMER "Chris Tilton" INDEX 01 00:00:00FILE "02 - A Protest In September.wav" WAVE TRACK 02 AUDIO TITLE "A Protest In September" PERFORMER "Chris Tilton" INDEX 01 00:00:00FILE "03 - Born Again Fishin’.wav" WAVE TRACK 03 AUDIO TITLE "Born Again Fishin’" PERFORMER "Chris Tilton" INDEX 01 00:00:00FILE "04 - Where The Son Doesn’t Shine.wav" WAVE TRACK 04 AUDIO TITLE "Where The Son Doesn’t Shine" PERFORMER "Chris Tilton" INDEX 01 00:00:00FILE "05 - Don’t Follow The Money.wav" WAVE TRACK 05 AUDIO TITLE "Don’t Follow The Money" PERFORMER "Chris Tilton" INDEX 01 00:00:00FILE "06 - Shut Your Worm Hole.wav" WAVE TRACK 06 AUDIO TITLE "Shut Your Worm Hole" PERFORMER "Chris Tilton" INDEX 01 00:00:00FILE "07 - Enemy Of My Enemy.wav" WAVE TRACK 07 AUDIO TITLE "Enemy Of My Enemy" PERFORMER "Chris Tilton" INDEX 01 00:00:00FILE "08 - The House Of Forgotten Dreams.wav" WAVE TRACK 08 AUDIO TITLE "The House Of Forgotten Dreams" PERFORMER "Chris Tilton" INDEX 01 00:00:00FILE "09 - The End Of All Things.wav" WAVE TRACK 09 AUDIO TITLE "The End Of All Things" PERFORMER "Chris Tilton" INDEX 01 00:00:00FILE "10 - Together Again For The Very First Time.wav" WAVE TRACK 10 AUDIO TITLE "Together Again For The Very First Time" PERFORMER "Chris Tilton" INDEX 01 00:00:00FILE "11 - Funeral While It Lasted.wav" WAVE TRACK 11 AUDIO TITLE "Funeral While It Lasted" PERFORMER "Chris Tilton" INDEX 01 00:00:00FILE "12 - To Betray Or Not To Betray.wav" WAVE TRACK 12 AUDIO TITLE "To Betray Or Not To Betray" PERFORMER "Chris Tilton" INDEX 01 00:00:00FILE "13 - The Future Is How.wav" WAVE TRACK 13 AUDIO TITLE "The Future Is How" PERFORMER "Chris Tilton" INDEX 01 00:00:00FILE "14 - Letters Of Transit.wav" WAVE TRACK 14 AUDIO TITLE "Letters Of Transit" PERFORMER "Chris Tilton" INDEX 01 00:00:00FILE "15 - The Satanic Observers.wav" WAVE TRACK 15 AUDIO TITLE "The Satanic Observers" PERFORMER "Chris Tilton" INDEX 01 00:00:00FILE "16 - The Sacrificial Stance.wav" WAVE TRACK 16 AUDIO TITLE "The Sacrificial Stance" PERFORMER "Chris Tilton" INDEX 01 00:00:00FILE "17 - What’s The Etta With You.wav" WAVE TRACK 17 AUDIO TITLE "What’s The Etta With You?" PERFORMER "Chris Tilton" INDEX 01 00:00:00FILE "18 - The Singularity Is Upon Us.wav" WAVE TRACK 18 AUDIO TITLE "The Singularity Is Upon Us" PERFORMER "Chris Tilton" INDEX 01 00:00:00FILE "19 - From One Universe To Another.wav" WAVE TRACK 19 AUDIO TITLE "From One Universe To Another" PERFORMER "Chris Tilton" INDEX 01 00:00:00FILE "20 - Shining A Satellite On The Problem.wav" WAVE TRACK 20 AUDIO TITLE "Shining A Satellite On The Problem" PERFORMER "Chris Tilton" INDEX 01 00:00:00FILE "21 - Don’t Cross The Beams.wav" WAVE TRACK 21 AUDIO TITLE "Don’t Cross The Beams" PERFORMER "Chris Tilton" INDEX 01 00:00:00FILE "22 - Telekinetic Energy.wav" WAVE TRACK 22 AUDIO TITLE "Telekinetic Energy" PERFORMER "Chris Tilton" INDEX 01 00:00:00FILE "23 - Kicking Some Astrid.wav" WAVE TRACK 23 AUDIO TITLE "Kicking Some Astrid" PERFORMER "Chris Tilton" INDEX 01 00:00:00FILE "24 - Brave New World.wav" WAVE TRACK 24 AUDIO TITLE "Brave New World" PERFORMER "Chris Tilton" INDEX 01 00:00:00FILE "25 - The Time Traveler’s Strife.wav" WAVE TRACK 25 AUDIO TITLE "The Time Traveler’s Strife" PERFORMER "Chris Tilton" INDEX 01 00:00:00FILE "26 - Support Of Call.wav" WAVE TRACK 26 AUDIO TITLE "Support Of Call" PERFORMER "Chris Tilton" INDEX 01 00:00:00FILE "27 - Biblical Distortions.wav" WAVE TRACK 27 AUDIO TITLE "Biblical Distortions" PERFORMER "Chris Tilton" INDEX 01 00:00:00FILE "28 - Regeneration X.wav" WAVE TRACK 28 AUDIO TITLE "Regeneration X" PERFORMER "Chris Tilton" INDEX 01 00:00:00FILE "29 - The Nine Lives Of Olivia Dunham.wav" WAVE TRACK 29 AUDIO TITLE "The Nine Lives Of Olivia Dunham" PERFORMER "Chris Tilton" INDEX 01 00:00:00FILE "30 - Henrietta.wav" WAVE TRACK 30 AUDIO TITLE "Henrietta" PERFORMER "Chris Tilton" INDEX 01 00:00:00

2013 - Season 5 (Chris Tilton) [Varèse Sarabande VSD-7196] - 24 / 77:36

01. Searching For Olivia Dunham (03:18)
02. Pity The Cruel (03:25)
03. The Recordist (03:32)
04. Orificial Intelligence (02:38)
05. Dust In The Windmark (02:51)
06. Mo’Etta Blues (03:35)
07. The Cube Tube (02:26)
08. An Origin Story (02:24)
09. The Garden Of Live Ettas (04:36)
10. A Dish Best Served Cold (02:46)
11. The Human Kind (04:12)
12. The Burning Book (03:15)
13. Donald In The Game (01:57)
14. Father And Father You Go (03:07)
15. Terror Incognito (04:48)
16. Olivia’s Crossover To Bear (01:56)
17. Mobius Maker (03:05)
18. Era Envy (02:13)
19. When Push Comes To Dove (01:42)
20. Paradox, So Close (02:42)
21. Of Cows And Men (01:13)
22. Biological War Farewell (08:48)
23. The Resetting Son (05:45)
24. Finale End Credits (01:10)

Лог создания рипа

Exact Audio Copy V1.0 beta 3 from 29. August 2011
EAC extraction logfile from 20. June 2013, 20:02
Chris Tilton / Fringe: Season 5 (Original Television Soundtrack)
Used drive : HL-DT-STBD-RE BH10LS38 Adapter: 2 ID: 0
Read mode : SecureUtilize accurate stream : YesDefeat audio cache : YesMake use of C2 pointers : No
Read offset correction : 667Overread into Lead-In and Lead-Out : NoFill up missing offset samples with silence : YesDelete leading and trailing silent blocks : NoNull samples used in CRC calculations : YesUsed interface : Native Win32 interface for Win NT & 2000Gap handling : Appended to previous track
Used output format : User Defined EncoderSelected bitrate : 768 kBit/sQuality : HighAdd ID3 tag : NoCommand line compressor : C:\Program Files (x86)\Exact Audio Copy\FLAC\FLAC.EXEAdditional command line options : -8 -V -T "ARTIST=%artist%" -T "TITLE=%title%" -T "ALBUM=%albumtitle%" -T "DATE=%year%" -T "TRACKNUMBER=%tracknr%" -T "GENRE=%genre%" -T "PERFORMER=%albuminterpret%" -T "COMPOSER=%composer%" %haslyrics%--tag-from-file=LYRICS="%lyricsfile%"%haslyrics% -T "ALBUMARTIST=%albumartist%" -T "ALBUM ARTIST=%albumartist%" -T "DISCNUMBER=%cdnumber%" -T "TOTALDISCS=%totalcds%" -T "TOTALTRACKS=%numtracks%" -T "COMMENT=%comment%" %source% -o %dest%
TOC of the extracted CD
Track | Start | Length | Start sector | End sector --------------------------------------------------------- 1 | 0:00.00 | 3:18.50 | 0 | 14899 2 | 3:18.50 | 3:25.36 | 14900 | 30310 3 | 6:44.11 | 3:32.74 | 30311 | 46284 4 | 10:17.10 | 2:38.33 | 46285 | 58167 5 | 12:55.43 | 2:51.11 | 58168 | 71003 6 | 15:46.54 | 3:35.22 | 71004 | 87150 7 | 19:22.01 | 2:26.32 | 87151 | 98132 8 | 21:48.33 | 2:24.60 | 98133 | 108992 9 | 24:13.18 | 4:36.57 | 108993 | 129749 10 | 28:50.00 | 2:46.07 | 129750 | 142206 11 | 31:36.07 | 4:12.62 | 142207 | 161168 12 | 35:48.69 | 3:15.62 | 161169 | 175855 13 | 39:04.56 | 1:57.73 | 175856 | 184703 14 | 41:02.54 | 3:07.39 | 184704 | 198767 15 | 44:10.18 | 4:48.06 | 198768 | 220373 16 | 48:58.24 | 1:56.58 | 220374 | 229131 17 | 50:55.07 | 3:05.24 | 229132 | 243030 18 | 54:00.31 | 2:13.22 | 243031 | 253027 19 | 56:13.53 | 1:42.65 | 253028 | 260742 20 | 57:56.43 | 2:42.35 | 260743 | 272927 21 | 60:39.03 | 1:13.23 | 272928 | 278425 22 | 61:52.26 | 8:48.01 | 278426 | 318026 23 | 70:40.27 | 5:45.35 | 318027 | 343936 24 | 76:25.62 | 1:10.21 | 343937 | 349207
Track 1
Filename C:\Users\chris\Desktop\Rips\01 - Searching For Olivia Dunham.wav
Pre-gap length 0:00:02.00
Peak level 99.9 % Extraction speed 1.2 X Track quality 100.0 % Test CRC E43BEAE5 Copy CRC E43BEAE5 Track not present in AccurateRip database Copy OK
Track 2
Filename C:\Users\chris\Desktop\Rips\02 - Pity The Cruel.wav
Peak level 99.9 % Extraction speed 1.1 X Track quality 99.9 % Test CRC BEAF43D6 Copy CRC BEAF43D6 Track not present in AccurateRip database Copy OK
Track 3
Filename C:\Users\chris\Desktop\Rips\03 - The Recordist.wav
Peak level 99.9 % Extraction speed 1.4 X Track quality 100.0 % Test CRC 1560D7A4 Copy CRC 1560D7A4 Track not present in AccurateRip database Copy OK
Track 4
Filename C:\Users\chris\Desktop\Rips\04 - Orificial Intelligence.wav
Peak level 99.9 % Extraction speed 1.4 X Track quality 100.0 % Test CRC 1B8C429F Copy CRC 1B8C429F Track not present in AccurateRip database Copy OK
Track 5
Filename C:\Users\chris\Desktop\Rips\05 - Dust In The Windmark.wav
Peak level 99.9 % Extraction speed 1.5 X Track quality 100.0 % Test CRC 9F3933C1 Copy CRC 9F3933C1 Track not present in AccurateRip database Copy OK
Track 6
Filename C:\Users\chris\Desktop\Rips\06 - Mo’Etta Blues.wav
Peak level 99.9 % Extraction speed 1.6 X Track quality 100.0 % Test CRC 16BA55D3 Copy CRC 16BA55D3 Track not present in AccurateRip database Copy OK
Track 7
Filename C:\Users\chris\Desktop\Rips\07 - The Cube Tube.wav
Peak level 99.9 % Extraction speed 1.3 X Track quality 99.9 % Test CRC 4BAEEC3F Copy CRC 4BAEEC3F Track not present in AccurateRip database Copy OK
Track 8
Filename C:\Users\chris\Desktop\Rips\08 - An Origin Story.wav
Peak level 99.9 % Extraction speed 1.6 X Track quality 100.0 % Test CRC 7343FA73 Copy CRC 7343FA73 Track not present in AccurateRip database Copy OK
Track 9
Filename C:\Users\chris\Desktop\Rips\09 - The Garden Of Live Ettas.wav
Peak level 99.9 % Extraction speed 1.9 X Track quality 100.0 % Test CRC 49CBDDCD Copy CRC 49CBDDCD Track not present in AccurateRip database Copy OK
Track 10
Filename C:\Users\chris\Desktop\Rips\10 - A Dish Best Served Cold.wav
Peak level 99.9 % Extraction speed 1.8 X Track quality 100.0 % Test CRC E9C7DED1 Copy CRC E9C7DED1 Track not present in AccurateRip database Copy OK
Track 11
Filename C:\Users\chris\Desktop\Rips\11 - The Human Kind.wav
Peak level 99.9 % Extraction speed 2.0 X Track quality 100.0 % Test CRC E0F09856 Copy CRC E0F09856 Track not present in AccurateRip database Copy OK
Track 12
Filename C:\Users\chris\Desktop\Rips\12 - The Burning Book.wav
Peak level 99.9 % Extraction speed 2.0 X Track quality 100.0 % Test CRC 01FEBAF7 Copy CRC 01FEBAF7 Track not present in AccurateRip database Copy OK
Track 13
Filename C:\Users\chris\Desktop\Rips\13 - Donald In The Game.wav
Peak level 99.9 % Extraction speed 1.8 X Track quality 100.0 % Test CRC 9C0B0B5C Copy CRC 9C0B0B5C Track not present in AccurateRip database Copy OK
Track 14
Filename C:\Users\chris\Desktop\Rips\14 - Father And Father You Go.wav
Peak level 94.3 % Extraction speed 2.1 X Track quality 100.0 % Test CRC 781F21C5 Copy CRC 781F21C5 Track not present in AccurateRip database Copy OK
Track 15
Filename C:\Users\chris\Desktop\Rips\15 - Terror Incognito.wav
Peak level 99.9 % Extraction speed 2.3 X Track quality 100.0 % Test CRC 91E4900B Copy CRC 91E4900B Track not present in AccurateRip database Copy OK
Track 16
Filename C:\Users\chris\Desktop\Rips\16 - Olivia’s Crossover To Bear.wav
Peak level 99.9 % Extraction speed 2.0 X Track quality 100.0 % Test CRC 890C02F8 Copy CRC 890C02F8 Track not present in AccurateRip database Copy OK
Track 17
Filename C:\Users\chris\Desktop\Rips\17 - Mobius Maker.wav
Peak level 99.9 % Extraction speed 2.2 X Track quality 100.0 % Test CRC 0F80AE93 Copy CRC 0F80AE93 Track not present in AccurateRip database Copy OK
Track 18
Filename C:\Users\chris\Desktop\Rips\18 - Era Envy.wav
Peak level 99.9 % Extraction speed 2.1 X Track quality 100.0 % Test CRC E73D3B0B Copy CRC E73D3B0B Track not present in AccurateRip database Copy OK
Track 19
Filename C:\Users\chris\Desktop\Rips\19 - When Push Comes To Dove.wav
Peak level 99.9 % Extraction speed 2.0 X Track quality 100.0 % Test CRC FA7245D1 Copy CRC FA7245D1 Track not present in AccurateRip database Copy OK
Track 20
Filename C:\Users\chris\Desktop\Rips\20 - Paradox, So Close.wav
Peak level 59.5 % Extraction speed 2.3 X Track quality 100.0 % Test CRC 897F3682 Copy CRC 897F3682 Track not present in AccurateRip database Copy OK
Track 21
Filename C:\Users\chris\Desktop\Rips\21 - Of Cows And Men.wav
Peak level 52.8 % Extraction speed 1.9 X Track quality 100.0 % Test CRC 6E288B1A Copy CRC 6E288B1A Track not present in AccurateRip database Copy OK
Track 22
Filename C:\Users\chris\Desktop\Rips\22 - Biological War Farewell.wav
Peak level 99.9 % Extraction speed 2.7 X Track quality 100.0 % Test CRC 16F17E63 Copy CRC 16F17E63 Track not present in AccurateRip database Copy OK
Track 23
Filename C:\Users\chris\Desktop\Rips\23 - The Resetting Son.wav
Peak level 99.9 % Extraction speed 2.8 X Track quality 100.0 % Test CRC 0ED8F178 Copy CRC 0ED8F178 Track not present in AccurateRip database Copy OK
Track 24
Filename C:\Users\chris\Desktop\Rips\24 - Finale End Credits.wav
Peak level 73.1 % Extraction speed 2.0 X Track quality 100.0 % Test CRC A04ECCC1 Copy CRC A04ECCC1 Track not present in AccurateRip database Copy OK
None of the tracks are present in the AccurateRip database
No errors occurred
End of status report
==== Log checksum 0AA77C90AD7091439C2F084AFFA98AEC5DD9803FC1A6BAACACF04B5FC46D0954 ====

Содержание индексной карты (.CUE)

REM GENRE SoundtrackREM DATE 2013REM DISCID 58123018REM COMMENT "ExactAudioCopy v1.0b3"FILE "01 - Searching For Olivia Dunham.wav" WAVE TRACK 01 AUDIO INDEX 01 00:00:00FILE "02 - Pity The Cruel.wav" WAVE TRACK 02 AUDIO INDEX 01 00:00:00FILE "03 - The Recordist.wav" WAVE TRACK 03 AUDIO INDEX 01 00:00:00FILE "04 - Orificial Intelligence.wav" WAVE TRACK 04 AUDIO INDEX 01 00:00:00FILE "05 - Dust In The Windmark.wav" WAVE TRACK 05 AUDIO INDEX 01 00:00:00FILE "06 - Mo’Etta Blues.wav" WAVE TRACK 06 AUDIO INDEX 01 00:00:00FILE "07 - The Cube Tube.wav" WAVE TRACK 07 AUDIO INDEX 01 00:00:00FILE "08 - An Origin Story.wav" WAVE TRACK 08 AUDIO INDEX 01 00:00:00FILE "09 - The Garden Of Live Ettas.wav" WAVE TRACK 09 AUDIO INDEX 01 00:00:00FILE "10 - A Dish Best Served Cold.wav" WAVE TRACK 10 AUDIO INDEX 01 00:00:00FILE "11 - The Human Kind.wav" WAVE TRACK 11 AUDIO INDEX 01 00:00:00FILE "12 - The Burning Book.wav" WAVE TRACK 12 AUDIO INDEX 01 00:00:00FILE "13 - Donald In The Game.wav" WAVE TRACK 13 AUDIO INDEX 01 00:00:00FILE "14 - Father And Father You Go.wav" WAVE TRACK 14 AUDIO INDEX 01 00:00:00FILE "15 - Terror Incognito.wav" WAVE TRACK 15 AUDIO INDEX 01 00:00:00FILE "16 - Olivia’s Crossover To Bear.wav" WAVE TRACK 16 AUDIO INDEX 01 00:00:00FILE "17 - Mobius Maker.wav" WAVE TRACK 17 AUDIO INDEX 01 00:00:00FILE "18 - Era Envy.wav" WAVE TRACK 18 AUDIO INDEX 01 00:00:00FILE "19 - When Push Comes To Dove.wav" WAVE TRACK 19 AUDIO INDEX 01 00:00:00FILE "20 - Paradox, So Close.wav" WAVE TRACK 20 AUDIO INDEX 01 00:00:00FILE "21 - Of Cows And Men.wav" WAVE TRACK 21 AUDIO INDEX 01 00:00:00FILE "22 - Biological War Farewell.wav" WAVE TRACK 22 AUDIO INDEX 01 00:00:00FILE "23 - The Resetting Son.wav" WAVE TRACK 23 AUDIO INDEX 01 00:00:00FILE "24 - Finale End Credits.wav" WAVE TRACK 24 AUDIO INDEX 01 00:00:00
-
[teatrix.ru].t10419.torrent 
Торрент: Зарегистрирован [ 2015-11-01 20:51 ] · FD73ABF3138F509CA968109AE8BA91D46B203A2E

Скачать .torrent

Скачать

37 KB

Статус: проверено
Скачан: 0 раз
Размер: 1.48 GB
terms.php



Быстрый ответ

Имя:

      
Для отправки сообщений необходимо включить JavaScript
Показать сообщения:    

Текущее время: 10-Дек 11:57

Часовой пояс: UTC + 3


Вы можете начинать темы
Вы можете отвечать на сообщения
Вы не можете редактировать свои сообщения
Вы не можете удалять свои сообщения
Вы не можете голосовать в опросах
Вы не можете прикреплять файлы к сообщениям
Вы можете скачивать файлы