(Score) Роб Рой / Rob Roy (by Carter Burwell) - 1995, FLAC (tracks+.cue), lossless


Статистика раздачи [Обновить пиров]
Размер:  226 MB   |    Зарегистрирован:  1 год 1 месяц   |    Скачан:  0 раз

Полного источника не было: Никогда

 
   
 
 
 

[Цитировать]

Роб Рой / Rob Roy-Жанр: Score
Композитор: Carter Burwell
Год выпуска диска: 1995
Производитель диска: USA
Издатель (лейбл): Virgin Records America
Номер по каталогу: 7243 8 40351 2 9-Аудиокодек: FLAC (*.flac)
Тип рипа: tracks+.cue
Битрейт аудио: lossless
Продолжительность: 00:51:58
Источник: lztr / nrs
Наличие сканов в содержимом раздачи: нет-

Треклист

01. Overture: Rob Roy / The Rieving Party (04:42)
02. Home from the hills (02:46)
03. Hard earth - vocals by Karen Matheson (02:10)
04. Procession for the ill-used (01:40)
05. Blood sport (01:16)
06. The Gaelic Reels - performed by Capercaillie (01:07)
07. Ailein Dunn - traditional, performed by Karen Matheson (02:37)
08. The last peaceful night (01:51)
09. Troops in the mist (01:15)
10. Honor inflamed (03:21)
11. The dispossessed: The cave / Hard home on the Moor (02:03)
12. The Blunt Reels - performed by Capercaillie (02:15)
13. Highland justice: Call of the Claymore / Assize of the Gregorach (02:58)
14. A standing stone, a silk purse (03:37)
15. Theid mi Dhachaigh (I'll go home) - traditional, performed by Angus Grant and Karen Matheson (01:20)
16. Rannoch Moor Suite: Scorched earth / Rannoch Moor retreat / The mists / Rob come to hand (06:07)
17. Morag's lament (00:50)
18. Born by rapids - traditional, performed by Karen Matheson (02:26)
19. Love and death suite: My beloved / A matter of honor / Cunningham's end (04:10)
20. Robert and Mary (03:14)

Лог создания рипа

Exact Audio Copy V0.99 prebeta 5 from 4. May 2009
EAC extraction logfile from 31. July 2010, 16:53
Carter Burwell / Rob Roy
Used drive : TSSTcorpCD/DVDW SH-S182M Adapter: 1 ID: 0
Read mode : SecureUtilize accurate stream : YesDefeat audio cache : YesMake use of C2 pointers : No
Read offset correction : 6Overread into Lead-In and Lead-Out : NoFill up missing offset samples with silence : YesDelete leading and trailing silent blocks : NoNull samples used in CRC calculations : YesUsed interface : Native Win32 interface for Win NT & 2000Gap handling : Appended to previous track
Used output format : User Defined EncoderSelected bitrate : 768 kBit/sQuality : HighAdd ID3 tag : NoCommand line compressor : C:\Program Files (x86)\Exact Audio Copy\FLAC\FLAC.EXEAdditional command line options : -8 -V -T "ARTIST=%a" -T "TITLE=%t" -T "ALBUM=%g" -T "DATE=%y" -T "TRACKNUMBER=%n" -T "TOTALTRACKS=%x" -T "GENRE=%m" -T "ALBUM ARTIST=%v" -T "ALBUMARTIST=%v" -T "COMMENT=" %s
TOC of the extracted CD
Track | Start | Length | Start sector | End sector --------------------------------------------------------- 1 | 0:00.00 | 4:42.12 | 0 | 21161 2 | 4:42.12 | 2:46.03 | 21162 | 33614 3 | 7:28.15 | 2:10.52 | 33615 | 43416 4 | 9:38.67 | 1:40.43 | 43417 | 50959 5 | 11:19.35 | 1:16.67 | 50960 | 56726 6 | 12:36.27 | 1:07.58 | 56727 | 61809 7 | 13:44.10 | 2:37.50 | 61810 | 73634 8 | 16:21.60 | 1:51.50 | 73635 | 82009 9 | 18:13.35 | 1:15.15 | 82010 | 87649 10 | 19:28.50 | 3:21.40 | 87650 | 102764 11 | 22:50.15 | 2:03.60 | 102765 | 112049 12 | 24:54.00 | 2:15.15 | 112050 | 122189 13 | 27:09.15 | 2:58.47 | 122190 | 135586 14 | 30:07.62 | 3:37.53 | 135587 | 151914 15 | 33:45.40 | 1:19.25 | 151915 | 157864 16 | 35:04.65 | 6:07.10 | 157865 | 185399 17 | 41:12.00 | 0:50.57 | 185400 | 189206 18 | 42:02.57 | 2:26.60 | 189207 | 200216 19 | 44:29.42 | 4:10.15 | 200217 | 218981 20 | 48:39.57 | 3:15.60 | 218982 | 233666
Track 1
Filename X:\Musik\My Own Collection\Carter Burwell\Rob Roy (1995) [FLAC] {Virgin Records America, 7243 8 40351 2 9}\01 - Overture.wav
Pre-gap length 0:00:02.00
Peak level 94.4 % Track quality 100.0 % Test CRC A14B6BAA Copy CRC A14B6BAA Accurately ripped (confidence 13) [6CCE26BB] Copy OK
Track 2
Filename X:\Musik\My Own Collection\Carter Burwell\Rob Roy (1995) [FLAC] {Virgin Records America, 7243 8 40351 2 9}\02 - Home From The Hills.wav
Pre-gap length 0:00:01.36
Peak level 90.5 % Track quality 99.9 % Test CRC 5A6C6594 Copy CRC 5A6C6594 Accurately ripped (confidence 13) [EBE4A82B] Copy OK
Track 3
Filename X:\Musik\My Own Collection\Carter Burwell\Rob Roy (1995) [FLAC] {Virgin Records America, 7243 8 40351 2 9}\03 - Hard Earth.wav
Pre-gap length 0:00:00.49
Peak level 58.9 % Track quality 100.0 % Test CRC 80C601AD Copy CRC 80C601AD Accurately ripped (confidence 13) [649E4965] Copy OK
Track 4
Filename X:\Musik\My Own Collection\Carter Burwell\Rob Roy (1995) [FLAC] {Virgin Records America, 7243 8 40351 2 9}\04 - Procession For The Ill-Used.wav
Pre-gap length 0:00:01.80
Peak level 17.1 % Track quality 100.0 % Test CRC 9253F6E0 Copy CRC 9253F6E0 Accurately ripped (confidence 13) [77B488E5] Copy OK
Track 5
Filename X:\Musik\My Own Collection\Carter Burwell\Rob Roy (1995) [FLAC] {Virgin Records America, 7243 8 40351 2 9}\05 - Blood Sport.wav
Pre-gap length 0:00:01.57
Peak level 84.1 % Track quality 100.0 % Test CRC 0F65DA9D Copy CRC 0F65DA9D Accurately ripped (confidence 13) [1823BE4B] Copy OK
Track 6
Filename X:\Musik\My Own Collection\Carter Burwell\Rob Roy (1995) [FLAC] {Virgin Records America, 7243 8 40351 2 9}\06 - The Gaelic Reels.wav
Pre-gap length 0:00:01.73
Peak level 78.9 % Track quality 100.0 % Test CRC 315A4658 Copy CRC 315A4658 Accurately ripped (confidence 13) [56333C04] Copy OK
Track 7
Filename X:\Musik\My Own Collection\Carter Burwell\Rob Roy (1995) [FLAC] {Virgin Records America, 7243 8 40351 2 9}\07 - Ailein Duinn.wav
Pre-gap length 0:00:00.93
Peak level 41.1 % Track quality 100.0 % Test CRC 939D89B5 Copy CRC 939D89B5 Accurately ripped (confidence 13) [68FFB0B5] Copy OK
Track 8
Filename X:\Musik\My Own Collection\Carter Burwell\Rob Roy (1995) [FLAC] {Virgin Records America, 7243 8 40351 2 9}\08 - The Last Peaceful Night.wav
Pre-gap length 0:00:01.30
Peak level 63.2 % Track quality 100.0 % Test CRC 82C640F0 Copy CRC 82C640F0 Accurately ripped (confidence 12) [B629F7E6] Copy OK
Track 9
Filename X:\Musik\My Own Collection\Carter Burwell\Rob Roy (1995) [FLAC] {Virgin Records America, 7243 8 40351 2 9}\09 - Troops In The Mist.wav
Pre-gap length 0:00:01.40
Peak level 94.4 % Track quality 100.0 % Test CRC 450B049D Copy CRC 450B049D Accurately ripped (confidence 12) [45FF2C3B] Copy OK
Track 10
Filename X:\Musik\My Own Collection\Carter Burwell\Rob Roy (1995) [FLAC] {Virgin Records America, 7243 8 40351 2 9}\10 - Honor Inflamed.wav
Pre-gap length 0:00:00.46
Peak level 94.4 % Track quality 100.0 % Test CRC 7ACC22BE Copy CRC 7ACC22BE Accurately ripped (confidence 11) [842B84B4] Copy OK
Track 11
Filename X:\Musik\My Own Collection\Carter Burwell\Rob Roy (1995) [FLAC] {Virgin Records America, 7243 8 40351 2 9}\11 - The Dispossessed.wav
Pre-gap length 0:00:01.60
Peak level 94.4 % Track quality 100.0 % Test CRC 8F3CD75F Copy CRC 8F3CD75F Accurately ripped (confidence 11) [1BE65F1E] Copy OK
Track 12
Filename X:\Musik\My Own Collection\Carter Burwell\Rob Roy (1995) [FLAC] {Virgin Records America, 7243 8 40351 2 9}\12 - The Blunt Reels.wav
Pre-gap length 0:00:01.24
Peak level 37.0 % Track quality 100.0 % Test CRC B15AD066 Copy CRC B15AD066 Accurately ripped (confidence 11) [F657F4FA] Copy OK
Track 13
Filename X:\Musik\My Own Collection\Carter Burwell\Rob Roy (1995) [FLAC] {Virgin Records America, 7243 8 40351 2 9}\13 - Highland Justice.wav
Pre-gap length 0:00:04.70
Peak level 94.4 % Track quality 99.9 % Test CRC 43D3BEA6 Copy CRC 43D3BEA6 Accurately ripped (confidence 10) [1C1CF5F6] Copy OK
Track 14
Filename X:\Musik\My Own Collection\Carter Burwell\Rob Roy (1995) [FLAC] {Virgin Records America, 7243 8 40351 2 9}\14 - A Standing Stone, A Silk Purse.wav
Pre-gap length 0:00:00.73
Peak level 74.3 % Track quality 100.0 % Test CRC 87791D74 Copy CRC 87791D74 Accurately ripped (confidence 10) [6C57ED7C] Copy OK
Track 15
Filename X:\Musik\My Own Collection\Carter Burwell\Rob Roy (1995) [FLAC] {Virgin Records America, 7243 8 40351 2 9}\15 - Theid mi Dhachaigh (I'll Go Home).wav
Pre-gap length 0:00:02.86
Peak level 16.3 % Track quality 99.8 % Test CRC 0678E524 Copy CRC 0678E524 Accurately ripped (confidence 11) [8CF57F59] Copy OK
Track 16
Filename X:\Musik\My Own Collection\Carter Burwell\Rob Roy (1995) [FLAC] {Virgin Records America, 7243 8 40351 2 9}\16 - Rannoch Moor Suite.wav
Peak level 94.4 % Track quality 100.0 % Test CRC FDE726C9 Copy CRC FDE726C9 Accurately ripped (confidence 10) [6A3CFE43] Copy OK
Track 17
Filename X:\Musik\My Own Collection\Carter Burwell\Rob Roy (1995) [FLAC] {Virgin Records America, 7243 8 40351 2 9}\17 - Morag's Lament.wav
Pre-gap length 0:00:02.10
Peak level 40.1 % Track quality 100.0 % Test CRC 849CA415 Copy CRC 849CA415 Accurately ripped (confidence 11) [C3A2847C] Copy OK
Track 18
Filename X:\Musik\My Own Collection\Carter Burwell\Rob Roy (1995) [FLAC] {Virgin Records America, 7243 8 40351 2 9}\18 - Born By Rapids.wav
Pre-gap length 0:00:00.22
Peak level 94.4 % Track quality 99.9 % Test CRC 1E1296C0 Copy CRC 1E1296C0 Accurately ripped (confidence 10) [14E930AB] Copy OK
Track 19
Filename X:\Musik\My Own Collection\Carter Burwell\Rob Roy (1995) [FLAC] {Virgin Records America, 7243 8 40351 2 9}\19 - Love And Death Suite.wav
Pre-gap length 0:00:02.62
Peak level 94.8 % Track quality 100.0 % Test CRC B360CC84 Copy CRC B360CC84 Accurately ripped (confidence 11) [6F2D172F] Copy OK
Track 20
Filename X:\Musik\My Own Collection\Carter Burwell\Rob Roy (1995) [FLAC] {Virgin Records America, 7243 8 40351 2 9}\20 - Robert And Mary.wav
Pre-gap length 0:00:03.06
Peak level 94.4 % Track quality 100.0 % Test CRC 1A3AAFAA Copy CRC 1A3AAFAA Accurately ripped (confidence 10) [DF20B983] Copy OK
All tracks accurately ripped
No errors occurred
End of status report

Содержание индексной карты (.CUE)

REM DATE 1995REM DISCID 140C2B14REM COMMENT "ExactAudioCopy v0.99pb5"FILE "01 - Overture.wav" WAVE TRACK 01 AUDIO INDEX 01 00:00:00 INDEX 02 02:16:74 TRACK 02 AUDIO INDEX 00 04:40:59FILE "02 - Home From The Hills.wav" WAVE INDEX 01 00:00:00 TRACK 03 AUDIO INDEX 00 02:45:40FILE "03 - Hard Earth.wav" WAVE INDEX 01 00:00:00 TRACK 04 AUDIO INDEX 00 02:08:67FILE "04 - Procession For The Ill-Used.wav" WAVE INDEX 01 00:00:00 TRACK 05 AUDIO INDEX 00 01:38:74FILE "05 - Blood Sport.wav" WAVE INDEX 01 00:00:00 INDEX 02 00:20:15 TRACK 06 AUDIO INDEX 00 01:15:11FILE "06 - The Gaelic Reels.wav" WAVE INDEX 01 00:00:00 TRACK 07 AUDIO INDEX 00 01:06:63FILE "07 - Ailein Duinn.wav" WAVE INDEX 01 00:00:00 TRACK 08 AUDIO INDEX 00 02:36:25FILE "08 - The Last Peaceful Night.wav" WAVE INDEX 01 00:00:00 TRACK 09 AUDIO INDEX 00 01:50:19FILE "09 - Troops In The Mist.wav" WAVE INDEX 01 00:00:00 TRACK 10 AUDIO INDEX 00 01:14:54FILE "10 - Honor Inflamed.wav" WAVE INDEX 01 00:00:00 TRACK 11 AUDIO INDEX 00 03:19:70FILE "11 - The Dispossessed.wav" WAVE INDEX 01 00:00:00 INDEX 02 00:55:69 TRACK 12 AUDIO INDEX 00 02:02:41FILE "12 - The Blunt Reels.wav" WAVE INDEX 01 00:00:00 TRACK 13 AUDIO INDEX 00 02:10:36FILE "13 - Highland Justice.wav" WAVE INDEX 01 00:00:00 INDEX 02 01:24:39 TRACK 14 AUDIO INDEX 00 02:57:66FILE "14 - A Standing Stone, A Silk Purse.wav" WAVE INDEX 01 00:00:00 INDEX 02 02:09:39 TRACK 15 AUDIO INDEX 00 03:34:62FILE "15 - Theid mi Dhachaigh (I'll Go Home).wav" WAVE INDEX 01 00:00:00 TRACK 16 AUDIO INDEX 00 01:19:24FILE "16 - Rannoch Moor Suite.wav" WAVE INDEX 01 00:00:00 INDEX 02 01:10:71 INDEX 03 02:56:05 INDEX 04 05:24:16 TRACK 17 AUDIO INDEX 00 06:04:74FILE "17 - Morag's Lament.wav" WAVE INDEX 01 00:00:00 TRACK 18 AUDIO INDEX 00 00:50:39FILE "18 - Born By Rapids.wav" WAVE INDEX 01 00:00:00 TRACK 19 AUDIO INDEX 00 02:24:12FILE "19 - Love And Death Suite.wav" WAVE INDEX 01 00:00:00 INDEX 02 01:59:07 INDEX 03 03:18:12 TRACK 20 AUDIO INDEX 00 04:07:09FILE "20 - Robert And Mary.wav" WAVE INDEX 01 00:00:00
[teatrix.ru].t10420.torrent 
Торрент: Зарегистрирован [ 2015-11-01 20:51 ] · 683693EBE213354E8CF3700FC00BCBEE954A37DD

Скачать .torrent

Скачать

19 KB

Статус: проверено
Скачан: 0 раз
Размер: 226 MB
terms.php



Быстрый ответ

Имя:

      
Для отправки сообщений необходимо включить JavaScript
Показать сообщения:    

Текущее время: 04-Дек 11:14

Часовой пояс: UTC + 3


Вы можете начинать темы
Вы можете отвечать на сообщения
Вы не можете редактировать свои сообщения
Вы не можете удалять свои сообщения
Вы не можете голосовать в опросах
Вы не можете прикреплять файлы к сообщениям
Вы можете скачивать файлы