(Score) Мотылек / Papillon (by Jerry Goldsmith) - 2002 (1973), FLAC (tracks+.cue), lossless


Статистика раздачи [Обновить пиров]
Размер:  299 MB   |    Зарегистрирован:  1 год 1 месяц   |    Скачан:  1 раз

Полного источника не было: 1 месяц 19 дней

 
   
 
 
 

[Цитировать]

Мотылек / Papillon- Жанр: Score
Композитор: Jerry Goldsmith
Год выпуска диска: 2002
Год выпуска фильма: 1973
Страна-производитель диска: France
Издатель (лейбл): Universal France
Номер по каталогу: 017 179-2
Аудио кодек: FLAC (*.flac)
Тип рипа: tracks+.cue
Битрейт аудио: lossless
Продолжительность: 00:46:24
Источник: CD / forums.ffshrine.org
Наличие сканов в содержимом раздачи: да
Треклист:
01 - Theme
02 - The Camp
03 - Reunion
04 - New Friend
05 - The Dream
06 - Freedom
07 - Catching Butterflies
08 - Gift from The Sea
09 - Arrest
10 - Theme (Short Version)
11 - Antonio's Death
12 - Cruel Sea
13 - Hospital
14 - Survival
15 - Toi Qui Regarde La Mer, Par Nicoletta

Лог создания рипа

Exact Audio Copy V1.0 beta 1 from 15. November 2010
EAC extraction logfile from 31. March 2011, 14:21
Jerry Goldsmith / Papillon
Used drive : TSSTcorpCDDVDW TS-L632H Adapter: 1 ID: 0
Read mode : SecureUtilize accurate stream : YesDefeat audio cache : NoMake use of C2 pointers : No
Read offset correction : 6Overread into Lead-In and Lead-Out : NoFill up missing offset samples with silence : YesDelete leading and trailing silent blocks : NoNull samples used in CRC calculations : YesUsed interface : Native Win32 interface for Win NT & 2000Gap handling : Appended to previous track
Used output format : User Defined EncoderSelected bitrate : 896 kBit/sQuality : HighAdd ID3 tag : NoCommand line compressor : C:\Program Files\Exact Audio Copy\Flac\flac.exeAdditional command line options : -V -8 -T "artist=%a" -T "title=%t" -T "album=%g" -T "date=%y" -T "tracknumber=%n" -T "genre=%m" %s
TOC of the extracted CD
Track | Start | Length | Start sector | End sector --------------------------------------------------------- 1 | 0:00.00 | 2:18.19 | 0 | 10368 2 | 2:18.19 | 3:02.32 | 10369 | 24050 3 | 5:20.51 | 4:38.29 | 24051 | 44929 4 | 9:59.05 | 2:07.12 | 44930 | 54466 5 | 12:06.17 | 1:15.38 | 54467 | 60129 6 | 13:21.55 | 4:00.45 | 60130 | 78174 7 | 17:22.25 | 1:34.01 | 78175 | 85225 8 | 18:56.26 | 6:49.06 | 85226 | 115906 9 | 25:45.32 | 2:12.53 | 115907 | 125859 10 | 27:58.10 | 1:48.26 | 125860 | 133985 11 | 29:46.36 | 2:31.25 | 133986 | 145335 12 | 32:17.61 | 1:31.50 | 145336 | 152210 13 | 33:49.36 | 3:52.37 | 152211 | 169647 14 | 37:41.73 | 5:28.48 | 169648 | 194295 15 | 43:10.46 | 3:13.70 | 194296 | 208840
Track 1
Filename D:\EACrips\Jerry Goldsmith - 1973 - Papillon\01 - Theme from PAPILLON.wav
Pre-gap length 0:00:02.00
Peak level 97.5 % Extraction speed 1.6 X Track quality 100.0 % Copy CRC 53C24593 Accurately ripped (confidence 9) [5621B08A] Copy OK
Track 2
Filename D:\EACrips\Jerry Goldsmith - 1973 - Papillon\02 - The Camp.wav
Peak level 97.4 % Extraction speed 1.7 X Track quality 100.0 % Copy CRC 03EB2F9B Accurately ripped (confidence 9) [B3E76603] Copy OK
Track 3
Filename D:\EACrips\Jerry Goldsmith - 1973 - Papillon\03 - Reunion.wav
Pre-gap length 0:03:02.42
Peak level 85.1 % Extraction speed 1.9 X Track quality 100.0 % Copy CRC 3564CC03 Accurately ripped (confidence 9) [80292DBC] Copy OK
Track 4
Filename D:\EACrips\Jerry Goldsmith - 1973 - Papillon\04 - New Friend.wav
Pre-gap length 0:07:40.81
Peak level 99.2 % Extraction speed 1.7 X Track quality 99.9 % Copy CRC FC043F05 Accurately ripped (confidence 9) [C6AA1FE3] Copy OK
Track 5
Filename D:\EACrips\Jerry Goldsmith - 1973 - Papillon\05 - The Dream.wav
Pre-gap length 0:09:47.97
Peak level 44.2 % Extraction speed 1.8 X Track quality 100.0 % Copy CRC A9A8853F Accurately ripped (confidence 9) [39489C5C] Copy OK
Track 6
Filename D:\EACrips\Jerry Goldsmith - 1973 - Papillon\06 - Freedom.wav
Pre-gap length 0:11:03.48
Peak level 98.8 % Extraction speed 2.1 X Track quality 100.0 % Copy CRC AF896617 Accurately ripped (confidence 9) [F05D0040] Copy OK
Track 7
Filename D:\EACrips\Jerry Goldsmith - 1973 - Papillon\07 - Catching Butterflies.wav
Pre-gap length 0:15:04.08
Peak level 44.2 % Extraction speed 2.0 X Track quality 100.0 % Copy CRC CE778FE5 Accurately ripped (confidence 9) [2B0FBF2A] Copy OK
Track 8
Filename D:\EACrips\Jerry Goldsmith - 1973 - Papillon\08 - Gift from The Sea.wav
Pre-gap length 0:16:38.09
Peak level 90.2 % Extraction speed 2.2 X Track quality 99.9 % Copy CRC 39FB2C46 Accurately ripped (confidence 9) [B2AB45FE] Copy OK
Track 9
Filename D:\EACrips\Jerry Goldsmith - 1973 - Papillon\09 - Arrest.wav
Pre-gap length 0:23:27.17
Peak level 96.7 % Extraction speed 2.3 X Track quality 100.0 % Copy CRC 2A46C6C1 Accurately ripped (confidence 9) [6DA829AE] Copy OK
Track 10
Filename D:\EACrips\Jerry Goldsmith - 1973 - Papillon\10 - Theme from PAPILLON (Short Version).wav
Pre-gap length 0:25:39.88
Peak level 90.5 % Extraction speed 2.3 X Track quality 100.0 % Copy CRC 98493D7A Accurately ripped (confidence 9) [B2F64CD5] Copy OK
Track 11
Filename D:\EACrips\Jerry Goldsmith - 1973 - Papillon\11 - Antonio's Death.wav
Pre-gap length 0:27:28.22
Peak level 98.0 % Extraction speed 2.2 X Track quality 100.0 % Copy CRC B31F9159 Accurately ripped (confidence 9) [D2588A28] Copy OK
Track 12
Filename D:\EACrips\Jerry Goldsmith - 1973 - Papillon\12 - Cruel Sea.wav
Pre-gap length 0:29:59.56
Peak level 88.8 % Extraction speed 2.2 X Track quality 100.0 % Copy CRC FBFC9127 Accurately ripped (confidence 9) [7BC6F031] Copy OK
Track 13
Filename D:\EACrips\Jerry Goldsmith - 1973 - Papillon\13 - Hospital.wav
Pre-gap length 0:31:31.22
Peak level 70.5 % Extraction speed 2.6 X Track quality 100.0 % Copy CRC EDE89102 Accurately ripped (confidence 9) [764BF5DB] Copy OK
Track 14
Filename D:\EACrips\Jerry Goldsmith - 1973 - Papillon\14 - Survival.wav
Pre-gap length 0:35:23.72
Peak level 96.8 % Extraction speed 2.6 X Track quality 100.0 % Copy CRC 7A28EEAD Accurately ripped (confidence 9) [89225514] Copy OK
Track 15
Filename D:\EACrips\Jerry Goldsmith - 1973 - Papillon\15 - Toi Qui Regarde La Mer, Par Nicoletta.wav
Pre-gap length 0:40:52.36
Peak level 83.9 % Extraction speed 2.4 X Track quality 99.9 % Copy CRC 647CE5AC Accurately ripped (confidence 9) [684EBDDF] Copy OK
All tracks accurately ripped
No errors occurred
End of status report

Содержание индексной карты (.CUE)

REM GENRE SoundtrackREM DATE 1973REM DISCID BA0AE00FREM COMMENT "ExactAudioCopy v1.0b1"PERFORMER "Jerry Goldsmith"TITLE "Papillon"FILE "01 - Theme from PAPILLON.wav" WAVE TRACK 01 AUDIO TITLE "Theme from PAPILLON" PERFORMER "Jerry Goldsmith" INDEX 01 00:00:00FILE "02 - The Camp.wav" WAVE TRACK 02 AUDIO TITLE "The Camp" PERFORMER "Jerry Goldsmith" INDEX 01 00:00:00 TRACK 03 AUDIO TITLE "Reunion" PERFORMER "Jerry Goldsmith" INDEX 00 00:00:00FILE "03 - Reunion.wav" WAVE INDEX 01 00:00:00 TRACK 04 AUDIO TITLE "New Friend" PERFORMER "Jerry Goldsmith" INDEX 00 07:58:43FILE "04 - New Friend.wav" WAVE INDEX 01 00:00:00 TRACK 05 AUDIO TITLE "The Dream" PERFORMER "Jerry Goldsmith" INDEX 00 03:20:14FILE "05 - The Dream.wav" WAVE INDEX 01 00:00:00 TRACK 06 AUDIO TITLE "Freedom" PERFORMER "Jerry Goldsmith" INDEX 00 01:13:02FILE "06 - Freedom.wav" WAVE INDEX 01 00:00:00 TRACK 07 AUDIO TITLE "Catching Butterflies" PERFORMER "Jerry Goldsmith" INDEX 00 99:57:39FILE "07 - Catching Butterflies.wav" WAVE INDEX 01 00:00:00 TRACK 08 AUDIO TITLE "Gift from The Sea" PERFORMER "Jerry Goldsmith" INDEX 00 95:56:69FILE "08 - Gift from The Sea.wav" WAVE INDEX 01 00:00:00 TRACK 09 AUDIO TITLE "Arrest" PERFORMER "Jerry Goldsmith" INDEX 00 94:22:68FILE "09 - Arrest.wav" WAVE INDEX 01 00:00:00 TRACK 10 AUDIO TITLE "Theme from PAPILLON (Short Version)" PERFORMER "Jerry Goldsmith" INDEX 00 87:33:62FILE "10 - Theme from PAPILLON (Short Version).wav" WAVE INDEX 01 00:00:00 TRACK 11 AUDIO TITLE "Antonio's Death" PERFORMER "Jerry Goldsmith" INDEX 00 85:21:09FILE "11 - Antonio's Death.wav" WAVE INDEX 01 00:00:00 TRACK 12 AUDIO TITLE "Cruel Sea" PERFORMER "Jerry Goldsmith" INDEX 00 83:32:58FILE "12 - Cruel Sea.wav" WAVE INDEX 01 00:00:00 TRACK 13 AUDIO TITLE "Hospital" PERFORMER "Jerry Goldsmith" INDEX 00 81:01:33FILE "13 - Hospital.wav" WAVE INDEX 01 00:00:00 TRACK 14 AUDIO TITLE "Survival" PERFORMER "Jerry Goldsmith" INDEX 00 79:29:58FILE "14 - Survival.wav" WAVE INDEX 01 00:00:00 TRACK 15 AUDIO TITLE "Toi Qui Regarde La Mer, Par Nicoletta" PERFORMER "Jerry Goldsmith" INDEX 00 75:37:21FILE "15 - Toi Qui Regarde La Mer, Par Nicoletta.wav" WAVE INDEX 01 00:00:00
[teatrix.ru].t10421.torrent 
Торрент: Зарегистрирован [ 2015-11-01 20:51 ] · 72A8D2F1F29330E8FB313A066A095803427213C3

Скачать .torrent

Скачать

14 KB

Статус: проверено
Скачан: 1 раз
Размер: 299 MB
terms.php



Быстрый ответ

Имя:

      
Для отправки сообщений необходимо включить JavaScript
Показать сообщения:    

Текущее время: 03-Дек 16:45

Часовой пояс: UTC + 3


Вы можете начинать темы
Вы можете отвечать на сообщения
Вы не можете редактировать свои сообщения
Вы не можете удалять свои сообщения
Вы не можете голосовать в опросах
Вы не можете прикреплять файлы к сообщениям
Вы можете скачивать файлы