(Score) Неисправимый / L'incorrigible (by Georges Delerue) - 2011 (1975), FLAC (image+.cue), lossless


Статистика раздачи [Обновить пиров]
Размер:  351 MB   |    Зарегистрирован:  1 год 1 месяц   |    Скачан:  0 раз

Полного источника не было: Никогда

 
   
 
 
 

[Цитировать]

-Неисправимый / L'incorrigible
Composed and Conducted by Georges Delerue
Limited Edition of 1000 Copies
- -Жанр: Score | Дата выпуска: 21 февраля 2011
Издатель (лейбл): Music Box Records | Номер по каталогу: MBR-001
Аудиокодек: FLAC | Тип рипа: image+.cue | Битрейт аудио: lossless
Общая продолжительность: 63:19
Источник: Рип оригинального диска из личной коллекции
-
★★ L'incorrigible ★★ (1975)
01. Générique [1:19]
02. Tendre Marie-Charlotte [2:24]
03. Victor traite une affaire [1:10]
04. Le tango de Victor le séducteur [1:03]
05. Le rendez-vous du Colibri [1:37]
06. Victor chez Hélène [1:24]
07. Lieder [8:35]
08. Menuet pour Hélène [1:19]
09. Sortie de prison [1:26]
10. Le retour au bercail [0:55]
11. Le petit cirque [1:32]
12. El Greco [1:21]
13. Camille prépare son coup [1:40]
14. Imprévisible dénouement [2:34]
15. Victor et Camille au Mont Saint-Michel [2:21]
16. Thème d’amour [2:06]
★★ Va voir maman, papa travaille ★★ (1978)
17. Générique début [2:15]
18. Serge et Marianne [1:57]
19. Au parc de Thoiry [1:49]
20. Christine [1:32]
21. Surprise partie [2:53]
22. Vincent et Agnès [2:13]
23. Zoo musette [2:27]
24. Agnès amoureuse [1:57]
25. Week-end avec Vincent [2:09]
26. Hôtel du Parc [2:52]
27. Promenade [1:23]
28. Futurissimo [3:25]
29. Générique fin [2:37]

Лог создания рипа

Exact Audio Copy V1.0 beta 3 from 29. August 2011
EAC extraction logfile from 26. September 2014, 14:06
Georges Delerue / L'Incorrigible
Used drive : TSSTcorpCDDVDW SN-S082N Adapter: 3 ID: 0
Read mode : SecureUtilize accurate stream : YesDefeat audio cache : YesMake use of C2 pointers : No
Read offset correction : 6Overread into Lead-In and Lead-Out : NoFill up missing offset samples with silence : YesDelete leading and trailing silent blocks : NoNull samples used in CRC calculations : YesUsed interface : Native Win32 interface for Win NT & 2000
Used output format : Internal WAV RoutinesSample format : 44.100 Hz; 16 Bit; Stereo
TOC of the extracted CD
Track | Start | Length | Start sector | End sector --------------------------------------------------------- 1 | 0:00.00 | 1:19.56 | 0 | 5980 2 | 1:19.56 | 2:25.58 | 5981 | 16913 3 | 3:45.39 | 1:12.26 | 16914 | 22339 4 | 4:57.65 | 1:05.27 | 22340 | 27241 5 | 6:03.17 | 1:39.29 | 27242 | 34695 6 | 7:42.46 | 1:26.53 | 34696 | 41198 7 | 9:09.24 | 8:37.28 | 41199 | 80001 8 | 17:46.52 | 1:21.15 | 80002 | 86091 9 | 19:07.67 | 1:27.58 | 86092 | 92674 10 | 20:35.50 | 0:56.52 | 92675 | 96926 11 | 21:32.27 | 1:34.48 | 96927 | 104024 12 | 23:07.00 | 1:23.16 | 104025 | 110265 13 | 24:30.16 | 1:41.69 | 110266 | 117909 14 | 26:12.10 | 2:36.37 | 117910 | 129646 15 | 28:48.47 | 2:24.31 | 129647 | 140477 16 | 31:13.03 | 2:11.23 | 140478 | 150325 17 | 33:24.26 | 2:16.31 | 150326 | 160556 18 | 35:40.57 | 1:59.45 | 160557 | 169526 19 | 37:40.27 | 1:51.39 | 169527 | 177890 20 | 39:31.66 | 1:33.60 | 177891 | 184925 21 | 41:05.51 | 2:55.26 | 184926 | 198076 22 | 44:01.02 | 2:15.03 | 198077 | 208204 23 | 46:16.05 | 2:29.32 | 208205 | 219411 24 | 48:45.37 | 1:59.24 | 219412 | 228360 25 | 50:44.61 | 2:10.59 | 228361 | 238169 26 | 52:55.45 | 2:54.24 | 238170 | 251243 27 | 55:49.69 | 1:24.72 | 251244 | 257615 28 | 57:14.66 | 3:27.11 | 257616 | 273151 29 | 60:42.02 | 2:37.44 | 273152 | 284970
Range status and errors
Selected range
Filename D:\Georges Delerue - CD Collection [by italia57]\Georges Delerue (1975) L'Incorrigible\Georges Delerue - L'Incorrigible (MBR-001).wav
Peak level 98.0 % Extraction speed 4.2 X Range quality 100.0 % Test CRC 6B0872D2 Copy CRC 6B0872D2 Copy OK
No errors occurred
AccurateRip summary
Track 1 accurately ripped (confidence 7) [BF1596D0] (AR v2)Track 2 accurately ripped (confidence 7) [E9D0BA19] (AR v2)Track 3 accurately ripped (confidence 7) [CD19D4E1] (AR v2)Track 4 accurately ripped (confidence 7) [127250E5] (AR v2)Track 5 accurately ripped (confidence 7) [EAB88C15] (AR v2)Track 6 accurately ripped (confidence 7) [2D351947] (AR v2)Track 7 accurately ripped (confidence 7) [E73423FE] (AR v2)Track 8 accurately ripped (confidence 7) [237B7B00] (AR v2)Track 9 accurately ripped (confidence 7) [0032252D] (AR v2)Track 10 accurately ripped (confidence 7) [E72E8F4D] (AR v2)Track 11 accurately ripped (confidence 7) [572826DC] (AR v2)Track 12 accurately ripped (confidence 7) [D8FC5050] (AR v2)Track 13 accurately ripped (confidence 7) [A429B91E] (AR v2)Track 14 accurately ripped (confidence 7) [9C865ED0] (AR v2)Track 15 accurately ripped (confidence 7) [BD5A59A1] (AR v2)Track 16 accurately ripped (confidence 7) [6F07C8C6] (AR v2)Track 17 accurately ripped (confidence 7) [85C05288] (AR v2)Track 18 accurately ripped (confidence 7) [43732B86] (AR v2)Track 19 accurately ripped (confidence 7) [52E36F3C] (AR v2)Track 20 accurately ripped (confidence 7) [7F3F3003] (AR v2)Track 21 accurately ripped (confidence 7) [4E6CB3A1] (AR v2)Track 22 accurately ripped (confidence 7) [A37D2144] (AR v2)Track 23 accurately ripped (confidence 7) [72A959FB] (AR v2)Track 24 accurately ripped (confidence 7) [BFF7D11D] (AR v2)Track 25 accurately ripped (confidence 7) [BCA09342] (AR v2)Track 26 accurately ripped (confidence 7) [B703ACE2] (AR v2)Track 27 accurately ripped (confidence 7) [0DE494D8] (AR v2)Track 28 accurately ripped (confidence 7) [25087CDD] (AR v2)Track 29 accurately ripped (confidence 7) [40C4E944] (AR v2)
All tracks accurately ripped
End of status report
---- CUETools DB Plugin V2.1.4
[CTDB TOCID: TUs8k8bEhH85iiJQupTQge2VZcY-] foundSubmit result: TUs8k8bEhH85iiJQupTQge2VZcY- has been confirmedTrack | CTDB Status 1 | (2/2) Accurately ripped 2 | (2/2) Accurately ripped 3 | (2/2) Accurately ripped 4 | (2/2) Accurately ripped 5 | (2/2) Accurately ripped 6 | (2/2) Accurately ripped 7 | (2/2) Accurately ripped 8 | (2/2) Accurately ripped 9 | (2/2) Accurately ripped 10 | (2/2) Accurately ripped 11 | (2/2) Accurately ripped 12 | (2/2) Accurately ripped 13 | (2/2) Accurately ripped 14 | (2/2) Accurately ripped 15 | (2/2) Accurately ripped 16 | (2/2) Accurately ripped 17 | (2/2) Accurately ripped 18 | (2/2) Accurately ripped 19 | (2/2) Accurately ripped 20 | (2/2) Accurately ripped 21 | (2/2) Accurately ripped 22 | (2/2) Accurately ripped 23 | (2/2) Accurately ripped 24 | (2/2) Accurately ripped 25 | (2/2) Accurately ripped 26 | (2/2) Accurately ripped 27 | (2/2) Accurately ripped 28 | (2/2) Accurately ripped 29 | (2/2) Accurately ripped
==== Log checksum 64F0308BA7DC9413131721D843C42DAD246DE4547CB27330EC370494908FD85C ====

Содержание индексной карты (.CUE)

REM GENRE SoundtrackREM DATE 1975REM DISCID A70ED71DREM COMMENT "ExactAudioCopy v1.0b3"PERFORMER "Georges Delerue"TITLE "L'Incorrigible"FILE "Georges Delerue - L'Incorrigible (MBR-001).flac" WAVE TRACK 01 AUDIO TITLE "Generique" PERFORMER "Georges Delerue" INDEX 01 00:00:00 TRACK 02 AUDIO TITLE "Tendre Marie-Charlotte" PERFORMER "Georges Delerue" INDEX 00 01:18:56 INDEX 01 01:19:56 TRACK 03 AUDIO TITLE "Victor traite une affaire" PERFORMER "Georges Delerue" INDEX 00 03:43:39 INDEX 01 03:45:39 TRACK 04 AUDIO TITLE "Le tango de Victor le seducteur" PERFORMER "Georges Delerue" INDEX 00 04:55:65 INDEX 01 04:57:65 TRACK 05 AUDIO TITLE "Le rendez-vous du Colibri" PERFORMER "Georges Delerue" INDEX 00 06:01:17 INDEX 01 06:03:17 TRACK 06 AUDIO TITLE "Victor chez Helene" PERFORMER "Georges Delerue" INDEX 00 07:40:46 INDEX 01 07:42:46 TRACK 07 AUDIO TITLE "Lieder" PERFORMER "Georges Delerue" INDEX 00 09:07:24 INDEX 01 09:09:24 TRACK 08 AUDIO TITLE "Menuet pour Helene" PERFORMER "Georges Delerue" INDEX 00 17:44:52 INDEX 01 17:46:52 TRACK 09 AUDIO TITLE "Sortie de prison" PERFORMER "Georges Delerue" INDEX 00 19:05:67 INDEX 01 19:07:67 TRACK 10 AUDIO TITLE "Le retour au bercail" PERFORMER "Georges Delerue" INDEX 00 20:33:50 INDEX 01 20:35:50 TRACK 11 AUDIO TITLE "Le petit cirque" PERFORMER "Georges Delerue" INDEX 00 21:30:27 INDEX 01 21:32:27 TRACK 12 AUDIO TITLE "El Greco" PERFORMER "Georges Delerue" INDEX 00 23:05:00 INDEX 01 23:07:00 TRACK 13 AUDIO TITLE "Camille prepare son coup" PERFORMER "Georges Delerue" INDEX 00 24:28:16 INDEX 01 24:30:16 TRACK 14 AUDIO TITLE "Imprevisible denouement" PERFORMER "Georges Delerue" INDEX 00 26:10:22 INDEX 01 26:12:10 TRACK 15 AUDIO TITLE "Victor et Camille au Mont Saint-Michel" PERFORMER "Georges Delerue" INDEX 00 28:46:47 INDEX 01 28:48:47 TRACK 16 AUDIO TITLE "Theme d'amour" PERFORMER "Georges Delerue" INDEX 00 31:10:03 INDEX 01 31:13:03 TRACK 17 AUDIO TITLE "Generique debut" PERFORMER "Georges Delerue" INDEX 00 33:19:26 INDEX 01 33:24:26 TRACK 18 AUDIO TITLE "Serge et Marianne" PERFORMER "Georges Delerue" INDEX 00 35:39:22 INDEX 01 35:40:57 TRACK 19 AUDIO TITLE "Au parc de Thoiry" PERFORMER "Georges Delerue" INDEX 00 37:38:27 INDEX 01 37:40:27 TRACK 20 AUDIO TITLE "Christine" PERFORMER "Georges Delerue" INDEX 00 39:29:66 INDEX 01 39:31:66 TRACK 21 AUDIO TITLE "Surprise partie" PERFORMER "Georges Delerue" INDEX 00 41:03:51 INDEX 01 41:05:51 TRACK 22 AUDIO TITLE "Vincent et Agnes" PERFORMER "Georges Delerue" INDEX 00 43:59:02 INDEX 01 44:01:02 TRACK 23 AUDIO TITLE "Zoo musette" PERFORMER "Georges Delerue" INDEX 00 46:14:05 INDEX 01 46:16:05 TRACK 24 AUDIO TITLE "Agnes amoureuse" PERFORMER "Georges Delerue" INDEX 00 48:43:37 INDEX 01 48:45:37 TRACK 25 AUDIO TITLE "Week-end avec Vincent" PERFORMER "Georges Delerue" INDEX 00 50:42:61 INDEX 01 50:44:61 TRACK 26 AUDIO TITLE "Hotel du Parc" PERFORMER "Georges Delerue" INDEX 00 52:54:05 INDEX 01 52:55:45 TRACK 27 AUDIO TITLE "Promenade" PERFORMER "Georges Delerue" INDEX 00 55:47:69 INDEX 01 55:49:69 TRACK 28 AUDIO TITLE "Futurissimo" PERFORMER "Georges Delerue" INDEX 00 57:12:66 INDEX 01 57:14:66 TRACK 29 AUDIO TITLE "Generique fin" PERFORMER "Georges Delerue" INDEX 00 60:40:02 INDEX 01 60:42:02
[teatrix.ru].t10422.torrent 
Торрент: Зарегистрирован [ 2015-11-01 20:51 ] · 1BBF100B0469552C76E50A4A50D52813F6707EBD

Скачать .torrent

Скачать

15 KB

Статус: проверено
Скачан: 0 раз
Размер: 351 MB
terms.php



Быстрый ответ

Имя:

      
Для отправки сообщений необходимо включить JavaScript
Показать сообщения:    

Текущее время: 04-Дек 15:18

Часовой пояс: UTC + 3


Вы можете начинать темы
Вы можете отвечать на сообщения
Вы не можете редактировать свои сообщения
Вы не можете удалять свои сообщения
Вы не можете голосовать в опросах
Вы не можете прикреплять файлы к сообщениям
Вы можете скачивать файлы