(Score) Французская революция / La Revolution francaise (by Georges Delerue) - 2014 (1989), FLAC (image+.cue), lossless


Статистика раздачи [Обновить пиров]
Размер:  969 MB   |    Зарегистрирован:  1 год 1 месяц   |    Скачан:  1 раз

Полного источника не было: 4 месяца 7 дней

 
   
 
 
 

[Цитировать]

-Французская революция / La Révolution française
Composed and Conducted by Georges Delerue
Limited Edition of 1500 Copies
- -Жанр: Score | Дата выпуска: 8 сентября 2014
Издатель (лейбл): Music Box Records | Номер по каталогу: MBR-053
Аудиокодек: FLAC | Тип рипа: image+.cue | Битрейт аудио: lossless
Общая продолжительность: 65:13 + 62:38
Источник: Рип оригинальных дисков из личной коллекции
-

Disc 1 - Les années lumière


** DISC ONE • LES ANNÉES LUMIÈRE **
01. Hymne à la Liberté (version orchestrale) [3:54]
02. Le lever du Roi [1:13]
03. Le hameau de la Reine [1:05]
04. Ouverture des États généraux [1:06]
05. Premier appel révolutionnaire [1:30]
06. À la Bastille [1:24]
07. Prise de la Bastille [4:20]
08. Fête des barricades [1:47]
09. Abolition des privilèges [2:05]
10. Déclaration des Droits de l'Homme [4:46]
11. La marche des femmes [3:47]
12. La Fête [2:31]
13. Appels et serment [1:42]
14. Mort de Mirabeau [0:57]
15. Fête au Champ de Mars [1:16]
16. Fersen et Marie-Antoinette [1:07]
17. La Reine et ses enfants [1:31]
18. L'ombre de la guerre [1:13]
19. Défaite des régiments français [2:27]
20. La Marseillaise [1:28]
21. Fin de la royauté [3:06]
22. Hymne à la Liberté (performed by Jessye Norman) [3:52]
** BONUS TRACKS **
23. Les années lumière (Générique) [0:35]
24. Mort de Louis-Joseph [1:45]
25. Acclamations du peuple [0:30]
26. Les festivités [0:48]
27. Le piège [2:04]
28. Marat dénonce le roi [2:24]
29. Le serment du Jeu de paume [1:01]
30. La Garde nationale / Chute de la monarchie [2:03]
31. Naissance d'un hymne [1:29]
32. Hymne à la Liberté (version orchestrale alternative) [3:05]
Music Performed by The British Symphony Orchestra
Orchestra and Soloists Assembled by Nat Peck

Лог создания рипа

Exact Audio Copy V1.0 beta 3 from 29. August 2011
EAC extraction logfile from 26. September 2014, 12:11
Georges Delerue / La revolution francaise (Disc 1)
Used drive : TSSTcorpCDDVDW SN-S082N Adapter: 3 ID: 0
Read mode : SecureUtilize accurate stream : YesDefeat audio cache : YesMake use of C2 pointers : No
Read offset correction : 6Overread into Lead-In and Lead-Out : NoFill up missing offset samples with silence : YesDelete leading and trailing silent blocks : NoNull samples used in CRC calculations : YesUsed interface : Native Win32 interface for Win NT & 2000
Used output format : Internal WAV RoutinesSample format : 44.100 Hz; 16 Bit; Stereo
TOC of the extracted CD
Track | Start | Length | Start sector | End sector --------------------------------------------------------- 1 | 0:00.00 | 3:56.09 | 0 | 17708 2 | 3:56.09 | 1:15.70 | 17709 | 23403 3 | 5:12.04 | 1:07.41 | 23404 | 28469 4 | 6:19.45 | 1:08.29 | 28470 | 33598 5 | 7:27.74 | 1:32.68 | 33599 | 40566 6 | 9:00.67 | 1:26.22 | 40567 | 47038 7 | 10:27.14 | 4:22.34 | 47039 | 66722 8 | 14:49.48 | 1:49.64 | 66723 | 74961 9 | 16:39.37 | 2:07.42 | 74962 | 84528 10 | 18:47.04 | 4:48.24 | 84529 | 106152 11 | 23:35.28 | 3:49.66 | 106153 | 123393 12 | 27:25.19 | 2:33.08 | 123394 | 134876 13 | 29:58.27 | 1:44.41 | 134877 | 142717 14 | 31:42.68 | 0:59.07 | 142718 | 147149 15 | 32:42.00 | 1:18.28 | 147150 | 153027 16 | 34:00.28 | 1:09.39 | 153028 | 158241 17 | 35:09.67 | 1:33.60 | 158242 | 165276 18 | 36:43.52 | 1:15.37 | 165277 | 170938 19 | 37:59.14 | 2:29.32 | 170939 | 182145 20 | 40:28.46 | 1:30.44 | 182146 | 188939 21 | 41:59.15 | 3:08.25 | 188940 | 203064 22 | 45:07.40 | 3:55.74 | 203065 | 220763 23 | 49:03.39 | 0:37.72 | 220764 | 223610 24 | 49:41.36 | 1:47.54 | 223611 | 231689 25 | 51:29.15 | 0:31.31 | 231690 | 234045 26 | 52:00.46 | 0:50.25 | 234046 | 237820 27 | 52:50.71 | 2:06.51 | 237821 | 247321 28 | 54:57.47 | 2:26.61 | 247322 | 258332 29 | 57:24.33 | 1:03.50 | 258333 | 263107 30 | 58:28.08 | 2:05.72 | 263108 | 272554 31 | 60:34.05 | 1:31.36 | 272555 | 279415 32 | 62:05.41 | 3:05.64 | 279416 | 293354
Range status and errors
Selected range
Filename D:\Georges Delerue - CD Collection [by italia57]\Georges Delerue (1989) La revolution francaise\Georges Delerue - La revolution francaise (Disc 1) (MBR-053).wav
Peak level 86.2 % Extraction speed 4.2 X Range quality 100.0 % Test CRC EA531CA7 Copy CRC EA531CA7 Copy OK
No errors occurred
AccurateRip summary
Track 1 accurately ripped (confidence 1) [77ABF5DB] (AR v2)Track 2 accurately ripped (confidence 1) [807880B0] (AR v2)Track 3 accurately ripped (confidence 1) [6CF65958] (AR v2)Track 4 accurately ripped (confidence 1) [7027B265] (AR v2)Track 5 accurately ripped (confidence 1) [FA058710] (AR v2)Track 6 accurately ripped (confidence 1) [85A92E89] (AR v2)Track 7 accurately ripped (confidence 1) [C94E5DE9] (AR v2)Track 8 accurately ripped (confidence 1) [831EABD2] (AR v2)Track 9 accurately ripped (confidence 1) [E658FC1C] (AR v2)Track 10 accurately ripped (confidence 1) [A204C718] (AR v2)Track 11 accurately ripped (confidence 1) [3CEF23A9] (AR v2)Track 12 accurately ripped (confidence 1) [446A766B] (AR v2)Track 13 accurately ripped (confidence 1) [991CA4B1] (AR v2)Track 14 accurately ripped (confidence 1) [57053625] (AR v2)Track 15 accurately ripped (confidence 1) [8B10BFF4] (AR v2)Track 16 accurately ripped (confidence 1) [304BC752] (AR v2)Track 17 accurately ripped (confidence 1) [99708644] (AR v2)Track 18 accurately ripped (confidence 1) [DB43E157] (AR v2)Track 19 accurately ripped (confidence 1) [9E505858] (AR v2)Track 20 accurately ripped (confidence 1) [8A06C59B] (AR v2)Track 21 accurately ripped (confidence 1) [A4151904] (AR v2)Track 22 accurately ripped (confidence 1) [841B7449] (AR v2)Track 23 accurately ripped (confidence 1) [3574B42A] (AR v2)Track 24 accurately ripped (confidence 1) [23827575] (AR v2)Track 25 accurately ripped (confidence 1) [E5D3BD0B] (AR v2)Track 26 accurately ripped (confidence 1) [5E0192E1] (AR v2)Track 27 accurately ripped (confidence 1) [4DAA805A] (AR v2)Track 28 accurately ripped (confidence 1) [4F8C5770] (AR v2)Track 29 accurately ripped (confidence 1) [2322E807] (AR v2)Track 30 accurately ripped (confidence 1) [C55CEE4A] (AR v2)Track 31 accurately ripped (confidence 1) [01481602] (AR v2)Track 32 accurately ripped (confidence 1) [65DA3493] (AR v2)
All tracks accurately ripped
End of status report
---- CUETools DB Plugin V2.1.4
[CTDB TOCID: ZNioJ4Nol.Gt_KrvblzH5zNYTec-] foundSubmit result: ZNioJ4Nol.Gt_KrvblzH5zNYTec- has been confirmedTrack | CTDB Status 1 | (3/3) Accurately ripped 2 | (3/3) Accurately ripped 3 | (3/3) Accurately ripped 4 | (3/3) Accurately ripped 5 | (3/3) Accurately ripped 6 | (3/3) Accurately ripped 7 | (3/3) Accurately ripped 8 | (3/3) Accurately ripped 9 | (3/3) Accurately ripped 10 | (3/3) Accurately ripped 11 | (3/3) Accurately ripped 12 | (3/3) Accurately ripped 13 | (3/3) Accurately ripped 14 | (3/3) Accurately ripped 15 | (3/3) Accurately ripped 16 | (3/3) Accurately ripped 17 | (3/3) Accurately ripped 18 | (3/3) Accurately ripped 19 | (3/3) Accurately ripped 20 | (3/3) Accurately ripped 21 | (3/3) Accurately ripped 22 | (3/3) Accurately ripped 23 | (3/3) Accurately ripped 24 | (3/3) Accurately ripped 25 | (3/3) Accurately ripped 26 | (3/3) Accurately ripped 27 | (3/3) Accurately ripped 28 | (3/3) Accurately ripped 29 | (3/3) Accurately ripped 30 | (3/3) Accurately ripped 31 | (3/3) Accurately ripped 32 | (3/3) Accurately ripped
==== Log checksum 55C0679EFC834EB64D43C8EEFD75F960C0D57B81A2EC882AD667833E46798F52 ====

Содержание индексной карты (.CUE)

REM GENRE SoundtrackREM DATE 1989REM DISCID A60F4720REM COMMENT "ExactAudioCopy v1.0b3"PERFORMER "Georges Delerue"TITLE "La revolution francaise (Disc 1)"FILE "Georges Delerue - La revolution francaise (Disc 1) (MBR-053).flac" WAVE TRACK 01 AUDIO TITLE "Hymne a la Liberte [version orchestrale]" PERFORMER "Georges Delerue" INDEX 01 00:00:00 TRACK 02 AUDIO TITLE "Le lever du roi" PERFORMER "Georges Delerue" INDEX 00 03:54:09 INDEX 01 03:56:09 TRACK 03 AUDIO TITLE "Le hameau de la reine" PERFORMER "Georges Delerue" INDEX 00 05:10:04 INDEX 01 05:12:04 TRACK 04 AUDIO TITLE "Ouverture des etats generaux" PERFORMER "Georges Delerue" INDEX 00 06:17:45 INDEX 01 06:19:45 TRACK 05 AUDIO TITLE "Premier appel revolutionnaire" PERFORMER "Georges Delerue" INDEX 00 07:25:74 INDEX 01 07:27:74 TRACK 06 AUDIO TITLE "A la Bastille" PERFORMER "Georges Delerue" INDEX 00 08:58:67 INDEX 01 09:00:67 TRACK 07 AUDIO TITLE "Prise de la Bastille" PERFORMER "Georges Delerue" INDEX 00 10:25:14 INDEX 01 10:27:14 TRACK 08 AUDIO TITLE "Fete des barricades" PERFORMER "Georges Delerue" INDEX 00 14:47:48 INDEX 01 14:49:48 TRACK 09 AUDIO TITLE "Abolition des privileges" PERFORMER "Georges Delerue" INDEX 00 16:37:37 INDEX 01 16:39:37 TRACK 10 AUDIO TITLE "Declaration des Droits de l'Homme" PERFORMER "Georges Delerue" INDEX 00 18:45:04 INDEX 01 18:47:04 TRACK 11 AUDIO TITLE "La marche des femmes" PERFORMER "Georges Delerue" INDEX 00 23:33:28 INDEX 01 23:35:28 TRACK 12 AUDIO TITLE "La fete" PERFORMER "Georges Delerue" INDEX 00 27:23:19 INDEX 01 27:25:19 TRACK 13 AUDIO TITLE "Appels et serment" PERFORMER "Georges Delerue" INDEX 00 29:56:27 INDEX 01 29:58:27 TRACK 14 AUDIO TITLE "Mort de Mirabeau" PERFORMER "Georges Delerue" INDEX 00 31:40:68 INDEX 01 31:42:68 TRACK 15 AUDIO TITLE "Fete au Champs de Mars" PERFORMER "Georges Delerue" INDEX 00 32:40:00 INDEX 01 32:42:00 TRACK 16 AUDIO TITLE "Fersen et Marie-Antoinette" PERFORMER "Georges Delerue" INDEX 00 33:58:28 INDEX 01 34:00:28 TRACK 17 AUDIO TITLE "La reine et ses enfants" PERFORMER "Georges Delerue" INDEX 00 35:07:68 INDEX 01 35:09:67 TRACK 18 AUDIO TITLE "L'ombre de la guerre" PERFORMER "Georges Delerue" INDEX 00 36:41:52 INDEX 01 36:43:52 TRACK 19 AUDIO TITLE "Defaite des regiments francais" PERFORMER "Georges Delerue" INDEX 00 37:57:14 INDEX 01 37:59:14 TRACK 20 AUDIO TITLE "La Marseillaise" PERFORMER "Georges Delerue" INDEX 00 40:26:46 INDEX 01 40:28:46 TRACK 21 AUDIO TITLE "Fin de la royaute" PERFORMER "Georges Delerue" INDEX 00 41:57:15 INDEX 01 41:59:15 TRACK 22 AUDIO TITLE "Hymne a la Liberte (par Jessye Norman)" PERFORMER "Georges Delerue" INDEX 00 45:05:40 INDEX 01 45:07:40 TRACK 23 AUDIO TITLE "Les annees lumiere (generique)" PERFORMER "Georges Delerue" INDEX 00 49:00:39 INDEX 01 49:03:39 TRACK 24 AUDIO TITLE "Mort de Louis-Joseph" PERFORMER "Georges Delerue" INDEX 00 49:39:36 INDEX 01 49:41:36 TRACK 25 AUDIO TITLE "Acclamations du peuple" PERFORMER "Georges Delerue" INDEX 00 51:27:15 INDEX 01 51:29:15 TRACK 26 AUDIO TITLE "Les festivites" PERFORMER "Georges Delerue" INDEX 00 51:59:46 INDEX 01 52:00:46 TRACK 27 AUDIO TITLE "Le piege" PERFORMER "Georges Delerue" INDEX 00 52:48:71 INDEX 01 52:50:71 TRACK 28 AUDIO TITLE "Marat denonce le roi" PERFORMER "Georges Delerue" INDEX 00 54:55:47 INDEX 01 54:57:47 TRACK 29 AUDIO TITLE "Le serment du Jeu de paume" PERFORMER "Georges Delerue" INDEX 00 57:22:33 INDEX 01 57:24:33 TRACK 30 AUDIO TITLE "La Garde nationale - Chute de la monarchie" PERFORMER "Georges Delerue" INDEX 00 58:26:08 INDEX 01 58:28:08 TRACK 31 AUDIO TITLE "Naissance d'un hymne" PERFORMER "Georges Delerue" INDEX 00 60:32:05 INDEX 01 60:34:05 TRACK 32 AUDIO TITLE "Hymne a la Liberte [version orchestrale alternative]" PERFORMER "Georges Delerue" INDEX 00 62:03:41 INDEX 01 62:05:41

Disc 2 - Les années terribles


** DISC TWO • LES ANNÉES TERRIBLES **
01. Hymne à la Liberté (version orchestrale) [3:54]
02. Départ de la famille royale [1:09]
03. La Fayette [1:34]
04. Les Prussiens [1:07]
05. Français contre Prussiens [2:52]
06. Saint-Just [0:59]
07. La tristesse du Roi [2:15]
08. Le vote pour la mort du Roi [2:00]
09. La mort de Gabrielle [0:50]
10. Marat [2:20]
11. Le destin de Marie-Antoinette [2:28]
12. Les exécutions [1:49]
13. Folie et massacres [4:02]
14. Danton est de retour [1:38]
15. Le complot [2:18]
16. L'imprudence de Desmoulins [1:10]
17. Exécution de Danton et Desmoulins [3:54]
18. La folie de Robespierre [1:10]
19. Exécution de Robespierre [2:47]
20. Épilogue [1:04]
** BONUS TRACKS **
21. Hymne à la Liberté (variation) (performed by Jessye Norman) [3:01]
22. Marie-Antoinette dans sa prison [1:44]
23. Condamnations à mort [1:56]
24. Danton est accusé [2:13]
25. Robespierre et Saint-Just [1:23]
26. Destins séparés [1:32]
27. La Révolution dévore ses propres enfants [1:29]
28. Robespierre blessé [0:51]
29. Fête de l'Être suprême [0:36]
30. Les années terribles (Hymne à la Liberté) [1:48]
31. Hymne à la Liberté (piano performed by Georges Delerue) [3:27]
Music Performed by The British Symphony Orchestra
Orchestra and Soloists Assembled by Nat Peck

Лог создания рипа

Exact Audio Copy V1.0 beta 3 from 29. August 2011
EAC extraction logfile from 26. September 2014, 12:49
Georges Delerue / La revolution francaise (Disc 2)
Used drive : TSSTcorpCDDVDW SN-S082N Adapter: 3 ID: 0
Read mode : SecureUtilize accurate stream : YesDefeat audio cache : YesMake use of C2 pointers : No
Read offset correction : 6Overread into Lead-In and Lead-Out : NoFill up missing offset samples with silence : YesDelete leading and trailing silent blocks : NoNull samples used in CRC calculations : YesUsed interface : Native Win32 interface for Win NT & 2000
Used output format : Internal WAV RoutinesSample format : 44.100 Hz; 16 Bit; Stereo
TOC of the extracted CD
Track | Start | Length | Start sector | End sector --------------------------------------------------------- 1 | 0:00.00 | 3:55.29 | 0 | 17653 2 | 3:55.29 | 1:11.51 | 17654 | 23029 3 | 5:07.05 | 1:36.63 | 23030 | 30292 4 | 6:43.68 | 1:09.46 | 30293 | 35513 5 | 7:53.39 | 2:54.44 | 35514 | 48607 6 | 10:48.08 | 1:01.31 | 48608 | 53213 7 | 11:49.39 | 2:17.70 | 53214 | 63558 8 | 14:07.34 | 2:02.35 | 63559 | 72743 9 | 16:09.69 | 0:52.67 | 72744 | 76710 10 | 17:02.61 | 2:22.70 | 76711 | 87430 11 | 19:25.56 | 2:30.11 | 87431 | 98691 12 | 21:55.67 | 1:51.63 | 98692 | 107079 13 | 23:47.55 | 4:04.52 | 107080 | 125431 14 | 27:52.32 | 1:40.37 | 125432 | 132968 15 | 29:32.69 | 2:20.57 | 132969 | 143525 16 | 31:53.51 | 1:12.17 | 143526 | 148942 17 | 33:05.68 | 3:56.12 | 148943 | 166654 18 | 37:02.05 | 1:12.65 | 166655 | 172119 19 | 38:14.70 | 2:49.33 | 172120 | 184827 20 | 41:04.28 | 1:04.46 | 184828 | 189673 21 | 42:08.74 | 3:03.68 | 189674 | 203466 22 | 45:12.67 | 1:46.04 | 203467 | 211420 23 | 46:58.71 | 1:57.47 | 211421 | 220242 24 | 48:56.43 | 2:15.08 | 220243 | 230375 25 | 51:11.51 | 1:25.67 | 230376 | 236817 26 | 52:37.43 | 1:34.03 | 236818 | 243870 27 | 54:11.46 | 1:31.27 | 243871 | 250722 28 | 55:42.73 | 0:53.71 | 250723 | 254768 29 | 56:36.69 | 0:38.32 | 254769 | 257650 30 | 57:15.26 | 1:52.60 | 257651 | 266110 31 | 59:08.11 | 3:27.65 | 266111 | 281700
Range status and errors
Selected range
Filename D:\Georges Delerue - CD Collection [by italia57]\Georges Delerue (1989) La revolution francaise\Georges Delerue - La revolution francaise (Disc 2) (MBR-053).wav
Peak level 91.0 % Extraction speed 4.2 X Range quality 100.0 % Test CRC 40EBF2C1 Copy CRC 40EBF2C1 Copy OK
No errors occurred
AccurateRip summary
Track 1 accurately ripped (confidence 1) [CB76E58D] (AR v2)Track 2 accurately ripped (confidence 1) [0791604D] (AR v2)Track 3 accurately ripped (confidence 1) [7EB90442] (AR v2)Track 4 accurately ripped (confidence 1) [2951D31A] (AR v2)Track 5 accurately ripped (confidence 1) [E9CA7F6B] (AR v2)Track 6 accurately ripped (confidence 1) [56189EFB] (AR v2)Track 7 accurately ripped (confidence 1) [2CAB8DDF] (AR v2)Track 8 accurately ripped (confidence 1) [6A4303B5] (AR v2)Track 9 accurately ripped (confidence 1) [8F14F38D] (AR v2)Track 10 accurately ripped (confidence 1) [19C38E88] (AR v2)Track 11 accurately ripped (confidence 1) [414D2FF3] (AR v2)Track 12 accurately ripped (confidence 1) [C6A4D6E6] (AR v2)Track 13 accurately ripped (confidence 1) [AAC3B567] (AR v2)Track 14 accurately ripped (confidence 1) [6E5FD079] (AR v2)Track 15 accurately ripped (confidence 1) [497ABD53] (AR v2)Track 16 accurately ripped (confidence 1) [D67DEF1A] (AR v2)Track 17 accurately ripped (confidence 1) [9F81469E] (AR v2)Track 18 accurately ripped (confidence 1) [BF68A232] (AR v2)Track 19 accurately ripped (confidence 1) [3DE4F1F9] (AR v2)Track 20 accurately ripped (confidence 1) [18C1266F] (AR v2)Track 21 accurately ripped (confidence 1) [9D9C01A5] (AR v2)Track 22 accurately ripped (confidence 1) [B1694C86] (AR v2)Track 23 accurately ripped (confidence 1) [2E0D80D6] (AR v2)Track 24 accurately ripped (confidence 1) [F53E5FCB] (AR v2)Track 25 accurately ripped (confidence 1) [6328401F] (AR v2)Track 26 accurately ripped (confidence 1) [2AE3CBFF] (AR v2)Track 27 accurately ripped (confidence 1) [5215A3EE] (AR v2)Track 28 accurately ripped (confidence 1) [26314B22] (AR v2)Track 29 accurately ripped (confidence 1) [FF2B323F] (AR v2)Track 30 accurately ripped (confidence 1) [905EA469] (AR v2)Track 31 accurately ripped (confidence 1) [7D58A36C] (AR v2)
All tracks accurately ripped
End of status report
---- CUETools DB Plugin V2.1.4
[CTDB TOCID: gHk5ExGNNcw07T4I6w1UgRKf_Nw-] foundSubmit result: gHk5ExGNNcw07T4I6w1UgRKf_Nw- has been confirmedTrack | CTDB Status 1 | (2/2) Accurately ripped 2 | (2/2) Accurately ripped 3 | (2/2) Accurately ripped 4 | (2/2) Accurately ripped 5 | (2/2) Accurately ripped 6 | (2/2) Accurately ripped 7 | (2/2) Accurately ripped 8 | (2/2) Accurately ripped 9 | (2/2) Accurately ripped 10 | (2/2) Accurately ripped 11 | (2/2) Accurately ripped 12 | (2/2) Accurately ripped 13 | (2/2) Accurately ripped 14 | (2/2) Accurately ripped 15 | (2/2) Accurately ripped 16 | (2/2) Accurately ripped 17 | (2/2) Accurately ripped 18 | (2/2) Accurately ripped 19 | (2/2) Accurately ripped 20 | (2/2) Accurately ripped 21 | (2/2) Accurately ripped 22 | (2/2) Accurately ripped 23 | (2/2) Accurately ripped 24 | (2/2) Accurately ripped 25 | (2/2) Accurately ripped 26 | (2/2) Accurately ripped 27 | (2/2) Accurately ripped 28 | (2/2) Accurately ripped 29 | (2/2) Accurately ripped 30 | (2/2) Accurately ripped 31 | (2/2) Accurately ripped
==== Log checksum DBE12D54E1026E15CDB178534A2FF1B7BD948446F6A56B95781C0034C9B4607C ====

Содержание индексной карты (.CUE)

REM GENRE SoundtrackREM DATE 1989REM DISCID C60EAC1FREM COMMENT "ExactAudioCopy v1.0b3"PERFORMER "Georges Delerue"TITLE "La revolution francaise (Disc 2)"FILE "Georges Delerue - La revolution francaise (Disc 2) (MBR-053).flac" WAVE TRACK 01 AUDIO TITLE "Hymne a la Liberte [version orchestrale]" PERFORMER "Georges Delerue" INDEX 01 00:00:00 TRACK 02 AUDIO TITLE "Depart de la famille royale" PERFORMER "Georges Delerue" INDEX 00 03:53:29 INDEX 01 03:55:29 TRACK 03 AUDIO TITLE "La Fayette" PERFORMER "Georges Delerue" INDEX 00 05:05:05 INDEX 01 05:07:05 TRACK 04 AUDIO TITLE "Les Prussiens" PERFORMER "Georges Delerue" INDEX 00 06:41:68 INDEX 01 06:43:68 TRACK 05 AUDIO TITLE "Francais contre Prussiens" PERFORMER "Georges Delerue" INDEX 00 07:51:39 INDEX 01 07:53:39 TRACK 06 AUDIO TITLE "Saint-Just" PERFORMER "Georges Delerue" INDEX 00 10:46:08 INDEX 01 10:48:08 TRACK 07 AUDIO TITLE "La tristesse du Roi" PERFORMER "Georges Delerue" INDEX 00 11:47:39 INDEX 01 11:49:39 TRACK 08 AUDIO TITLE "Le vote pour la mort du Roi" PERFORMER "Georges Delerue" INDEX 00 14:05:34 INDEX 01 14:07:34 TRACK 09 AUDIO TITLE "La mort de Gabrielle" PERFORMER "Georges Delerue" INDEX 00 16:07:69 INDEX 01 16:09:69 TRACK 10 AUDIO TITLE "Marat" PERFORMER "Georges Delerue" INDEX 00 17:00:61 INDEX 01 17:02:61 TRACK 11 AUDIO TITLE "Le destin de Marie-Antoinette" PERFORMER "Georges Delerue" INDEX 00 19:23:56 INDEX 01 19:25:56 TRACK 12 AUDIO TITLE "Les executions" PERFORMER "Georges Delerue" INDEX 00 21:53:67 INDEX 01 21:55:67 TRACK 13 AUDIO TITLE "Folie et massacres" PERFORMER "Georges Delerue" INDEX 00 23:45:55 INDEX 01 23:47:55 TRACK 14 AUDIO TITLE "Danton est de retour" PERFORMER "Georges Delerue" INDEX 00 27:50:32 INDEX 01 27:52:32 TRACK 15 AUDIO TITLE "Le complot" PERFORMER "Georges Delerue" INDEX 00 29:30:69 INDEX 01 29:32:69 TRACK 16 AUDIO TITLE "L'imprudence de Desmoulins" PERFORMER "Georges Delerue" INDEX 00 31:51:51 INDEX 01 31:53:51 TRACK 17 AUDIO TITLE "Execution de Danton et Desmoulins" PERFORMER "Georges Delerue" INDEX 00 33:03:68 INDEX 01 33:05:68 TRACK 18 AUDIO TITLE "La folie de Robespierre" PERFORMER "Georges Delerue" INDEX 00 37:00:05 INDEX 01 37:02:05 TRACK 19 AUDIO TITLE "Execution de Robespierre" PERFORMER "Georges Delerue" INDEX 00 38:12:70 INDEX 01 38:14:70 TRACK 20 AUDIO TITLE "Epilogue" PERFORMER "Georges Delerue" INDEX 00 41:02:28 INDEX 01 41:04:28 TRACK 21 AUDIO TITLE "Hymne a la Liberte (variation - Jessye Norman)" PERFORMER "Georges Delerue" INDEX 01 42:08:74 TRACK 22 AUDIO TITLE "Marie-Antoinette dans sa prison" PERFORMER "Georges Delerue" INDEX 00 45:10:67 INDEX 01 45:12:67 TRACK 23 AUDIO TITLE "Condamnations a mort" PERFORMER "Georges Delerue" INDEX 00 46:56:71 INDEX 01 46:58:71 TRACK 24 AUDIO TITLE "Danton est accuse" PERFORMER "Georges Delerue" INDEX 00 48:55:43 INDEX 01 48:56:43 TRACK 25 AUDIO TITLE "Robespierre et Saint-Just" PERFORMER "Georges Delerue" INDEX 00 51:09:51 INDEX 01 51:11:51 TRACK 26 AUDIO TITLE "Destins separes" PERFORMER "Georges Delerue" INDEX 00 52:35:43 INDEX 01 52:37:43 TRACK 27 AUDIO TITLE "La Revolution devore ses propres enfants" PERFORMER "Georges Delerue" INDEX 00 54:09:46 INDEX 01 54:11:46 TRACK 28 AUDIO TITLE "Robespierre blesse" PERFORMER "Georges Delerue" INDEX 00 55:40:73 INDEX 01 55:42:73 TRACK 29 AUDIO TITLE "Fete de l'Etre supreme" PERFORMER "Georges Delerue" INDEX 00 56:34:69 INDEX 01 56:36:69 TRACK 30 AUDIO TITLE "Les annees terribles (Hymne a la Liberte)" PERFORMER "Georges Delerue" INDEX 00 57:13:26 INDEX 01 57:15:26 TRACK 31 AUDIO TITLE "Hymne a la Liberte [maquette]" PERFORMER "Georges Delerue" INDEX 00 59:04:11 INDEX 01 59:08:11
[teatrix.ru].t10424.torrent 
Торрент: Зарегистрирован [ 2015-11-01 20:51 ] · EB64496D497C997A534015D77D8251B1642CB52D

Скачать .torrent

Скачать

21 KB

Статус: проверено
Скачан: 1 раз
Размер: 969 MB
terms.php



Быстрый ответ

Имя:

      
Для отправки сообщений необходимо включить JavaScript
Показать сообщения:    

Текущее время: 04-Дек 19:22

Часовой пояс: UTC + 3


Вы можете начинать темы
Вы можете отвечать на сообщения
Вы не можете редактировать свои сообщения
Вы не можете удалять свои сообщения
Вы не можете голосовать в опросах
Вы не можете прикреплять файлы к сообщениям
Вы можете скачивать файлы