(Score / Classical) Дьенбьенфу / Dien Bien Phu (by Georges Delerue) - 1992, FLAC (image+.cue), lossless


Статистика раздачи [Обновить пиров]
Размер:  225 MB   |    Зарегистрирован:  1 год 1 месяц   |    Скачан:  0 раз

Полного источника не было: Никогда

 
   
 
 
 

[Цитировать]

-Дьенбьенфу / Diên Biên Phu
Composed and Conducted by Georges Delerue
- -Жанр: Classical, Score | Дата выпуска: 1992
Издатель (лейбл): Polydor | Номер по каталогу: 513 289-2
Аудиокодек: FLAC | Тип рипа: image+.cue | Битрейт аудио: lossless
Общая продолжительность: 40:20
Источник: Рип оригинального диска из личной коллекции
-
01. Concerto de l'adieu (Violin Solo Michael Davis) [9:50]
02. Fragments du Concerto de l'adieu [Fragments N° 1-10] [17:45]
03. Communion [0:40]
04. Sortie de la messe [0:54]
05. Nostalgie [1:28]
06. Valse souvenir [1:40]
07. Les copains [1:50]
08. Normandie bar [2:35]
09. Confidence au Normandie [0:54]
10. Les adieux au Normandie [1:55]
Music Performed by The London Studio Orchestra
Orchestra and Soloists Assembled by Nat Peck

Лог создания рипа

Exact Audio Copy V1.0 beta 3 from 29. August 2011
EAC extraction logfile from 25. September 2014, 18:16
Georges Delerue / Dien Bien Phu
Used drive : TSSTcorpCDDVDW SN-S082N Adapter: 3 ID: 0
Read mode : SecureUtilize accurate stream : YesDefeat audio cache : YesMake use of C2 pointers : No
Read offset correction : 6Overread into Lead-In and Lead-Out : NoFill up missing offset samples with silence : YesDelete leading and trailing silent blocks : NoNull samples used in CRC calculations : YesUsed interface : Native Win32 interface for Win NT & 2000
Used output format : Internal WAV RoutinesSample format : 44.100 Hz; 16 Bit; Stereo
TOC of the extracted CD
Track | Start | Length | Start sector | End sector --------------------------------------------------------- 1 | 0:00.33 | 9:59.32 | 33 | 44989 2 | 9:59.65 | 18:16.18 | 44990 | 127207 3 | 28:16.08 | 0:47.15 | 127208 | 130747 4 | 29:03.23 | 0:31.72 | 130748 | 133144 5 | 29:35.20 | 1:33.53 | 133145 | 140172 6 | 31:08.73 | 1:43.45 | 140173 | 147942 7 | 32:52.43 | 1:54.45 | 147943 | 156537 8 | 34:47.13 | 2:37.70 | 156538 | 168382 9 | 37:25.08 | 0:59.35 | 168383 | 172842 10 | 38:24.43 | 1:56.40 | 172843 | 181582
Range status and errors
Selected range
Filename D:\Georges Delerue - CD Collection [by italia57]\Georges Delerue (1992) Dien Bien Phu\Georges Delerue - Dien Bien Phu (Polydor 513 289-2).wav
Peak level 90.7 % Extraction speed 1.0 X Range quality 100.0 % Test CRC 9D7D0071 Copy CRC 9D7D0071 Copy OK
No errors occurred
AccurateRip summary
Track 1 accurately ripped (confidence 4) [5EB3BA42] (AR v2)Track 2 accurately ripped (confidence 4) [934E79B3] (AR v2)Track 3 accurately ripped (confidence 4) [BF610202] (AR v2)Track 4 accurately ripped (confidence 4) [44F2361C] (AR v2)Track 5 accurately ripped (confidence 4) [3FCD26FB] (AR v2)Track 6 accurately ripped (confidence 4) [7335DA74] (AR v2)Track 7 accurately ripped (confidence 4) [0F60E22B] (AR v2)Track 8 accurately ripped (confidence 4) [0AFA8342] (AR v2)Track 9 accurately ripped (confidence 4) [7B020806] (AR v2)Track 10 accurately ripped (confidence 3) [4593AA76] (AR v2)
All tracks accurately ripped
End of status report
---- CUETools DB Plugin V2.1.4
[CTDB TOCID: 6rlMWc3bY2JgvuJ0nYGF76jqgHg-] disk not present in databaseSubmit result: 6rlMWc3bY2JgvuJ0nYGF76jqgHg- has been uploaded
==== Log checksum FBFFB493C147C9FEF43E2FF367A9C75A0EA9383F42B21679C04E4AD787EFDB7E ====

Содержание индексной карты (.CUE)

REM GENRE SoundtrackREM DATE 1992REM DISCID 9A09750AREM COMMENT "ExactAudioCopy v1.0b3"PERFORMER "Georges Delerue"TITLE "Dien Bien Phu"FILE "Georges Delerue - Dien Bien Phu (Polydor 513 289-2).wav" WAVE TRACK 01 AUDIO TITLE "Concerto de l'adieu" PERFORMER "Georges Delerue" INDEX 00 00:00:00 INDEX 01 00:00:33 TRACK 02 AUDIO TITLE "Fragments du Concerto de l'adieu [Fragments N° 1-10]" PERFORMER "Georges Delerue" INDEX 00 09:55:33 INDEX 01 09:59:65 INDEX 02 10:54:08 INDEX 03 13:14:70 INDEX 04 14:46:08 INDEX 05 16:44:58 INDEX 06 18:22:33 INDEX 07 19:26:08 INDEX 08 21:15:58 INDEX 09 23:35:45 INDEX 10 24:44:45 TRACK 03 AUDIO TITLE "Communion" PERFORMER "Georges Delerue" INDEX 00 28:10:60 INDEX 01 28:16:08 TRACK 04 AUDIO TITLE "Sortie de la messe" PERFORMER "Georges Delerue" INDEX 00 29:00:53 INDEX 01 29:03:23 TRACK 05 AUDIO TITLE "Nostalgie" PERFORMER "Georges Delerue" INDEX 00 29:31:63 INDEX 01 29:35:20 TRACK 06 AUDIO TITLE "Valse souvenir" PERFORMER "Georges Delerue" INDEX 00 31:06:10 INDEX 01 31:08:73 TRACK 07 AUDIO TITLE "Les copains" PERFORMER "Georges Delerue" INDEX 00 32:51:30 INDEX 01 32:52:43 TRACK 08 AUDIO TITLE "Normandie bar" PERFORMER "Georges Delerue" INDEX 00 34:46:48 INDEX 01 34:47:13 TRACK 09 AUDIO TITLE "Confidence au Normandie" PERFORMER "Georges Delerue" INDEX 00 37:23:68 INDEX 01 37:25:08 TRACK 10 AUDIO TITLE "Les adieux au Normandie" PERFORMER "Georges Delerue" INDEX 00 38:22:38 INDEX 01 38:24:43
[teatrix.ru].t10425.torrent 
Торрент: Зарегистрирован [ 2015-11-01 20:51 ] · 497AC96CE608EABFB5DD1800CB9C224A68FC6C67

Скачать .torrent

Скачать

19 KB

Статус: проверено
Скачан: 0 раз
Размер: 225 MB
terms.php



Быстрый ответ

Имя:

      
Для отправки сообщений необходимо включить JavaScript
Показать сообщения:    

Текущее время: 10-Дек 13:45

Часовой пояс: UTC + 3


Вы можете начинать темы
Вы можете отвечать на сообщения
Вы не можете редактировать свои сообщения
Вы не можете удалять свои сообщения
Вы не можете голосовать в опросах
Вы не можете прикреплять файлы к сообщениям
Вы можете скачивать файлы