(Score) Сын Джанго / Il Figlio Di Django (Piero Umiliani) - 2009, FLAC (image+.cue), lossless


Статистика раздачи [Обновить пиров]
Размер:  250 MB   |    Зарегистрирован:  1 год 2 месяца   |    Скачан:  1 раз

Полного источника не было: 1 год

 
   
 
 
 

[Цитировать]

Сын Джанго / Il Figlio Di Django
Жанр: Score
Композитор: Piero Umiliani
Год выпуска диска: 2009
Год выпуска фильма: 1967
Страна-производитель диска: Italy
Издатель (лейбл): GDM Music srl
Номер по каталогу: GDM 4124
Аудиокодек: FLAC (*.flac)
Тип рипа: image+.cue
Битрейт аудио: lossless
Продолжительность: 47:20
Источник: demonoid.ph
Наличие сканов в содержимом раздачи: да
Треклист:
1. Il Figlio Di Django (Titoli Base Strumenale)
2. Triste Deguello
3. La Sfida
4. Verso La Citta'
5. Il Sospetto
6. Libero E Selvaggio
7. They Called Him Django
8. Tracy Il Pistolero
9. Nella Valle
10. Saloon
11. Cavalcata
12. Piano Saloon
13. In Memoria Di Django
14. Missione Segreta
15. Falsa Tranquillita'
16. Piano Saloon (Versione Alternativa)
17. Attesa E Azione
18. Un Eroe Nel Canyon
19. Nostalgia Del Padre
20. Cavalcata (Versione 2)
21. They Called Him Django (Base Strumentale)
22. They Called Him Django (Versione Album)

Лог создания рипа

Exact Audio Copy V1.0 beta 3 from 29. August 2011
EAC extraction logfile from 18. September 2014, 12:44
Piero Umiliani / Il Figlio Di Django
Used drive : DTSOFT BDROM Adapter: 2 ID: 0
Read mode : Burst
Read offset correction : 0Overread into Lead-In and Lead-Out : NoFill up missing offset samples with silence : YesDelete leading and trailing silent blocks : NoNull samples used in CRC calculations : YesUsed interface : Native Win32 interface for Win NT & 2000
Used output format : Internal WAV RoutinesSample format : 44.100 Hz; 16 Bit; Stereo
TOC of the extracted CD
Track | Start | Length | Start sector | End sector --------------------------------------------------------- 1 | 0:00.00 | 1:30.38 | 0 | 6787 2 | 1:30.38 | 2:11.24 | 6788 | 16636 3 | 3:41.62 | 3:11.09 | 16637 | 30970 4 | 6:52.71 | 3:16.22 | 30971 | 45692 5 | 10:09.18 | 1:06.26 | 45693 | 50668 6 | 11:15.44 | 4:58.31 | 50669 | 73049 7 | 16:14.00 | 3:07.64 | 73050 | 87138 8 | 19:21.64 | 0:58.56 | 87139 | 91544 9 | 20:20.45 | 1:17.32 | 91545 | 97351 10 | 21:38.02 | 2:13.45 | 97352 | 107371 11 | 23:51.47 | 1:37.30 | 107372 | 114676 12 | 25:29.02 | 0:45.63 | 114677 | 118114 13 | 26:14.65 | 2:33.08 | 118115 | 129597 14 | 28:47.73 | 2:22.15 | 129598 | 140262 15 | 31:10.13 | 3:17.07 | 140263 | 155044 16 | 34:27.20 | 0:54.73 | 155045 | 159167 17 | 35:22.18 | 1:25.48 | 159168 | 165590 18 | 36:47.66 | 1:23.54 | 165591 | 171869 19 | 38:11.45 | 1:00.59 | 171870 | 176428 20 | 39:12.29 | 2:04.05 | 176429 | 185733 21 | 41:16.34 | 3:06.38 | 185734 | 199721 22 | 44:22.72 | 2:57.60 | 199722 | 213056
Range status and errors
Selected range
Filename D:\Temp\Piero Umiliani - 1967 - Il Figlio Di Django (1967)\Piero Umiliani - Il Figlio Di Django.wav
Peak level 100.0 % Extraction speed 221.0 X Copy CRC 7CC854B6 Copy OK
No errors occurred
End of status report
------------------------------------------------------------
Exact Audio Copy V1.0 beta 3 from 29. August 2011
EAC extraction logfile from 18. September 2014, 12:50
Piero Umiliani / Il Figlio Di Django
Used drive : DTSOFT BDROM Adapter: 2 ID: 0
Read mode : SecureUtilize accurate stream : YesDefeat audio cache : YesMake use of C2 pointers : No
Read offset correction : 0Overread into Lead-In and Lead-Out : NoFill up missing offset samples with silence : YesDelete leading and trailing silent blocks : NoNull samples used in CRC calculations : YesUsed interface : Native Win32 interface for Win NT & 2000
Used output format : Internal WAV RoutinesSample format : 44.100 Hz; 16 Bit; Stereo
TOC of the extracted CD
Track | Start | Length | Start sector | End sector --------------------------------------------------------- 1 | 0:00.00 | 1:30.38 | 0 | 6787 2 | 1:30.38 | 2:11.24 | 6788 | 16636 3 | 3:41.62 | 3:11.09 | 16637 | 30970 4 | 6:52.71 | 3:16.22 | 30971 | 45692 5 | 10:09.18 | 1:06.26 | 45693 | 50668 6 | 11:15.44 | 4:58.31 | 50669 | 73049 7 | 16:14.00 | 3:07.64 | 73050 | 87138 8 | 19:21.64 | 0:58.56 | 87139 | 91544 9 | 20:20.45 | 1:17.32 | 91545 | 97351 10 | 21:38.02 | 2:13.45 | 97352 | 107371 11 | 23:51.47 | 1:37.30 | 107372 | 114676 12 | 25:29.02 | 0:45.63 | 114677 | 118114 13 | 26:14.65 | 2:33.08 | 118115 | 129597 14 | 28:47.73 | 2:22.15 | 129598 | 140262 15 | 31:10.13 | 3:17.07 | 140263 | 155044 16 | 34:27.20 | 0:54.73 | 155045 | 159167 17 | 35:22.18 | 1:25.48 | 159168 | 165590 18 | 36:47.66 | 1:23.54 | 165591 | 171869 19 | 38:11.45 | 1:00.59 | 171870 | 176428 20 | 39:12.29 | 2:04.05 | 176429 | 185733 21 | 41:16.34 | 3:06.38 | 185734 | 199721 22 | 44:22.72 | 2:57.60 | 199722 | 213056
Range status and errors
Selected range
Filename D:\Temp\Piero Umiliani - 1967 - Il Figlio Di Django (1967)\Piero Umiliani - Il Figlio Di Django.wav
Peak level 100.0 % Extraction speed 123.1 X Range quality 100.0 % Copy CRC 7CC854B6 Copy OK
No errors occurred
End of status report

Лог проверки качества

AUDIOCHECKER v2.0 beta (build 457) - by Dester - opdester@freemail.hu~~~~~~~~~~~~~~~~~~~~~~~~~~~~~~~~~~-=== DO NOT EDIT THIS FILE! ===-
Path: ...\Piero Umiliani - 1967 - Il Figlio Di Django (1967)
1 -=- Piero Umiliani - Il Figlio Di Django.flac -=- CDDA (100%)
160619428

Скриншот спектра частот

music composed and conducted by Piero Umiliani
[teatrix.ru].t10426.torrent 
Торрент: Зарегистрирован [ 2015-11-01 20:51 ] · 370FA20B8EB87E38CBB9F7F62FF6B57047FD7403

Скачать .torrent

Скачать

20 KB

Статус: проверено
Скачан: 1 раз
Размер: 250 MB
terms.php

[Цитировать]

Could you re-seed this ?
Thanks A LOT


Быстрый ответ

Имя:

      
Для отправки сообщений необходимо включить JavaScript
Показать сообщения:    

Текущее время: 19-Янв 16:03

Часовой пояс: UTC + 3


Вы можете начинать темы
Вы можете отвечать на сообщения
Вы не можете редактировать свои сообщения
Вы не можете удалять свои сообщения
Вы не можете голосовать в опросах
Вы не можете прикреплять файлы к сообщениям
Вы можете скачивать файлы