(Score) Аглая / Aglaja (Zbigniew Preisner) - 2013, APE (image+.cue), lossless


Статистика раздачи [Обновить пиров]
Размер:  200 MB   |    Зарегистрирован:  1 год 1 месяц   |    Скачан:  0 раз

Полного источника не было: Никогда

 
   
 
 
 

[Цитировать]

Аглая / Aglaja
Жанр: Score
Композитор: Zbigniew Preisner
Год выпуска диска: 2013
Издатель (лейбл): Quartet Records
Номер по каталогу: SM030
Аудиокодек: APE (*.ape)
Тип рипа: image+.cue
Битрейт аудио: lossless
Продолжительность: 50:06
Источник: скачано с
сайт-источник/ник/другое: hqshare.net
Треклист:
1. Birth (07:17)
2. Youth (09:14)
3. Orphanage (02:45)
4. Aglaja – Theme (02:27)
5. Homesickness (00:42)
6. Bad Dreams (01:17)
7. Family Memories (03:46)
8. Loneliness (01:04)
9. Back To The Past (02:41)
10. Mother‘s Arrival (02:32)
11. Aglaja – Freedom (02:26)
12. Travel To The Seaside (01:22)
13. Photo Album (02:42)
14. Meeting With Father (01:57)
15. Journey Into The Unknown (07:50)
Ключевые треки - 11/4 (главная тема), 1

Лог создания рипа

Exact Audio Copy V1.0 beta 3 from 29. August 2011
EAC extraction logfile from 16. March 2014, 15:36
Zbigniew Preisner / Aglaja
Used drive : HL-DT-STDVD-RAM GSA-H20L Adapter: 0 ID: 0
Read mode : SecureUtilize accurate stream : YesDefeat audio cache : YesMake use of C2 pointers : No
Read offset correction : 102Overread into Lead-In and Lead-Out : YesFill up missing offset samples with silence : YesDelete leading and trailing silent blocks : NoNull samples used in CRC calculations : YesUsed interface : Native Win32 interface for Win NT & 2000
Used output format : Internal WAV RoutinesSample format : 44.100 Hz; 16 Bit; Stereo
TOC of the extracted CD
Track | Start | Length | Start sector | End sector --------------------------------------------------------- 1 | 0:00.00 | 7:17.17 | 0 | 32791 2 | 7:17.17 | 9:14.11 | 32792 | 74352 3 | 16:31.28 | 2:44.62 | 74353 | 86714 4 | 19:16.15 | 2:27.33 | 86715 | 97772 5 | 21:43.48 | 0:42.51 | 97773 | 100973 6 | 22:26.24 | 1:17.14 | 100974 | 106762 7 | 23:43.38 | 3:46.02 | 106763 | 123714 8 | 27:29.40 | 1:04.32 | 123715 | 128546 9 | 28:33.72 | 2:41.39 | 128547 | 140660 10 | 31:15.36 | 2:32.40 | 140661 | 152100 11 | 33:48.01 | 2:26.18 | 152101 | 163068 12 | 36:14.19 | 1:21.63 | 163069 | 169206 13 | 37:36.07 | 2:41.57 | 169207 | 181338 14 | 40:17.64 | 1:57.07 | 181339 | 190120 15 | 42:14.71 | 7:50.46 | 190121 | 225416
Range status and errors
Selected range
Filename C:\Zbigniew Preisner - Aglaja.wav
Peak level 97.9 % Extraction speed 2.6 X Range quality 99.9 % Copy CRC 2BA4140D Copy OK
No errors occurred
AccurateRip summary
Track 1 accurately ripped (confidence 1) [B62D7209] (AR v2)Track 2 accurately ripped (confidence 1) [5DB457FB] (AR v2)Track 3 accurately ripped (confidence 1) [9B9AE274] (AR v2)Track 4 accurately ripped (confidence 1) [12BEC489] (AR v2)Track 5 accurately ripped (confidence 1) [AE25880A] (AR v2)Track 6 accurately ripped (confidence 1) [3F4AE237] (AR v2)Track 7 accurately ripped (confidence 1) [E0390DDD] (AR v2)Track 8 accurately ripped (confidence 1) [28717055] (AR v2)Track 9 accurately ripped (confidence 1) [15407B22] (AR v2)Track 10 accurately ripped (confidence 1) [6759E1C5] (AR v2)Track 11 accurately ripped (confidence 1) [6E049EA6] (AR v2)Track 12 accurately ripped (confidence 1) [30CBBA7E] (AR v2)Track 13 accurately ripped (confidence 1) [0CABA144] (AR v2)Track 14 accurately ripped (confidence 1) [843E1B9D] (AR v2)Track 15 accurately ripped (confidence 1) [47C656A5] (AR v2)
All tracks accurately ripped
End of status report
---- CUETools DB Plugin V2.1.3
[CTDB TOCID: 87AhOSyHxFM2Elbx2VSWQq6Bnuw-] found, Submit result: already submitted[63ae4102] (1/1) Accurately ripped
==== Log checksum 207540844EBF1F81C51EC3D0C392D423D8545B848877444406C5D3A84D186128 ====

Лог проверки качества

нет

Скриншот спектра частот

нет
[teatrix.ru].t10427.torrent 
Торрент: Зарегистрирован [ 2015-11-01 20:51 ] · CCEF888164F3A3B6F230E69396660031DF5D03D6

Скачать .torrent

Скачать

17 KB

Статус: проверено
Скачан: 0 раз
Размер: 200 MB
terms.php



Быстрый ответ

Имя:

      
Для отправки сообщений необходимо включить JavaScript
Показать сообщения:    

Текущее время: 07-Дек 15:33

Часовой пояс: UTC + 3


Вы можете начинать темы
Вы можете отвечать на сообщения
Вы не можете редактировать свои сообщения
Вы не можете удалять свои сообщения
Вы не можете голосовать в опросах
Вы не можете прикреплять файлы к сообщениям
Вы можете скачивать файлы