(Score) Семейная тайна / Un Secret (2007), Менахем и Фред / Menachem & Fred (Zbigniew Preisner) - 2013, APE (image+.cue), lossless


Статистика раздачи [Обновить пиров]
Размер:  303 MB   |    Зарегистрирован:  1 год 1 месяц   |    Скачан:  0 раз

Полного источника не было: Никогда

 
   
 
 
 

[Цитировать]

Zbigniew Preisner - Семейная тайна / Un Secret (2007), Менахем и Фред / Menachem & Fred
Название альбома: Un Secret (2007), Menachem & Fred
Жанр: Score
Композитор: Zbigniew Preisner
Год выпуска диска: 2013
Издатель (лейбл): Quartet Records
Номер по каталогу: SM031
Аудиокодек: APE (*.ape)
Тип рипа: image+.cue
Битрейт аудио: lossless
Продолжительность: 69:47
Источник: скачано с
сайт-источник/ник/другое: hqshare.net
Наличие сканов в содержимом раздачи: да
Треклист:
UN SECRET
01. Holidays Before The War (2:29)
02. Ghost Apparition (4:07)
03. Dinner Time (2:32)
04. Baptism (3:44)
05. Un Secret – Main Theme (2:17)
06. Holding On (5:25)
07. Mirror (3:46)
08. Marriage (2:25)
09. Un Secret – Variation (3:42)
10. Un Secret – End Titles (3:55)
MENACHEM & FRED
11. Memory Of The Past (1:39)
12. The Story Begins (2:09)
13. Menachem & Fred – Main Theme (1:31)
14. Travel To Germany (2:38)
15. Home (1:20)
16. Recurring Memories (1:10)
17. Menachem & Fred – First Transcription (1:16)
18. The Camp (3:26)
19. Life Goes On (2:13)
20. Difficult Time Of Separation (1:57)
21. A Conversation (3:17)
22. Menachem & Fred – Second Transcription (1:53)
23. Return Time (1:49)
24. Memory Of The Past – Second Transcription (0:57)
25. Au Revoir (3:57)
26. Menachem & Fred – End Titles (2:15)
27. Postscriptum (1:42)
Красивая заглавная тема - трек 25/26/14, также понравились 15 и 12 треки.

Лог создания рипа

Exact Audio Copy V1.0 beta 3 from 29. August 2011
EAC extraction logfile from 16. March 2014, 21:42
Zbigniew Preisner / Un Secret / Menachem & Fred
Used drive : HL-DT-STDVD-RAM GSA-H20L Adapter: 0 ID: 0
Read mode : SecureUtilize accurate stream : YesDefeat audio cache : YesMake use of C2 pointers : No
Read offset correction : 102Overread into Lead-In and Lead-Out : YesFill up missing offset samples with silence : YesDelete leading and trailing silent blocks : NoNull samples used in CRC calculations : YesUsed interface : Native Win32 interface for Win NT & 2000
Used output format : Internal WAV RoutinesSample format : 44.100 Hz; 16 Bit; Stereo
TOC of the extracted CD
Track | Start | Length | Start sector | End sector --------------------------------------------------------- 1 | 0:00.00 | 2:29.45 | 0 | 11219 2 | 2:29.45 | 4:07.12 | 11220 | 29756 3 | 6:36.57 | 2:31.56 | 29757 | 41137 4 | 9:08.38 | 3:44.27 | 41138 | 57964 5 | 12:52.65 | 2:17.17 | 57965 | 68256 6 | 15:10.07 | 5:25.48 | 68257 | 92679 7 | 20:35.55 | 3:45.56 | 92680 | 109610 8 | 24:21.36 | 2:25.51 | 109611 | 120536 9 | 26:47.12 | 3:41.56 | 120537 | 137167 10 | 30:28.68 | 4:05.41 | 137168 | 155583 11 | 34:34.34 | 1:39.28 | 155584 | 163036 12 | 36:13.62 | 2:08.54 | 163037 | 172690 13 | 38:22.41 | 1:30.47 | 172691 | 179487 14 | 39:53.13 | 2:37.55 | 179488 | 191317 15 | 42:30.68 | 1:19.61 | 191318 | 197303 16 | 43:50.54 | 1:10.13 | 197304 | 202566 17 | 45:00.67 | 1:16.21 | 202567 | 208287 18 | 46:17.13 | 3:26.23 | 208288 | 223760 19 | 49:43.36 | 2:13.15 | 223761 | 233750 20 | 51:56.51 | 1:57.06 | 233751 | 242531 21 | 53:53.57 | 3:17.43 | 242532 | 257349 22 | 57:11.25 | 1:53.32 | 257350 | 265856 23 | 59:04.57 | 1:49.13 | 265857 | 274044 24 | 60:53.70 | 0:56.73 | 274045 | 278317 25 | 61:50.68 | 3:56.66 | 278318 | 296083 26 | 65:47.59 | 2:15.35 | 296084 | 306243 27 | 68:03.19 | 1:42.02 | 306244 | 313895
Range status and errors
Selected range
Filename C:\Zbigniew Preisner - Un Secret , Menachem & Fred.wav
Peak level 98.5 % Extraction speed 2.8 X Range quality 100.0 % Copy CRC 9A364DD6 Copy OK
No errors occurred
AccurateRip summary
Track 1 accurately ripped (confidence 1) [F4E8FBF5] (AR v2)Track 2 accurately ripped (confidence 1) [6655E85D] (AR v2)Track 3 accurately ripped (confidence 1) [1BA71231] (AR v2)Track 4 accurately ripped (confidence 1) [D072B272] (AR v2)Track 5 accurately ripped (confidence 1) [B03D1A5D] (AR v2)Track 6 accurately ripped (confidence 1) [9B96AD1C] (AR v2)Track 7 accurately ripped (confidence 1) [5582C58A] (AR v2)Track 8 accurately ripped (confidence 1) [CC471D29] (AR v2)Track 9 accurately ripped (confidence 1) [5D6099B7] (AR v2)Track 10 accurately ripped (confidence 1) [F7919B5D] (AR v2)Track 11 accurately ripped (confidence 1) [F9B7BEB5] (AR v2)Track 12 accurately ripped (confidence 1) [58B5EFFF] (AR v2)Track 13 accurately ripped (confidence 1) [1C1716CD] (AR v2)Track 14 accurately ripped (confidence 1) [A0883571] (AR v2)Track 15 accurately ripped (confidence 1) [B3AD5D07] (AR v2)Track 16 accurately ripped (confidence 1) [46A66153] (AR v2)Track 17 accurately ripped (confidence 1) [A2D593EB] (AR v2)Track 18 accurately ripped (confidence 1) [E6F49183] (AR v2)Track 19 accurately ripped (confidence 1) [F74F7469] (AR v2)Track 20 accurately ripped (confidence 1) [3EEF2A99] (AR v2)Track 21 accurately ripped (confidence 1) [F126ADC3] (AR v2)Track 22 accurately ripped (confidence 1) [C301D765] (AR v2)Track 23 accurately ripped (confidence 1) [149BF3F4] (AR v2)Track 24 accurately ripped (confidence 1) [8475CBB1] (AR v2)Track 25 accurately ripped (confidence 1) [92F302D7] (AR v2)Track 26 accurately ripped (confidence 1) [E8DEB9E2] (AR v2)Track 27 accurately ripped (confidence 1) [1234BF83] (AR v2)
All tracks accurately ripped
End of status report
---- CUETools DB Plugin V2.1.3
[CTDB TOCID: dyKUgKADh4u.7K7_RuAgqkQh_xk-] found, Submit result: already submitted[73f4cc18] (1/1) Accurately ripped
==== Log checksum 84D7D87493AAA8359BFCEDA31E3C696F983EA1F82B9D99BD79F6AE659966A842 ====

Лог проверки качества

нет

Скриншот спектра частот

нет
[teatrix.ru].t10428.torrent 
Торрент: Зарегистрирован [ 2015-11-01 20:51 ] · E960EC5C4BDB6BEA03978D7A2AE2571699434B79

Скачать .torrent

Скачать

13 KB

Статус: проверено
Скачан: 0 раз
Размер: 303 MB
terms.php



Быстрый ответ

Имя:

      
Для отправки сообщений необходимо включить JavaScript
Показать сообщения:    

Текущее время: 10-Дек 11:54

Часовой пояс: UTC + 3


Вы можете начинать темы
Вы можете отвечать на сообщения
Вы не можете редактировать свои сообщения
Вы не можете удалять свои сообщения
Вы не можете голосовать в опросах
Вы не можете прикреплять файлы к сообщениям
Вы можете скачивать файлы