(Score) Грань будущего / Edge of Tomorrow (by Christophe Beck) - 2014, FLAC (tracks+.cue), lossless


Статистика раздачи [Обновить пиров]
Размер:  231 MB   |    Зарегистрирован:  1 год 1 месяц   |    Скачан:  1 раз

Полного источника не было: 1 месяц 24 дня

 
   
 
 
 

[Цитировать]

ГРАНЬ БУДУЩЕГО- Название: Edge Of Tomorrow (Original Motion Picture Soundtrack) | Жанр: Score | Композитор: Christophe Beck
Год выпуска диска: 2014 | Год выпуска фильма: 2014 | Страна-производитель: US | Издатель: WaterTower Music
Номер по каталогу: WTM39521 | Аудиокодек: FLAC (*.flac) | Тип рипа: tracks+.cue | Битрейт аудио: lossless
Продолжительность: 00:45:43 | Источник: wrz (Anonymous) | Наличие сканов: да (jpg, pdf)

Треклист

01. Angel of Verdun (Main titles) (2:56)
02. No courage without fear (3:00)
03. D-Day (2:36)
04. Mimics and Alphas (1:26)
05. PT (1:16)
06. Find me when you wake up (2:06)
07. Navigating the beach (2:02)
08. Winning the war (1:28)
09. Combat training (1:17)
10. Deadweight (1:32)
11. Again! (1:48)
12. Solo flight (3:11)
13. Decoy (1:23)
14. Whitehall (2:09)
15. Uncharted territory (1:40)
16. I'm out (1:54)
17. They know we're coming (2:07)
18. Caged in (2:04)
19. Ritaliation (1:40)
20. The Omega (1:23)
21. Welcome to London, Maior (2:23)
22. Live, Die, Repeat (End titles) (4:23)

ОтчётыЛог создания рипа

Exact Audio Copy V1.0 beta 3 from 29. August 2011
EAC extraction logfile from 27. August 2014, 12:55
Christophe Beck / Edge of tomorrow
Used drive : HL-DT-STBD-RE BH16NS40 Adapter: 1 ID: 1
Read mode : SecureUtilize accurate stream : YesDefeat audio cache : YesMake use of C2 pointers : No
Read offset correction : 6Overread into Lead-In and Lead-Out : NoFill up missing offset samples with silence : YesDelete leading and trailing silent blocks : NoNull samples used in CRC calculations : YesUsed interface : Native Win32 interface for Win NT & 2000Gap handling : Appended to previous track
Used output format : User Defined EncoderSelected bitrate : 896 kBit/sQuality : HighAdd ID3 tag : NoCommand line compressor : C:\Program Files\FLAC\flac.exeAdditional command line options : -8 -V -T "artist=%artist%" -T "title=%title%" -T "album=%albumtitle%" -T "date=%year%" -T "tracknumber=%tracknr%" -T "genre=%genre%" %source%
TOC of the extracted CD
Track | Start | Length | Start sector | End sector --------------------------------------------------------- 1 | 0:00.00 | 2:56.26 | 0 | 13225 2 | 2:56.26 | 3:00.15 | 13226 | 26740 3 | 5:56.41 | 2:35.52 | 26741 | 38417 4 | 8:32.18 | 1:25.69 | 38418 | 44861 5 | 9:58.12 | 1:16.24 | 44862 | 50585 6 | 11:14.36 | 2:05.50 | 50586 | 60010 7 | 13:20.11 | 2:01.63 | 60011 | 69148 8 | 15:21.74 | 1:27.69 | 69149 | 75742 9 | 16:49.68 | 1:16.55 | 75743 | 81497 10 | 18:06.48 | 1:31.54 | 81498 | 88376 11 | 19:38.27 | 1:48.36 | 88377 | 96512 12 | 21:26.63 | 3:11.21 | 96513 | 110858 13 | 24:38.09 | 1:22.74 | 110859 | 117082 14 | 26:01.08 | 2:09.05 | 117083 | 126762 15 | 28:10.13 | 1:39.62 | 126763 | 134249 16 | 29:50.00 | 1:53.66 | 134250 | 142790 17 | 31:43.66 | 2:06.64 | 142791 | 152304 18 | 33:50.55 | 2:04.05 | 152305 | 161609 19 | 35:54.60 | 1:39.39 | 161610 | 169073 20 | 37:34.24 | 1:23.16 | 169074 | 175314 21 | 38:57.40 | 2:22.38 | 175315 | 186002 22 | 41:20.03 | 4:22.63 | 186003 | 205715
Track 1
Filename C:\Users\usuario\Documents\Carátulas\Edge of tomorrow covers\01 Angel of Verdun (Main titles).wav
Pre-gap length 0:00:02.00
Peak level 96.5 % Extraction speed 1.1 X Track quality 100.0 % Test CRC AC7D6C64 Copy CRC AC7D6C64 Copy OK
Track 2
Filename C:\Users\usuario\Documents\Carátulas\Edge of tomorrow covers\02 No courage without fear.wav
Peak level 96.6 % Extraction speed 1.2 X Track quality 100.0 % Test CRC 3EB4BEA5 Copy CRC 3EB4BEA5 Copy OK
Track 3
Filename C:\Users\usuario\Documents\Carátulas\Edge of tomorrow covers\03 D-Day.wav
Peak level 96.6 % Extraction speed 1.1 X Track quality 99.9 % Test CRC 31E5D723 Copy CRC 31E5D723 Copy OK
Track 4
Filename C:\Users\usuario\Documents\Carátulas\Edge of tomorrow covers\04 Mimics and Alphas.wav
Peak level 96.6 % Extraction speed 1.1 X Track quality 100.0 % Test CRC 4669BF45 Copy CRC 4669BF45 Copy OK
Track 5
Filename C:\Users\usuario\Documents\Carátulas\Edge of tomorrow covers\05 PT.wav
Peak level 96.5 % Extraction speed 0.8 X Track quality 99.8 % Test CRC 616344EA Copy CRC 616344EA Copy OK
Track 6
Filename C:\Users\usuario\Documents\Carátulas\Edge of tomorrow covers\06 Find me when you wake up.wav
Peak level 96.6 % Extraction speed 1.3 X Track quality 100.0 % Test CRC 98339E8B Copy CRC 98339E8B Copy OK
Track 7
Filename C:\Users\usuario\Documents\Carátulas\Edge of tomorrow covers\07 Navigating the beach.wav
Peak level 96.6 % Extraction speed 1.0 X Track quality 99.9 % Test CRC 98DA945F Copy CRC 98DA945F Copy OK
Track 8
Filename C:\Users\usuario\Documents\Carátulas\Edge of tomorrow covers\08 Winning the war.wav
Peak level 96.6 % Extraction speed 1.2 X Track quality 100.0 % Test CRC 4167DC64 Copy CRC 4167DC64 Copy OK
Track 9
Filename C:\Users\usuario\Documents\Carátulas\Edge of tomorrow covers\09 Combat training.wav
Peak level 96.6 % Extraction speed 1.2 X Track quality 100.0 % Test CRC 27959711 Copy CRC 27959711 Copy OK
Track 10
Filename C:\Users\usuario\Documents\Carátulas\Edge of tomorrow covers\10 Deadweight.wav
Peak level 96.6 % Extraction speed 1.3 X Track quality 100.0 % Test CRC 39521E50 Copy CRC 39521E50 Copy OK
Track 11
Filename C:\Users\usuario\Documents\Carátulas\Edge of tomorrow covers\11 Again!.wav
Peak level 96.6 % Extraction speed 1.4 X Track quality 100.0 % Test CRC 5C20478C Copy CRC 5C20478C Copy OK
Track 12
Filename C:\Users\usuario\Documents\Carátulas\Edge of tomorrow covers\12 Solo flight.wav
Peak level 96.6 % Extraction speed 1.6 X Track quality 100.0 % Test CRC 184063ED Copy CRC 184063ED Copy OK
Track 13
Filename C:\Users\usuario\Documents\Carátulas\Edge of tomorrow covers\13 Decoy.wav
Peak level 96.6 % Extraction speed 1.1 X Track quality 99.8 % Test CRC 31DAE149 Copy CRC 31DAE149 Copy OK
Track 14
Filename C:\Users\usuario\Documents\Carátulas\Edge of tomorrow covers\14 Whitehall.wav
Peak level 96.5 % Extraction speed 1.6 X Track quality 100.0 % Test CRC 13891DF5 Copy CRC 13891DF5 Copy OK
Track 15
Filename C:\Users\usuario\Documents\Carátulas\Edge of tomorrow covers\15 Uncharted territory.wav
Peak level 96.6 % Extraction speed 1.5 X Track quality 100.0 % Test CRC 8ACE8EBD Copy CRC 8ACE8EBD Copy OK
Track 16
Filename C:\Users\usuario\Documents\Carátulas\Edge of tomorrow covers\16 I'm out.wav
Peak level 96.5 % Extraction speed 1.3 X Track quality 99.9 % Test CRC 6E7D053C Copy CRC 6E7D053C Copy OK
Track 17
Filename C:\Users\usuario\Documents\Carátulas\Edge of tomorrow covers\17 They know we're coming.wav
Peak level 96.6 % Extraction speed 1.6 X Track quality 100.0 % Test CRC E386A8A4 Copy CRC E386A8A4 Copy OK
Track 18
Filename C:\Users\usuario\Documents\Carátulas\Edge of tomorrow covers\18 Caged in.wav
Peak level 96.6 % Extraction speed 1.7 X Track quality 100.0 % Test CRC 1CF92368 Copy CRC 1CF92368 Copy OK
Track 19
Filename C:\Users\usuario\Documents\Carátulas\Edge of tomorrow covers\19 Ritaliation.wav
Peak level 96.6 % Extraction speed 1.6 X Track quality 100.0 % Test CRC CDE09741 Copy CRC CDE09741 Copy OK
Track 20
Filename C:\Users\usuario\Documents\Carátulas\Edge of tomorrow covers\20 The Omega.wav
Peak level 96.6 % Extraction speed 1.5 X Track quality 100.0 % Test CRC 0D5917A5 Copy CRC 0D5917A5 Copy OK
Track 21
Filename C:\Users\usuario\Documents\Carátulas\Edge of tomorrow covers\21 Welcome to London, Maior.wav
Peak level 83.1 % Extraction speed 1.8 X Track quality 100.0 % Test CRC 586FC29D Copy CRC 586FC29D Copy OK
Track 22
Filename C:\Users\usuario\Documents\Carátulas\Edge of tomorrow covers\22 Live, Die, Repeat (End titles).wav
Peak level 96.6 % Extraction speed 2.0 X Track quality 100.0 % Test CRC 9B7BAA68 Copy CRC 9B7BAA68 Copy OK
No errors occurred
End of status report
==== Log checksum FE08F5E44BEBE3DB2C8F702D01B9785EAB934FBE2B889BB220493E2F7C238BF2 ====

Содержание индексной карты (.CUE)

REM GENRE SoundtrackREM DATE 2014REM DISCID 240AB616REM COMMENT "ExactAudioCopy v1.0b3"PERFORMER "Christophe Beck"TITLE "Edge of tomorrow"FILE "01 Angel of Verdun (Main titles).wav" WAVE TRACK 01 AUDIO TITLE "Angel of Verdun (Main titles)" PERFORMER "Christophe Beck" ISRC 000000000000 INDEX 01 00:00:00FILE "02 No courage without fear.wav" WAVE TRACK 02 AUDIO TITLE "No courage without fear" PERFORMER "Christophe Beck" ISRC 000000000000 INDEX 01 00:00:00FILE "03 D-Day.wav" WAVE TRACK 03 AUDIO TITLE "D-Day" PERFORMER "Christophe Beck" ISRC 000000000000 INDEX 01 00:00:00FILE "04 Mimics and Alphas.wav" WAVE TRACK 04 AUDIO TITLE "Mimics and Alphas" PERFORMER "Christophe Beck" ISRC 000000000000 INDEX 01 00:00:00FILE "05 PT.wav" WAVE TRACK 05 AUDIO TITLE "PT" PERFORMER "Christophe Beck" ISRC 000000000000 INDEX 01 00:00:00FILE "06 Find me when you wake up.wav" WAVE TRACK 06 AUDIO TITLE "Find me when you wake up" PERFORMER "Christophe Beck" ISRC 000000000000 INDEX 01 00:00:00FILE "07 Navigating the beach.wav" WAVE TRACK 07 AUDIO TITLE "Navigating the beach" PERFORMER "Christophe Beck" ISRC 000000000000 INDEX 01 00:00:00FILE "08 Winning the war.wav" WAVE TRACK 08 AUDIO TITLE "Winning the war" PERFORMER "Christophe Beck" ISRC 000000000000 INDEX 01 00:00:00FILE "09 Combat training.wav" WAVE TRACK 09 AUDIO TITLE "Combat training" PERFORMER "Christophe Beck" ISRC 000000000000 INDEX 01 00:00:00FILE "10 Deadweight.wav" WAVE TRACK 10 AUDIO TITLE "Deadweight" PERFORMER "Christophe Beck" ISRC 000000000000 INDEX 01 00:00:00FILE "11 Again!.wav" WAVE TRACK 11 AUDIO TITLE "Again!" PERFORMER "Christophe Beck" ISRC 000000000000 INDEX 01 00:00:00FILE "12 Solo flight.wav" WAVE TRACK 12 AUDIO TITLE "Solo flight" PERFORMER "Christophe Beck" ISRC 000000000000 INDEX 01 00:00:00FILE "13 Decoy.wav" WAVE TRACK 13 AUDIO TITLE "Decoy" PERFORMER "Christophe Beck" ISRC 000000000000 INDEX 01 00:00:00FILE "14 Whitehall.wav" WAVE TRACK 14 AUDIO TITLE "Whitehall" PERFORMER "Christophe Beck" ISRC 000000000000 INDEX 01 00:00:00FILE "15 Uncharted territory.wav" WAVE TRACK 15 AUDIO TITLE "Uncharted territory" PERFORMER "Christophe Beck" ISRC 000000000000 INDEX 01 00:00:00FILE "16 I'm out.wav" WAVE TRACK 16 AUDIO TITLE "I'm out" PERFORMER "Christophe Beck" ISRC 000000000000 INDEX 01 00:00:00FILE "17 They know we're coming.wav" WAVE TRACK 17 AUDIO TITLE "They know we're coming" PERFORMER "Christophe Beck" ISRC 000000000000 INDEX 01 00:00:00FILE "18 Caged in.wav" WAVE TRACK 18 AUDIO TITLE "Caged in" PERFORMER "Christophe Beck" ISRC 000000000000 INDEX 01 00:00:00FILE "19 Ritaliation.wav" WAVE TRACK 19 AUDIO TITLE "Ritaliation" PERFORMER "Christophe Beck" ISRC 000000000000 INDEX 01 00:00:00FILE "20 The Omega.wav" WAVE TRACK 20 AUDIO TITLE "The Omega" PERFORMER "Christophe Beck" ISRC 000000000000 INDEX 01 00:00:00FILE "21 Welcome to London, Maior.wav" WAVE TRACK 21 AUDIO TITLE "Welcome to London, Maior" PERFORMER "Christophe Beck" ISRC 000000000000 INDEX 01 00:00:00FILE "22 Live, Die, Repeat (End titles).wav" WAVE TRACK 22 AUDIO TITLE "Live, Die, Repeat (End titles)" PERFORMER "Christophe Beck" ISRC 000000000000 INDEX 01 00:00:00

Лог проверки качества

-----------------------
DON'T MODIFY THIS FILE
-----------------------
PERFORMER: auCDtect Task Manager, ver. 1.6.0 RC1 build 1.6.0.1Copyright (c) 2008-2010 y-soft. All rights reservedhttp://y-soft.org
ANALYZER: auCDtect: CD records authenticity detector, version 0.8.2Copyright (c) 2004 Oleg Berngardt. All rights reserved.Copyright (c) 2004 Alexander Djourik. All rights reserved.
FILE: 22 Live, Die, Repeat (End titles).flac Size: 17382436 Hash: C4FC5F801A97E4B0A96881C75BBBC302 Accuracy: -m0 Conclusion: CDDA 100% Signature: EC1C743227CA064FC0B00216FAE98017B073B170FILE: 21 Welcome to London, Maior.flac Size: 9304148 Hash: 0AAD0B52DE6D516653CF5BCB5179DDE8 Accuracy: -m0 Conclusion: CDDA 100% Signature: 0D8AEE2C1D8F7F693A55773409B6F6DDD822A4F4FILE: 20 The Omega.flac Size: 6083977 Hash: BE6477338313F6D0DE9E378BB7ECED52 Accuracy: -m0 Conclusion: CDDA 100% Signature: 3F48DD0AD11038B767DD27436A91493DD8BF4BEBFILE: 19 Ritaliation.flac Size: 9772179 Hash: 3F8A1F3EF04D89CF8F9147CDBFEF44DC Accuracy: -m0 Conclusion: CDDA 100% Signature: B83088F74DFE86B4C19B7D900BDC8D658489C2E8FILE: 18 Caged in.flac Size: 7635299 Hash: 051ECC110298B9BA86B9027410C722C1 Accuracy: -m0 Conclusion: CDDA 100% Signature: C782EC39400F9DA7D7E82326452C46094C092465FILE: 17 They know we're coming.flac Size: 9978831 Hash: 16503FB86DA002666935068CDC688FC4 Accuracy: -m0 Conclusion: CDDA 100% Signature: C99C37BDCD8E78FE0D323F14F98A4651DD0A7DF2FILE: 16 I'm out.flac Size: 6646720 Hash: B324DFC6BBD0328D279F144E90ECB3A2 Accuracy: -m0 Conclusion: CDDA 100% Signature: 68CF184107A195AF669F5C00C7790EEECE5FE3FFFILE: 15 Uncharted territory.flac Size: 7587518 Hash: CB5F54F690A55257B679803B22587BA2 Accuracy: -m0 Conclusion: CDDA 100% Signature: 1019BE9352D0806891209ED8794C3658B6C08983FILE: 14 Whitehall.flac Size: 6794614 Hash: 1F26EC145FBC65DC96E2BDCE4F8C1C80 Accuracy: -m0 Conclusion: CDDA 100% Signature: EF9C4905CC393D654DF7112E132FC83EC1FC01CDFILE: 13 Decoy.flac Size: 5515245 Hash: 9D4F780A6E19F3A021375B93E0BA2484 Accuracy: -m0 Conclusion: CDDA 100% Signature: F6AEF29A240C6BCFD36A189D9E462099338B043EFILE: 12 Solo flight.flac Size: 13159313 Hash: 7D5A53D206B908CE09A2F6CA99B0D60B Accuracy: -m0 Conclusion: CDDA 100% Signature: 7E4A7776B77CBC4F26DE98C15D3A14860B1FB575FILE: 11 Again!.flac Size: 8087306 Hash: 8B329745FADB63FACB933DBE8C312327 Accuracy: -m0 Conclusion: CDDA 100% Signature: C460A3B4EBC6A62BC5BD024BD96381DFF858C603FILE: 10 Deadweight.flac Size: 7246178 Hash: C85B3181960F693051FE594317F7F53A Accuracy: -m0 Conclusion: CDDA 100% Signature: BCAA58F9517256EBCA77C2D3D87BA3841FF00330FILE: 09 Combat training.flac Size: 5255896 Hash: 6B6EFBD380C773F51A1EC96207DBD521 Accuracy: -m0 Conclusion: CDDA 100% Signature: A5E68031EC2AB159921E91A95459C75617A05B5DFILE: 08 Winning the war.flac Size: 5920159 Hash: B14AC9223D7479C8ABE31B7DD7AA5F9D Accuracy: -m0 Conclusion: CDDA 100% Signature: D726396E27B662AE6F3C16231DE29D04F6A0730CFILE: 07 Navigating the beach.flac Size: 9260920 Hash: 46F678DD71A77C1450123C95262134B3 Accuracy: -m0 Conclusion: CDDA 100% Signature: 96E45FDB831C3B714B9607B64E2A43A27A048E57FILE: 06 Find me when you wake up.flac Size: 10481348 Hash: 49F3DE87D77CA29673B2E98D62D54636 Accuracy: -m0 Conclusion: CDDA 100% Signature: 1FEB584835FA1B97416BA0C02E5F7E95E13A8B7BFILE: 05 PT.flac Size: 5655778 Hash: 4F4B25285C2A6AB47E13C11E6A39CF55 Accuracy: -m0 Conclusion: CDDA 100% Signature: 3754F4A24E7C7B9D49FB36965F9932DDE8CB8B3DFILE: 04 Mimics and Alphas.flac Size: 7530307 Hash: D0DBB327F57DE3A9618581B27146F4C8 Accuracy: -m0 Conclusion: CDDA 100% Signature: 8CDD0BBCD4965FE61659B5CD422C6301AFEC6C63FILE: 03 D-Day.flac Size: 12000151 Hash: 08BACA73708835241B8BE3E0A3261704 Accuracy: -m0 Conclusion: CDDA 100% Signature: 7199549750F4B117119B2F320164D41B8C2D5D1CFILE: 02 No courage without fear.flac Size: 13243934 Hash: 1DF7B79F2743FAA827596AD5125506FB Accuracy: -m0 Conclusion: CDDA 100% Signature: 47112D633C886679771C54E4C5EE9BAA49B261DCFILE: 01 Angel of Verdun (Main titles).flac Size: 10311285 Hash: D7DC3B06F21936C37F08750066479EC1 Accuracy: -m0 Conclusion: CDDA 100% Signature: A412B0A374CE08A873ED07F40B6B2B67E0374018

Скриншот спектра частот

Доп. информация

Релиз полностью готов к воспроизведению в аудиоплеере (я ориентировался на foobar2000)При скачивании, если необходимо, переименуйте папку, в которой будет находиться альбомБольшая просьба к скачавшим поддерживать раздачу! Помогайте другим, ведь вам тоже может понадобиться помощь!Не забываем говорить "Спасибо"!Комментарии приветствуются!
[teatrix.ru].t10429.torrent 
Торрент: Зарегистрирован [ 2015-11-01 20:51 ] · 4AF6C9F3C1F628A8894C904F3E8E25228C234E97

Скачать .torrent

Скачать

21 KB

Статус: проверено
Скачан: 1 раз
Размер: 231 MB
terms.php



Быстрый ответ

Имя:

      
Для отправки сообщений необходимо включить JavaScript
Показать сообщения:    

Текущее время: 04-Дек 13:15

Часовой пояс: UTC + 3


Вы можете начинать темы
Вы можете отвечать на сообщения
Вы не можете редактировать свои сообщения
Вы не можете удалять свои сообщения
Вы не можете голосовать в опросах
Вы не можете прикреплять файлы к сообщениям
Вы можете скачивать файлы