(Soundtrack) ГАРО / 牙狼黄金歌集 牙狼魂 / GARO Series Best - 2013, FLAC (tracks + .cue), lossless


Статистика раздачи [Обновить пиров]
Размер:  580 MB   |    Зарегистрирован:  1 год 1 месяц   |    Скачан:  2 раза

Полного источника не было: 6 дней

 
   
 
 
 

[Цитировать]

ГАРО / 牙狼黄金歌集 牙狼魂 / GARO Series Best
Жанр: Soundtrack
Носитель: CD
Страна-производитель диска: Japan
Год издания: 2013
Издатель (лейбл): Lantis
Номер по каталогу: LACA-15341
Страна: Japan
Аудиокодек: FLAC (*.flac)
Тип рипа: tracks+.cue
Битрейт аудио: lossless
Продолжительность: 00:54:50
Источник (релизер): Рип с диска
Наличие сканов в содержимом раздачи: да
Треклист:
1. Theme of GARO
2. 牙狼~SAVIOR IN THE DARK~ / Garo ~Savior in the dark~
3. Fencer of GOLD
4. 牙狼~SAVIOR IN THE DARK~ (RED REQUIEM ver.) / Garo ~Savior in the dark~ (RED REQUIEM ver.)
5. 呀~Tusk of Darkness~ / Kiba ~Tusk of darkness~
6. Worrier~闇を駆ける呀~ / Worrier ~Yami wo kakeru kiba~
7. GARO-MAKAISENKI- with JAM Project
8. PREDESTINATION
9. 我が名は牙狼 / Waga na wa Garo
10. PROMISE~Without you~
11. 魔戒群狼伝牙王 / Makai gunrouden GaOh
12. FINALクロスファイト牙狼 / Final Cross fight Garo
13. WOLF~FINAL,THE LAST GOLD~
14. 風~旅立ちの詩~ / Kaze ~Tabidachi no uta~

Отчёт XLD

X Lossless Decoder version 20140504 (147.0)
XLD extraction logfile from 2014-09-12 20:37:14 +0400
JAM Project / 牙狼黄金歌集 牙狼魂
Used drive : PLEXTOR DVDR PX-810UF (revision 1.00)Media type : Pressed CD
Ripper mode : XLD Secure RipperDisable audio cache : OK for the drive with a cache less than 1375KiBMake use of C2 pointers : NORead offset correction : 667Max retry count : 100Gap status : Analyzed, Appended
TOC of the extracted CD Track | Start | Length | Start sector | End sector --------------------------------------------------------- 1 | 00:00:00 | 01:14:04 | 0 | 5553 2 | 01:14:04 | 04:29:65 | 5554 | 25793 3 | 05:43:69 | 04:03:17 | 25794 | 44035 4 | 09:47:11 | 04:09:21 | 44036 | 62731 5 | 13:56:32 | 03:55:04 | 62732 | 80360 6 | 17:51:36 | 04:59:05 | 80361 | 102790 7 | 22:50:41 | 01:34:66 | 102791 | 109906 8 | 24:25:32 | 04:03:07 | 109907 | 128138 9 | 28:28:39 | 04:07:14 | 128139 | 146677 10 | 32:35:53 | 04:02:34 | 146678 | 164861 11 | 36:38:12 | 04:30:59 | 164862 | 185170 12 | 41:08:71 | 04:17:52 | 185171 | 204497 13 | 45:26:48 | 04:02:43 | 204498 | 222690 14 | 49:29:16 | 05:21:09 | 222691 | 246774
AccurateRip Summary (DiscID: 001a65c5-011ec090-c40cda0e) Track 01 : OK (v2, confidence 1/1) Track 02 : OK (v2, confidence 2/2) Track 03 : OK (v2, confidence 1/1) Track 04 : OK (v2, confidence 1/1) Track 05 : OK (v2, confidence 1/1) Track 06 : OK (v2, confidence 1/1) Track 07 : OK (v2, confidence 1/1) Track 08 : OK (v2, confidence 1/1) Track 09 : OK (v2, confidence 1/1) Track 10 : OK (v2, confidence 1/1) Track 11 : OK (v2, confidence 1/1) Track 12 : OK (v2, confidence 1/1) Track 13 : OK (v2, confidence 1/1) Track 14 : OK (v2, confidence 2/2) ->All tracks accurately ripped.
All Tracks Statistics Read error : 0 Jitter error (maybe fixed) : 0 Retry sector count : 0 Damaged sector count : 0
Track 01 Filename : /Users/p38j15/Desktop/01. Theme of GARO.flac Pre-gap length : 00:02:00
CRC32 hash (test run) : 24596D9B CRC32 hash : 24596D9B CRC32 hash (skip zero) : 257779CC AccurateRip v1 signature : 3008DAFA AccurateRip v2 signature : 1D52D335 ->Accurately ripped (v2, confidence 1/1) Statistics Read error : 0 Jitter error (maybe fixed) : 0 Retry sector count : 0 Damaged sector count : 0
Track 02 Filename : /Users/p38j15/Desktop/02. 牙狼~SAVIOR IN THE DARK~.flac Pre-gap length : 00:00:37
CRC32 hash (test run) : D1A59438 CRC32 hash : D1A59438 CRC32 hash (skip zero) : F59F7033 AccurateRip v1 signature : 550DE65F AccurateRip v2 signature : BBCF6DEF ->Accurately ripped (v2, confidence 2/2) Statistics Read error : 0 Jitter error (maybe fixed) : 0 Retry sector count : 0 Damaged sector count : 0
Track 03 Filename : /Users/p38j15/Desktop/03. Fencer of GOLD.flac Pre-gap length : 00:01:37
CRC32 hash (test run) : 1F479AF5 CRC32 hash : 1F479AF5 CRC32 hash (skip zero) : 2E03D6E8 AccurateRip v1 signature : C7B27A59 AccurateRip v2 signature : 76C6C257 ->Accurately ripped (v2, confidence 1/1) Statistics Read error : 0 Jitter error (maybe fixed) : 0 Retry sector count : 0 Damaged sector count : 0
Track 04 Filename : /Users/p38j15/Desktop/04. 牙狼~SAVIOR IN THE DARK~ (RED REQUIEM ver.).flac Pre-gap length : 00:02:37
CRC32 hash (test run) : DEA932A8 CRC32 hash : DEA932A8 CRC32 hash (skip zero) : 65262A1E AccurateRip v1 signature : B59D7700 AccurateRip v2 signature : 1D2F272C ->Accurately ripped (v2, confidence 1/1) Statistics Read error : 0 Jitter error (maybe fixed) : 0 Retry sector count : 0 Damaged sector count : 0
Track 05 Filename : /Users/p38j15/Desktop/05. 呀~Tusk of Darkness~.flac Pre-gap length : 00:02:13
CRC32 hash (test run) : CBFBCBB8 CRC32 hash : CBFBCBB8 CRC32 hash (skip zero) : F4FB138D AccurateRip v1 signature : 97A1862F AccurateRip v2 signature : C676786D ->Accurately ripped (v2, confidence 1/1) Statistics Read error : 0 Jitter error (maybe fixed) : 0 Retry sector count : 0 Damaged sector count : 0
Track 06 Filename : /Users/p38j15/Desktop/06. Worrier~闇を駆ける呀~.flac Pre-gap length : 00:01:63
CRC32 hash (test run) : 78BD5FF1 CRC32 hash : 78BD5FF1 CRC32 hash (skip zero) : 3A89C12F AccurateRip v1 signature : 2328B1F7 AccurateRip v2 signature : 5607D0AB ->Accurately ripped (v2, confidence 1/1) Statistics Read error : 0 Jitter error (maybe fixed) : 0 Retry sector count : 0 Damaged sector count : 0
Track 07 Filename : /Users/p38j15/Desktop/07. GARO-MAKAISENKI- with JAM Project.flac Pre-gap length : 00:02:37
CRC32 hash (test run) : B39A7820 CRC32 hash : B39A7820 CRC32 hash (skip zero) : 7BB1F92C AccurateRip v1 signature : 72746ACA AccurateRip v2 signature : 3F237814 ->Accurately ripped (v2, confidence 1/1) Statistics Read error : 0 Jitter error (maybe fixed) : 0 Retry sector count : 0 Damaged sector count : 0
Track 08 Filename : /Users/p38j15/Desktop/08. PREDESTINATION.flac Pre-gap length : 00:00:38
CRC32 hash (test run) : 06DC02CB CRC32 hash : 06DC02CB CRC32 hash (skip zero) : C118987A AccurateRip v1 signature : 42354641 AccurateRip v2 signature : FF1BAC67 ->Accurately ripped (v2, confidence 1/1) Statistics Read error : 0 Jitter error (maybe fixed) : 0 Retry sector count : 0 Damaged sector count : 0
Track 09 Filename : /Users/p38j15/Desktop/09. 我が名は牙狼.flac Pre-gap length : 00:02:12
CRC32 hash (test run) : A91A8996 CRC32 hash : A91A8996 CRC32 hash (skip zero) : 90271FE2 AccurateRip v1 signature : 3308DB97 AccurateRip v2 signature : 8662EDEA ->Accurately ripped (v2, confidence 1/1) Statistics Read error : 0 Jitter error (maybe fixed) : 0 Retry sector count : 0 Damaged sector count : 0
Track 10 Filename : /Users/p38j15/Desktop/10. PROMISE~Without you~.flac Pre-gap length : 00:02:12
CRC32 hash (test run) : 3DC7E577 CRC32 hash : 3DC7E577 CRC32 hash (skip zero) : FA7F73B9 AccurateRip v1 signature : 2C5E01BF AccurateRip v2 signature : 0B8571A7 ->Accurately ripped (v2, confidence 1/1) Statistics Read error : 0 Jitter error (maybe fixed) : 0 Retry sector count : 0 Damaged sector count : 0
Track 11 Filename : /Users/p38j15/Desktop/11. 魔戒群狼伝牙王.flac Pre-gap length : 00:02:12
CRC32 hash (test run) : 460F20AA CRC32 hash : 460F20AA CRC32 hash (skip zero) : C585D213 AccurateRip v1 signature : B1997260 AccurateRip v2 signature : A214B92D ->Accurately ripped (v2, confidence 1/1) Statistics Read error : 0 Jitter error (maybe fixed) : 0 Retry sector count : 0 Damaged sector count : 0
Track 12 Filename : /Users/p38j15/Desktop/12. FINALクロスファイト牙狼.flac Pre-gap length : 00:01:62
CRC32 hash (test run) : C6B93AD7 CRC32 hash : C6B93AD7 CRC32 hash (skip zero) : 177A5124 AccurateRip v1 signature : 8C40BA3C AccurateRip v2 signature : 01A0EE05 ->Accurately ripped (v2, confidence 1/1) Statistics Read error : 0 Jitter error (maybe fixed) : 0 Retry sector count : 0 Damaged sector count : 0
Track 13 Filename : /Users/p38j15/Desktop/13. WOLF~FINAL, THE LAST GOLD~.flac Pre-gap length : 00:01:50
CRC32 hash (test run) : 7647F99C CRC32 hash : 7647F99C CRC32 hash (skip zero) : 5C2176EF AccurateRip v1 signature : 06C1BB9A AccurateRip v2 signature : 52FBE1E2 ->Accurately ripped (v2, confidence 1/1) Statistics Read error : 0 Jitter error (maybe fixed) : 0 Retry sector count : 0 Damaged sector count : 0
Track 14 Filename : /Users/p38j15/Desktop/14. 風~旅立ちの詩~.flac Pre-gap length : 00:02:12
CRC32 hash (test run) : B920EB64 CRC32 hash : B920EB64 CRC32 hash (skip zero) : D21605C6 AccurateRip v1 signature : 364CA702 AccurateRip v2 signature : B03227C7 ->Accurately ripped (v2, confidence 2/2) Statistics Read error : 0 Jitter error (maybe fixed) : 0 Retry sector count : 0 Damaged sector count : 0
No errors occurred
End of status report

Cue

TITLE "牙狼黄金歌集 牙狼魂"PERFORMER "JAM Project"CATALOG 4540774153411REM GENRE "Rock"REM DATE "2013"REM DISCID C40CDA0EFILE "01. Theme of GARO.flac" WAVE TRACK 01 AUDIO TITLE "01. Theme of GARO" ISRC JPI100600752 INDEX 01 00:00:00 TRACK 02 AUDIO TITLE "02. 牙狼~SAVIOR IN THE DARK~" ISRC JPI100502301 INDEX 00 01:13:42FILE "02. 牙狼~SAVIOR IN THE DARK~.flac" WAVE INDEX 01 00:00:00 TRACK 03 AUDIO TITLE "03. Fencer of GOLD" ISRC JPI100502302 INDEX 00 04:28:28FILE "03. Fencer of GOLD.flac" WAVE INDEX 01 00:00:00 TRACK 04 AUDIO TITLE "04. 牙狼~SAVIOR IN THE DARK~ (RED REQUIEM ver.)" ISRC JPI101001912 INDEX 00 04:00:55FILE "04. 牙狼~SAVIOR IN THE DARK~ (RED REQUIEM ver.).flac" WAVE INDEX 01 00:00:00 TRACK 05 AUDIO TITLE "05. 呀~Tusk of Darkness~" ISRC JPI101101861 INDEX 00 04:07:08FILE "05. 呀~Tusk of Darkness~.flac" WAVE INDEX 01 00:00:00 TRACK 06 AUDIO TITLE "06. Worrier~闇を駆ける呀~" ISRC JPI101101862 INDEX 00 03:53:16FILE "06. Worrier~闇を駆ける呀~.flac" WAVE INDEX 01 00:00:00 TRACK 07 AUDIO TITLE "07. GARO-MAKAISENKI- with JAM Project" ISRC JPI101202525 INDEX 00 04:56:43FILE "07. GARO-MAKAISENKI- with JAM Project.flac" WAVE INDEX 01 00:00:00 TRACK 08 AUDIO TITLE "08. PREDESTINATION" ISRC JPI101103255 INDEX 00 01:34:28FILE "08. PREDESTINATION.flac" WAVE INDEX 01 00:00:00 TRACK 09 AUDIO TITLE "09. 我が名は牙狼" ISRC JPI101103254 INDEX 00 04:00:70FILE "09. 我が名は牙狼.flac" WAVE INDEX 01 00:00:00 TRACK 10 AUDIO TITLE "10. PROMISE~Without you~" ISRC JPI101103256 INDEX 00 04:05:02FILE "10. PROMISE~Without you~.flac" WAVE INDEX 01 00:00:00 TRACK 11 AUDIO TITLE "11. 魔戒群狼伝牙王" ISRC JPI101301884 INDEX 00 04:00:22FILE "11. 魔戒群狼伝牙王.flac" WAVE INDEX 01 00:00:00 TRACK 12 AUDIO TITLE "12. FINALクロスファイト牙狼" ISRC JPI101301885 INDEX 00 04:28:72FILE "12. FINALクロスファイト牙狼.flac" WAVE INDEX 01 00:00:00 TRACK 13 AUDIO TITLE "13. WOLF~FINAL, THE LAST GOLD~" ISRC JPI101301886 INDEX 00 04:16:02FILE "13. WOLF~FINAL, THE LAST GOLD~.flac" WAVE INDEX 01 00:00:00 TRACK 14 AUDIO TITLE "14. 風~旅立ちの詩~" ISRC JPI101301887 INDEX 00 04:00:31FILE "14. 風~旅立ちの詩~.flac" WAVE INDEX 01 00:00:00
[teatrix.ru].t10430.torrent 
Торрент: Зарегистрирован [ 2015-11-01 20:51 ] · DF47882EC10962B6DB6C3ACD21612CFD04CEBD2F

Скачать .torrent

Скачать

25 KB

Статус: проверено
Скачан: 2 раз
Размер: 580 MB
terms.php



Быстрый ответ

Имя:

      
Для отправки сообщений необходимо включить JavaScript
Показать сообщения:    

Текущее время: 04-Дек 02:56

Часовой пояс: UTC + 3


Вы можете начинать темы
Вы можете отвечать на сообщения
Вы не можете редактировать свои сообщения
Вы не можете удалять свои сообщения
Вы не можете голосовать в опросах
Вы не можете прикреплять файлы к сообщениям
Вы можете скачивать файлы