(Score) Больница Никербокер / The Knick (Original Series Soundtrack) (by Cliff Martinez) - 2014, FLAC (tracks+.cue), lossless


Статистика раздачи [Обновить пиров]
Размер:  163 MB   |    Зарегистрирован:  1 год 1 месяц   |    Скачан:  0 раз

Полного источника не было: Никогда

 
   
 
 
 

[Цитировать]

Больница Никербокер / The Knick- Название альбома: The Knick (Original Series Soundtrack)
Жанр: Score
Композитор: Cliff Martinez
Год выпуска диска: 2014
Год выпуска фильма: 2014
Страна-производитель диска: USA
Издатель (лейбл): Milan Records
Номер по каталогу: 73138 36704-2
Аудиокодек: FLAC (*.flac)
Тип рипа: tracks+.cue
Битрейт аудио: lossless
Продолжительность: 00:51:09
Источник: what.cd
Наличие сканов в содержимом раздачи: да-Треклист:-01. Son of Placenta Previa
02. I’m in the Pink
03. Placental Repair
04. Finish Your Breakfast
05. Thus Speak Thack the Wise
06. Never Read Him
07. Aortic Aneurysm Junior
08. Goodnight Nurse Elkins
09. Drizzled Him Good
10. Not Leaving This Circus
11. Falling Off a Bicycle Plus
12. Call Me Dad
13. Fire It Up Again
14. Pretty Silver Stitches
15. Douse This
16. New Standard Hernia Procedure
17. Sail to Europe
18. Abscess
19. My Book
20. Will It Hurt

Лог создания рипа

Exact Audio Copy V1.0 beta 3 from 29. August 2011
EAC extraction logfile from 16. September 2014, 15:11
Cliff Martinez / The Knick
Used drive : HL-DT-STDVD-RAM GH22LP21 Adapter: 0 ID: 0
Read mode : SecureUtilize accurate stream : YesDefeat audio cache : YesMake use of C2 pointers : No
Read offset correction : 102Overread into Lead-In and Lead-Out : NoFill up missing offset samples with silence : YesDelete leading and trailing silent blocks : NoNull samples used in CRC calculations : YesUsed interface : Native Win32 interface for Win NT & 2000Gap handling : Appended to previous track
Used output format : User Defined EncoderSelected bitrate : 128 kBit/sQuality : HighAdd ID3 tag : NoCommand line compressor : C:\Program Files\Exact Audio Copy\Flac\flac.exeAdditional command line options : -8 -V -T "ARTIST=%artist%" -T "TITLE=%title%" -T "ALBUM=%albumtitle%" -T "DATE=%year%" -T "TRACKNUMBER=%tracknr%" -T "GENRE=%genre%" -T "PERFORMER=%albuminterpret%" -T "COMPOSER=%composer%" %haslyrics%--tag-from-file=LYRICS="%lyricsfile%"%haslyrics% -T "ALBUMARTIST=%albumartist%" -T "ALBUM ARTIST=%albumartist%" -T "DISCNUMBER=%cdnumber%" -T "TOTALDISCS=%totalcds%" -T "TOTALTRACKS=%numtracks%" -T "COMMENT=%comment%" %source% -o %dest%
TOC of the extracted CD
Track | Start | Length | Start sector | End sector --------------------------------------------------------- 1 | 0:00.00 | 2:26.74 | 0 | 11023 2 | 2:26.74 | 2:10.02 | 11024 | 20775 3 | 4:37.01 | 2:29.00 | 20776 | 31950 4 | 7:06.01 | 1:59.08 | 31951 | 40883 5 | 9:05.09 | 1:24.02 | 40884 | 47185 6 | 10:29.11 | 2:10.02 | 47186 | 56937 7 | 12:39.13 | 3:57.15 | 56938 | 74727 8 | 16:36.28 | 3:21.41 | 74728 | 89843 9 | 19:57.69 | 1:40.38 | 89844 | 97381 10 | 21:38.32 | 2:15.62 | 97382 | 107568 11 | 23:54.19 | 3:36.74 | 107569 | 123842 12 | 27:31.18 | 3:23.14 | 123843 | 139081 13 | 30:54.32 | 2:21.65 | 139082 | 149721 14 | 33:16.22 | 2:25.25 | 149722 | 160621 15 | 35:41.47 | 1:27.53 | 160622 | 167199 16 | 37:09.25 | 2:15.28 | 167200 | 177352 17 | 39:24.53 | 2:08.39 | 177353 | 186991 18 | 41:33.17 | 2:34.07 | 186992 | 198548 19 | 44:07.24 | 3:16.17 | 198549 | 213265 20 | 47:23.41 | 3:44.71 | 213266 | 230136
Track 1
Filename H:\Music04_moviez\K\Knick, The (2014, FLAC) - Cliff Martinez\01 - Son of Placenta Previa.wav
Pre-gap length 0:00:02.00
Peak level 88.1 % Extraction speed 1.4 X Track quality 100.0 % Test CRC 58493FFF Copy CRC 58493FFF Track not present in AccurateRip database Copy OK
Track 2
Filename H:\Music04_moviez\K\Knick, The (2014, FLAC) - Cliff Martinez\02 - I’m in the Pink.wav
Peak level 92.2 % Extraction speed 1.5 X Track quality 100.0 % Test CRC 83A9B798 Copy CRC 83A9B798 Track not present in AccurateRip database Copy OK
Track 3
Filename H:\Music04_moviez\K\Knick, The (2014, FLAC) - Cliff Martinez\03 - Placental Repair.wav
Peak level 98.8 % Extraction speed 1.6 X Track quality 100.0 % Test CRC E645285B Copy CRC E645285B Track not present in AccurateRip database Copy OK
Track 4
Filename H:\Music04_moviez\K\Knick, The (2014, FLAC) - Cliff Martinez\04 - Finish Your Breakfast.wav
Peak level 79.5 % Extraction speed 1.6 X Track quality 100.0 % Test CRC 705F4B7D Copy CRC 705F4B7D Track not present in AccurateRip database Copy OK
Track 5
Filename H:\Music04_moviez\K\Knick, The (2014, FLAC) - Cliff Martinez\05 - Thus Speak Thack the Wise.wav
Peak level 60.1 % Extraction speed 1.5 X Track quality 100.0 % Test CRC E2A6736C Copy CRC E2A6736C Track not present in AccurateRip database Copy OK
Track 6
Filename H:\Music04_moviez\K\Knick, The (2014, FLAC) - Cliff Martinez\06 - Never Read Him.wav
Peak level 27.3 % Extraction speed 1.8 X Track quality 100.0 % Test CRC B95EBE41 Copy CRC B95EBE41 Track not present in AccurateRip database Copy OK
Track 7
Filename H:\Music04_moviez\K\Knick, The (2014, FLAC) - Cliff Martinez\07 - Aortic Aneurysm Junior.wav
Peak level 100.0 % Extraction speed 2.1 X Track quality 100.0 % Test CRC 20E52EC7 Copy CRC 20E52EC7 Track not present in AccurateRip database Copy OK
Track 8
Filename H:\Music04_moviez\K\Knick, The (2014, FLAC) - Cliff Martinez\08 - Goodnight Nurse Elkins.wav
Peak level 86.6 % Extraction speed 2.1 X Track quality 100.0 % Test CRC 00A7BFB9 Copy CRC 00A7BFB9 Track not present in AccurateRip database Copy OK
Track 9
Filename H:\Music04_moviez\K\Knick, The (2014, FLAC) - Cliff Martinez\09 - Drizzled Him Good.wav
Peak level 98.8 % Extraction speed 1.9 X Track quality 100.0 % Test CRC 41A4F562 Copy CRC 41A4F562 Track not present in AccurateRip database Copy OK
Track 10
Filename H:\Music04_moviez\K\Knick, The (2014, FLAC) - Cliff Martinez\10 - Not Leaving This Circus.wav
Peak level 79.0 % Extraction speed 2.1 X Track quality 100.0 % Test CRC 4BCF14AE Copy CRC 4BCF14AE Track not present in AccurateRip database Copy OK
Track 11
Filename H:\Music04_moviez\K\Knick, The (2014, FLAC) - Cliff Martinez\11 - Falling Off a Bicycle Plus.wav
Peak level 69.4 % Extraction speed 2.4 X Track quality 100.0 % Test CRC 3CD0CF0C Copy CRC 3CD0CF0C Track not present in AccurateRip database Copy OK
Track 12
Filename H:\Music04_moviez\K\Knick, The (2014, FLAC) - Cliff Martinez\12 - Call Me Dad.wav
Peak level 98.8 % Extraction speed 2.1 X Track quality 99.9 % Test CRC E3515F45 Copy CRC E3515F45 Track not present in AccurateRip database Copy OK
Track 13
Filename H:\Music04_moviez\K\Knick, The (2014, FLAC) - Cliff Martinez\13 - Fire It Up Again.wav
Peak level 88.1 % Extraction speed 2.3 X Track quality 100.0 % Test CRC 0D10EFD5 Copy CRC 0D10EFD5 Track not present in AccurateRip database Copy OK
Track 14
Filename H:\Music04_moviez\K\Knick, The (2014, FLAC) - Cliff Martinez\14 - Pretty Silver Stitches.wav
Peak level 82.7 % Extraction speed 2.4 X Track quality 100.0 % Test CRC 626F7018 Copy CRC 626F7018 Track not present in AccurateRip database Copy OK
Track 15
Filename H:\Music04_moviez\K\Knick, The (2014, FLAC) - Cliff Martinez\15 - Douse This.wav
Peak level 71.9 % Extraction speed 2.2 X Track quality 100.0 % Test CRC 90E02025 Copy CRC 90E02025 Track not present in AccurateRip database Copy OK
Track 16
Filename H:\Music04_moviez\K\Knick, The (2014, FLAC) - Cliff Martinez\16 - New Standard Hernia Procedure.wav
Peak level 98.8 % Extraction speed 2.4 X Track quality 100.0 % Test CRC 22786F58 Copy CRC 22786F58 Track not present in AccurateRip database Copy OK
Track 17
Filename H:\Music04_moviez\K\Knick, The (2014, FLAC) - Cliff Martinez\17 - Sail to Europe.wav
Peak level 87.2 % Extraction speed 2.5 X Track quality 100.0 % Test CRC 6E0B8096 Copy CRC 6E0B8096 Track not present in AccurateRip database Copy OK
Track 18
Filename H:\Music04_moviez\K\Knick, The (2014, FLAC) - Cliff Martinez\18 - Abscess.wav
Peak level 77.1 % Extraction speed 2.6 X Track quality 100.0 % Test CRC A5D4307B Copy CRC A5D4307B Track not present in AccurateRip database Copy OK
Track 19
Filename H:\Music04_moviez\K\Knick, The (2014, FLAC) - Cliff Martinez\19 - My Book.wav
Peak level 68.1 % Extraction speed 2.4 X Track quality 99.9 % Test CRC 20D78993 Copy CRC 20D78993 Track not present in AccurateRip database Copy OK
Track 20
Filename H:\Music04_moviez\K\Knick, The (2014, FLAC) - Cliff Martinez\20 - Will It Hurt.wav
Peak level 98.8 % Extraction speed 2.9 X Track quality 100.0 % Test CRC 2C843563 Copy CRC 2C843563 Track not present in AccurateRip database Copy OK
None of the tracks are present in the AccurateRip database
No errors occurred
End of status report
---- CUETools DB Plugin V2.1.3
[CTDB TOCID: KUzsKVDRE2hwSIn2AZZNbRoJLiI-] disk not present in database, Submit result: KUzsKVDRE2hwSIn2AZZNbRoJLiI- has been uploaded
==== Log checksum 95161C7CCC8AE02FF11F4E776B431955DDD85C23527BFDEBFCC0D1C9F8B58A6E ====

Содержание индексной карты (.CUE)

REM GENRE SoundtrackREM DATE 2014REM DISCID 350BFC14REM COMMENT "ExactAudioCopy v1.0b3"PERFORMER "Cliff Martinez"TITLE "The Knick"FILE "01 - Son of Placenta Previa.wav" WAVE TRACK 01 AUDIO TITLE "Son of Placenta Previa" PERFORMER "Cliff Martinez" INDEX 01 00:00:00FILE "02 - I’m in the Pink.wav" WAVE TRACK 02 AUDIO TITLE "I’m in the Pink" PERFORMER "Cliff Martinez" INDEX 01 00:00:00FILE "03 - Placental Repair.wav" WAVE TRACK 03 AUDIO TITLE "Placental Repair" PERFORMER "Cliff Martinez" INDEX 01 00:00:00FILE "04 - Finish Your Breakfast.wav" WAVE TRACK 04 AUDIO TITLE "Finish Your Breakfast" PERFORMER "Cliff Martinez" INDEX 01 00:00:00FILE "05 - Thus Speak Thack the Wise.wav" WAVE TRACK 05 AUDIO TITLE "Thus Speak Thack the Wise" PERFORMER "Cliff Martinez" INDEX 01 00:00:00FILE "06 - Never Read Him.wav" WAVE TRACK 06 AUDIO TITLE "Never Read Him" PERFORMER "Cliff Martinez" INDEX 01 00:00:00FILE "07 - Aortic Aneurysm Junior.wav" WAVE TRACK 07 AUDIO TITLE "Aortic Aneurysm Junior" PERFORMER "Cliff Martinez" INDEX 01 00:00:00FILE "08 - Goodnight Nurse Elkins.wav" WAVE TRACK 08 AUDIO TITLE "Goodnight Nurse Elkins" PERFORMER "Cliff Martinez" INDEX 01 00:00:00FILE "09 - Drizzled Him Good.wav" WAVE TRACK 09 AUDIO TITLE "Drizzled Him Good" PERFORMER "Cliff Martinez" INDEX 01 00:00:00FILE "10 - Not Leaving This Circus.wav" WAVE TRACK 10 AUDIO TITLE "Not Leaving This Circus" PERFORMER "Cliff Martinez" INDEX 01 00:00:00FILE "11 - Falling Off a Bicycle Plus.wav" WAVE TRACK 11 AUDIO TITLE "Falling Off a Bicycle Plus" PERFORMER "Cliff Martinez" INDEX 01 00:00:00FILE "12 - Call Me Dad.wav" WAVE TRACK 12 AUDIO TITLE "Call Me Dad" PERFORMER "Cliff Martinez" INDEX 01 00:00:00FILE "13 - Fire It Up Again.wav" WAVE TRACK 13 AUDIO TITLE "Fire It Up Again" PERFORMER "Cliff Martinez" INDEX 01 00:00:00FILE "14 - Pretty Silver Stitches.wav" WAVE TRACK 14 AUDIO TITLE "Pretty Silver Stitches" PERFORMER "Cliff Martinez" INDEX 01 00:00:00FILE "15 - Douse This.wav" WAVE TRACK 15 AUDIO TITLE "Douse This" PERFORMER "Cliff Martinez" INDEX 01 00:00:00FILE "16 - New Standard Hernia Procedure.wav" WAVE TRACK 16 AUDIO TITLE "New Standard Hernia Procedure" PERFORMER "Cliff Martinez" INDEX 01 00:00:00FILE "17 - Sail to Europe.wav" WAVE TRACK 17 AUDIO TITLE "Sail to Europe" PERFORMER "Cliff Martinez" INDEX 01 00:00:00FILE "18 - Abscess.wav" WAVE TRACK 18 AUDIO TITLE "Abscess" PERFORMER "Cliff Martinez" INDEX 01 00:00:00FILE "19 - My Book.wav" WAVE TRACK 19 AUDIO TITLE "My Book" PERFORMER "Cliff Martinez" INDEX 01 00:00:00FILE "20 - Will It Hurt.wav" WAVE TRACK 20 AUDIO TITLE "Will It Hurt" PERFORMER "Cliff Martinez" INDEX 01 00:00:00

Лог проверки качества

-----------------------
DON'T MODIFY THIS FILE
-----------------------
PERFORMER: auCDtect Task Manager, ver. 1.6.0 RC1 build 1.6.0.1Copyright (c) 2008-2010 y-soft. All rights reservedhttp://y-soft.org
ANALYZER: auCDtect: CD records authenticity detector, version 0.8.2Copyright (c) 2004 Oleg Berngardt. All rights reserved.Copyright (c) 2004 Alexander Djourik. All rights reserved.
FILE: 20 - Will It Hurt.flac Size: 10198561 Hash: 4AD7921C92A3C8EBA1048B66FC74772D Accuracy: -m0 Conclusion: CDDA 100% Signature: 8C4BCB56933C4841DB8012151A3E727B8863987EFILE: 19 - My Book.flac Size: 9789871 Hash: E1BFCFDED720E187F6507347738A893D Accuracy: -m0 Conclusion: CDDA 99% Signature: 661D417D8929BA5B697F9E232C036394A5B7C6DDFILE: 18 - Abscess.flac Size: 6859671 Hash: A506E691779D9B7250DC2E7CCC46A32E Accuracy: -m0 Conclusion: CDDA 100% Signature: 7497575E337A4A55CCB80E5881BC35D6BB83456CFILE: 17 - Sail to Europe.flac Size: 7139065 Hash: 7A9A94AF0CD1424AF2349990D27B2ADD Accuracy: -m0 Conclusion: CDDA 99% Signature: 8510B78A37B89D04A3D830ED0D1550ECC1E1A023FILE: 16 - New Standard Hernia Procedure.flac Size: 7212234 Hash: 7C95A21807F34879D63B479B5A1ECF2F Accuracy: -m0 Conclusion: CDDA 100% Signature: 7A590A017E0DE98B98DADB6E015DEE6867D04C62FILE: 15 - Douse This.flac Size: 4173437 Hash: 729E95807EBFCF7FC6E8DAF6804CDB53 Accuracy: -m0 Conclusion: CDDA 100% Signature: 35CA0AC2B4B369F91E247B6BE6BB848DA89F596CFILE: 14 - Pretty Silver Stitches.flac Size: 6691880 Hash: 2E30FEB576A956AC52BAE49F57D559DE Accuracy: -m0 Conclusion: CDDA 100% Signature: 62EBD29156B0C7C4D802E727A7B95A7A3E28858AFILE: 13 - Fire It Up Again.flac Size: 7861135 Hash: AAA38CA8DB1D1AA58C00A4B6BB4EEB43 Accuracy: -m0 Conclusion: CDDA 100% Signature: C022CB7489029B2378A51D4489844A19CF903443FILE: 12 - Call Me Dad.flac Size: 9242213 Hash: 957EE35A1993E0C8958CAEB0AB9E387C Accuracy: -m0 Conclusion: CDDA 94% Signature: F0B9DE5507AFBC90B2340C00FC4D0962C27BE2F7FILE: 11 - Falling Off a Bicycle Plus.flac Size: 10899291 Hash: 206F8F96D3DB13C83F474B60EB037DCB Accuracy: -m0 Conclusion: CDDA 100% Signature: 7FC462152457AE525194B15415C40D0F9592F230FILE: 10 - Not Leaving This Circus.flac Size: 6032487 Hash: E452506331341FC2B144F7DA3E190096 Accuracy: -m0 Conclusion: CDDA 100% Signature: FE3EE47CD5EBDDBAC9F87A89E25683B6425024DEFILE: 09 - Drizzled Him Good.flac Size: 4464108 Hash: EB770F1343EF4DA18ED499D8CEAAE07D Accuracy: -m0 Conclusion: CDDA 99% Signature: 330D3FD2F08ABC1F77CB357F745356E83B4DC046FILE: 08 - Goodnight Nurse Elkins.flac Size: 9418907 Hash: C26648C3A3349744C6AB83AE62708D52 Accuracy: -m0 Conclusion: CDDA 100% Signature: 68428B24D9E9BB1369BA46AAA204CB93250D5640FILE: 07 - Aortic Aneurysm Junior.flac Size: 13116815 Hash: 822B05140D8668660259D88678C889CA Accuracy: -m0 Conclusion: CDDA 86% Signature: 66F2762E06C327C67FBB976B0969A67CEB74BBD2FILE: 06 - Never Read Him.flac Size: 4751400 Hash: EA507175A9553989A63C814BB0DA18CC Accuracy: -m0 Conclusion: CDDA 100% Signature: AE4D9E3FBB2540B018B7A314872802ECFA3F0196FILE: 05 - Thus Speak Thack the Wise.flac Size: 4287824 Hash: E06120E55C477701E679503A5B37B65D Accuracy: -m0 Conclusion: CDDA 100% Signature: 8FDCF93FCD0887A24E53ED0ABA89337D5AC3DA39FILE: 04 - Finish Your Breakfast.flac Size: 5766666 Hash: C7AC9800D56F6157C63D0BB3BF1C4AB3 Accuracy: -m0 Conclusion: CDDA 100% Signature: 83C8F2A2AC3C0524C3E5D93DD99E722423D57D71FILE: 03 - Placental Repair.flac Size: 6233189 Hash: 5930159A50EC11B28052D13EE121A616 Accuracy: -m0 Conclusion: CDDA 43% Signature: D28AFC395F459B6A43515407FA726271D7A77E7DFILE: 02 - I’m in the Pink.flac Size: 6286391 Hash: BD20EC009102025ECB7843D79BAA1AB2 Accuracy: -m0 Conclusion: CDDA 85% Signature: CBF8D053DD726142A54DFE116BF795B97B0D7816FILE: 01 - Son of Placenta Previa.flac Size: 6957210 Hash: FDAF122EB189C00293158F5AAD928413 Accuracy: -m0 Conclusion: CDDA 100% Signature: 5643760A2FEF71D9378FDD65D74EB83CC678356D
[teatrix.ru].t10431.torrent 
Торрент: Зарегистрирован [ 2015-11-01 20:51 ] · E06765D8310AE7BB878D0DB7CF625D9BE5C7D46B

Скачать .torrent

Скачать

15 KB

Статус: проверено
Скачан: 0 раз
Размер: 163 MB
terms.php



Быстрый ответ

Имя:

      
Для отправки сообщений необходимо включить JavaScript
Показать сообщения:    

Текущее время: 09-Дек 06:57

Часовой пояс: UTC + 3


Вы можете начинать темы
Вы можете отвечать на сообщения
Вы не можете редактировать свои сообщения
Вы не можете удалять свои сообщения
Вы не можете голосовать в опросах
Вы не можете прикреплять файлы к сообщениям
Вы можете скачивать файлы