(Score) Стартрек: Возмездие / Star Trek: Into Darkness [Deluxe Edition] (by Michael Giacchino) - 2014 (2013), FLAC (tracks+.cue), lossless


Статистика раздачи [Обновить пиров]
Размер:  596 MB   |    Зарегистрирован:  1 год 1 месяц   |    Скачан:  0 раз

Полного источника не было: Никогда

 
   
 
 
 

[Цитировать]

-
-
- Жанр: Score
Композитор: Michael Giacchino
Год выпуска диска: 2014
Год выпуска фильма: 2013
Страна-производитель диска: US
Издатель (лейбл): Varèse Sarabande
Номер по каталогу: VCL 0714 1150
Аудиокодек: FLAC (*.flac)
Тип рипа: tracks+.cue
Битрейт аудио: lossless
Источник: what.cd

ТреклистCD1

01. Logos / Pranking The Natives (2:59)
02. Spock Drops, Kirk Jumps (1:43)
03. Undersea Enterprises Inc. (1:33)
04. On The Bridge And On The Rocks (1:42)
05. Sub Prime Directive (2:24)
06. London Calling (2:11)
07. Demotion Emotion (0:54)
08. London Falling (2:33)
09. The Pride Of Iowa (0:43)
10. Astronomical Manhunt (2:12)
11. Man Vs Blaster (1:56)
13. Admiral Exposition (3:24)
14. Personal Space (0:45)
15. So Long Scotty (0:58)
16. Chief Concern / The Moral Mission (2:15)
17. Covert Carol (0:38)
18. Galactic Road Trip (1:17)
19. Torpedo Diplomacy (2:19)
20. Spock and Uhura (1:06)
21. Klingon Chase / Meeting (5:04)
22. Harrison Attack (2:46)
23. Harrison Brought Onboard (2:00)
24. Harjugal Visit (2:05)
25. Damage Control (1:18)
26. Scotty's Floored (1:37)
27. Torpedo Tango (1:08)
28. Cryo Your Heart Out (0:17)
29. Harrison's Heart / Enter The Vengeance (3:44)
30. Mom's Calling (2:19)
31. You're Not Safe At Warp (0:36)
Продолжительность: 56:27

CD2

01. Kirk’s Last Stand (2:24)
02. Guns Down (1:07)
03. Chair of Command (0:57)
04. You Wanna Do What? (1:58)
05. Pull the Trigger (0:27)
06. Ship to Ship (2:52)
07. Hallway Fight (1:33)
08. Head Games (1:48)
09. I’m Gonna Make this Simple (2:48)
10. Human Popsicles (1:19)
11. Earthbound and Down (4:19)
12. Warp Core Values (2:57)
13. Max Thrusters (0:57)
14. Buying the Space Farm (3:20)
15. Go Get ’Em (1:14)
16. The San Fran Hustle (5:05)
17. Kirk Enterprises (2:58)
18. End Credits (8:43)
19. Ode to Harrison (6:36)
20. Ode to Vengeance (6:29)
Продолжительность: 59:51

ЛогиCD1

Exact Audio Copy V1.0 beta 3 from 29. August 2011
EAC extraction logfile from 6. September 2014, 19:15
Michael Giacchino / Star Trek Into Darkness [The Deluxe Edition] (Disc 1)
Used drive : ATAPI iHAS324 B Adapter: 3 ID: 0
Read mode : SecureUtilize accurate stream : YesDefeat audio cache : YesMake use of C2 pointers : No
Read offset correction : 6Overread into Lead-In and Lead-Out : NoFill up missing offset samples with silence : YesDelete leading and trailing silent blocks : NoNull samples used in CRC calculations : YesUsed interface : Native Win32 interface for Win NT & 2000Gap handling : Appended to previous track
Used output format : User Defined EncoderSelected bitrate : 1024 kBit/sQuality : HighAdd ID3 tag : NoCommand line compressor : C:\Program Files (x86)\Exact Audio Copy\Flac\flac.exeAdditional command line options : -8 -V -T "ARTIST=%artist%" -T "TITLE=%title%" -T "ALBUM=%albumtitle%" -T "DATE=%year%" -T "TRACKNUMBER=%tracknr%" -T "GENRE=%genre%" -T "PERFORMER=%albuminterpret%" -T "COMPOSER=%composer%" %haslyrics%--tag-from-file=LYRICS="%lyricsfile%"%haslyrics% -T "ALBUMARTIST=%albumartist%" -T "DISCNUMBER=%cdnumber%" -T "TOTALDISCS=%totalcds%" -T "TOTALTRACKS=%numtracks%" -T "COMMENT=%comment%" %source% -o %dest%
TOC of the extracted CD
Track | Start | Length | Start sector | End sector --------------------------------------------------------- 1 | 0:00.00 | 2:58.51 | 0 | 13400 2 | 2:58.51 | 1:43.36 | 13401 | 21161 3 | 4:42.12 | 1:33.30 | 21162 | 28166 4 | 6:15.42 | 1:42.16 | 28167 | 35832 5 | 7:57.58 | 2:23.57 | 35833 | 46614 6 | 10:21.40 | 2:11.22 | 46615 | 56461 7 | 12:32.62 | 0:53.55 | 56462 | 60491 8 | 13:26.42 | 2:33.26 | 60492 | 71992 9 | 15:59.68 | 0:43.20 | 71993 | 75237 10 | 16:43.13 | 2:12.07 | 75238 | 85144 11 | 18:55.20 | 1:55.43 | 85145 | 93812 12 | 20:50.63 | 2:41.30 | 93813 | 105917 13 | 23:32.18 | 3:23.60 | 105918 | 121202 14 | 26:56.03 | 0:45.32 | 121203 | 124609 15 | 27:41.35 | 0:57.46 | 124610 | 128930 16 | 28:39.06 | 2:15.00 | 128931 | 139055 17 | 30:54.06 | 0:38.30 | 139056 | 141935 18 | 31:32.36 | 1:16.39 | 141936 | 147674 19 | 32:49.00 | 2:19.01 | 147675 | 158100 20 | 35:08.01 | 1:05.45 | 158101 | 163020 21 | 36:13.46 | 5:03.44 | 163021 | 185789 22 | 41:17.15 | 2:46.21 | 185790 | 198260 23 | 44:03.36 | 2:00.28 | 198261 | 207288 24 | 46:03.64 | 2:04.64 | 207289 | 216652 25 | 48:08.53 | 1:18.08 | 216653 | 222510 26 | 49:26.61 | 1:36.41 | 222511 | 229751 27 | 51:03.27 | 1:08.27 | 229752 | 234878 28 | 52:11.54 | 0:17.35 | 234879 | 236188 29 | 52:29.14 | 3:44.15 | 236189 | 253003 30 | 56:13.29 | 2:19.28 | 253004 | 263456 31 | 58:32.57 | 0:35.54 | 263457 | 266135
Track 1
Filename D:\Downloads\Torrents\Star Trek Into Darkness - Deluxe Edition\Disc 1\01 - Logos , Pranking The Natives.wav
Pre-gap length 0:00:02.00
Peak level 98.7 % Extraction speed 3.3 X Track quality 100.0 % Test CRC 84D7EABC Copy CRC 84D7EABC Accurately ripped (confidence 1) [360FC2D7] (AR v2) Copy OK
Track 2
Filename D:\Downloads\Torrents\Star Trek Into Darkness - Deluxe Edition\Disc 1\02 - Spock Drops, Kirk Jumps.wav
Peak level 98.7 % Extraction speed 3.1 X Track quality 100.0 % Test CRC 00B72041 Copy CRC 00B72041 Accurately ripped (confidence 1) [878F9317] (AR v2) Copy OK
Track 3
Filename D:\Downloads\Torrents\Star Trek Into Darkness - Deluxe Edition\Disc 1\03 - Undersea Enterprises Inc..wav
Peak level 98.7 % Extraction speed 3.1 X Track quality 100.0 % Test CRC F14576DF Copy CRC F14576DF Accurately ripped (confidence 1) [E2538AC4] (AR v2) Copy OK
Track 4
Filename D:\Downloads\Torrents\Star Trek Into Darkness - Deluxe Edition\Disc 1\04 - On The Bridge And On The Rocks.wav
Peak level 98.7 % Extraction speed 2.2 X Track quality 99.8 % Test CRC D89FD263 Copy CRC D89FD263 Accurately ripped (confidence 1) [98F0AE4A] (AR v2) Copy OK
Track 5
Filename D:\Downloads\Torrents\Star Trek Into Darkness - Deluxe Edition\Disc 1\05 - Sub Prime Directive.wav
Peak level 98.7 % Extraction speed 2.8 X Track quality 99.9 % Test CRC 56543BC7 Copy CRC 56543BC7 Accurately ripped (confidence 1) [707A723C] (AR v2) Copy OK
Track 6
Filename D:\Downloads\Torrents\Star Trek Into Darkness - Deluxe Edition\Disc 1\06 - London Calling.wav
Peak level 96.9 % Extraction speed 3.9 X Track quality 100.0 % Test CRC 0DC4084A Copy CRC 0DC4084A Accurately ripped (confidence 1) [6B1F125B] (AR v2) Copy OK
Track 7
Filename D:\Downloads\Torrents\Star Trek Into Darkness - Deluxe Edition\Disc 1\07 - Demotion Emotion.wav
Peak level 54.5 % Extraction speed 1.7 X Track quality 99.8 % Test CRC EE2E52D7 Copy CRC EE2E52D7 Accurately ripped (confidence 1) [27067346] (AR v2) Copy OK
Track 8
Filename D:\Downloads\Torrents\Star Trek Into Darkness - Deluxe Edition\Disc 1\08 - London Falling.wav
Peak level 98.7 % Extraction speed 3.1 X Track quality 99.9 % Test CRC 1B5B5FBC Copy CRC 1B5B5FBC Accurately ripped (confidence 1) [5223C88A] (AR v2) Copy OK
Track 9
Filename D:\Downloads\Torrents\Star Trek Into Darkness - Deluxe Edition\Disc 1\09 - The Pride Of Iowa.wav
Peak level 98.7 % Extraction speed 2.9 X Track quality 100.0 % Test CRC F895AEBB Copy CRC F895AEBB Accurately ripped (confidence 1) [463ED0B5] (AR v2) Copy OK
Track 10
Filename D:\Downloads\Torrents\Star Trek Into Darkness - Deluxe Edition\Disc 1\10 - Astronomical Manhunt.wav
Peak level 98.6 % Extraction speed 4.3 X Track quality 100.0 % Test CRC 46B1100C Copy CRC 46B1100C Accurately ripped (confidence 1) [F675D698] (AR v2) Copy OK
Track 11
Filename D:\Downloads\Torrents\Star Trek Into Darkness - Deluxe Edition\Disc 1\11 - Man Vs Blaster.wav
Peak level 97.0 % Extraction speed 4.3 X Track quality 100.0 % Test CRC 0BA553C3 Copy CRC 0BA553C3 Accurately ripped (confidence 1) [9E3E2A3A] (AR v2) Copy OK
Track 12
Filename D:\Downloads\Torrents\Star Trek Into Darkness - Deluxe Edition\Disc 1\12 - Meld‐Merized.wav
Peak level 96.9 % Extraction speed 4.8 X Track quality 100.0 % Test CRC 4622CDC5 Copy CRC 4622CDC5 Accurately ripped (confidence 1) [EB3334C6] (AR v2) Copy OK
Track 13
Filename D:\Downloads\Torrents\Star Trek Into Darkness - Deluxe Edition\Disc 1\13 - Admiral Exposition.wav
Peak level 98.7 % Extraction speed 5.2 X Track quality 100.0 % Test CRC 80EF520C Copy CRC 80EF520C Accurately ripped (confidence 1) [AB36F038] (AR v2) Copy OK
Track 14
Filename D:\Downloads\Torrents\Star Trek Into Darkness - Deluxe Edition\Disc 1\14 - Personal Space.wav
Peak level 98.7 % Extraction speed 3.4 X Track quality 100.0 % Test CRC B855A80B Copy CRC B855A80B Accurately ripped (confidence 1) [8A71A901] (AR v2) Copy OK
Track 15
Filename D:\Downloads\Torrents\Star Trek Into Darkness - Deluxe Edition\Disc 1\15 - So Long Scotty.wav
Peak level 25.2 % Extraction speed 3.8 X Track quality 100.0 % Test CRC 02C1D1F4 Copy CRC 02C1D1F4 Accurately ripped (confidence 1) [6A4EF251] (AR v2) Copy OK
Track 16
Filename D:\Downloads\Torrents\Star Trek Into Darkness - Deluxe Edition\Disc 1\16 - Chief Concern , The Moral Mission.wav
Peak level 98.6 % Extraction speed 5.1 X Track quality 100.0 % Test CRC CB0F7DBA Copy CRC CB0F7DBA Accurately ripped (confidence 1) [64C5F4CD] (AR v2) Copy OK
Track 17
Filename D:\Downloads\Torrents\Star Trek Into Darkness - Deluxe Edition\Disc 1\17 - Covert Carol.wav
Peak level 56.9 % Extraction speed 3.3 X Track quality 100.0 % Test CRC F9DF2417 Copy CRC F9DF2417 Accurately ripped (confidence 1) [4C9FFC81] (AR v2) Copy OK
Track 18
Filename D:\Downloads\Torrents\Star Trek Into Darkness - Deluxe Edition\Disc 1\18 - Galactic Road Trip.wav
Peak level 98.7 % Extraction speed 4.4 X Track quality 100.0 % Test CRC 0D9126D5 Copy CRC 0D9126D5 Accurately ripped (confidence 1) [2885D46D] (AR v2) Copy OK
Track 19
Filename D:\Downloads\Torrents\Star Trek Into Darkness - Deluxe Edition\Disc 1\19 - Torpedo Diplomacy.wav
Peak level 98.7 % Extraction speed 5.3 X Track quality 100.0 % Test CRC 878E95E4 Copy CRC 878E95E4 Accurately ripped (confidence 1) [E79A8414] (AR v2) Copy OK
Track 20
Filename D:\Downloads\Torrents\Star Trek Into Darkness - Deluxe Edition\Disc 1\20 - Spock and Uhura.wav
Peak level 39.3 % Extraction speed 4.4 X Track quality 100.0 % Test CRC 749231E1 Copy CRC 749231E1 Accurately ripped (confidence 1) [E44D35E0] (AR v2) Copy OK
Track 21
Filename D:\Downloads\Torrents\Star Trek Into Darkness - Deluxe Edition\Disc 1\21 - Klingon Chase , Meeting.wav
Peak level 98.7 % Extraction speed 6.4 X Track quality 100.0 % Test CRC 6CE04E4C Copy CRC 6CE04E4C Accurately ripped (confidence 1) [0E06B5F6] (AR v2) Copy OK
Track 22
Filename D:\Downloads\Torrents\Star Trek Into Darkness - Deluxe Edition\Disc 1\22 - Harrison Attack.wav
Peak level 98.7 % Extraction speed 6.0 X Track quality 100.0 % Test CRC 9B94B48F Copy CRC 9B94B48F Accurately ripped (confidence 1) [F70F9D45] (AR v2) Copy OK
Track 23
Filename D:\Downloads\Torrents\Star Trek Into Darkness - Deluxe Edition\Disc 1\23 - Harrison Brought Onboard.wav
Peak level 98.7 % Extraction speed 5.7 X Track quality 100.0 % Test CRC F39BDE2F Copy CRC F39BDE2F Accurately ripped (confidence 1) [12EA5303] (AR v2) Copy OK
Track 24
Filename D:\Downloads\Torrents\Star Trek Into Darkness - Deluxe Edition\Disc 1\24 - Harjugal Visit.wav
Peak level 89.8 % Extraction speed 4.0 X Track quality 99.9 % Test CRC 4A3628CB Copy CRC 4A3628CB Accurately ripped (confidence 1) [B9C4099F] (AR v2) Copy OK
Track 25
Filename D:\Downloads\Torrents\Star Trek Into Darkness - Deluxe Edition\Disc 1\25 - Damage Control.wav
Peak level 76.9 % Extraction speed 5.2 X Track quality 100.0 % Test CRC 9905C624 Copy CRC 9905C624 Accurately ripped (confidence 1) [822CF4DA] (AR v2) Copy OK
Track 26
Filename D:\Downloads\Torrents\Star Trek Into Darkness - Deluxe Edition\Disc 1\26 - Scotty's Floored.wav
Peak level 98.7 % Extraction speed 5.6 X Track quality 100.0 % Test CRC 9323A511 Copy CRC 9323A511 Accurately ripped (confidence 1) [E03A3FAA] (AR v2) Copy OK
Track 27
Filename D:\Downloads\Torrents\Star Trek Into Darkness - Deluxe Edition\Disc 1\27 - Torpedo Tango.wav
Peak level 98.7 % Extraction speed 3.0 X Track quality 99.8 % Test CRC 85AFC91E Copy CRC 85AFC91E Accurately ripped (confidence 1) [E943CB43] (AR v2) Copy OK
Track 28
Filename D:\Downloads\Torrents\Star Trek Into Darkness - Deluxe Edition\Disc 1\28 - Cryo Your Heart Out.wav
Peak level 28.7 % Extraction speed 2.4 X Track quality 100.0 % Test CRC 7CC16A59 Copy CRC 7CC16A59 Accurately ripped (confidence 1) [38895C8C] (AR v2) Copy OK
Track 29
Filename D:\Downloads\Torrents\Star Trek Into Darkness - Deluxe Edition\Disc 1\29 - Harrison's Heart , Enter The Vengeance.wav
Peak level 98.7 % Extraction speed 6.9 X Track quality 100.0 % Test CRC 27FE7CDD Copy CRC 27FE7CDD Accurately ripped (confidence 1) [CE9EA28E] (AR v2) Copy OK
Track 30
Filename D:\Downloads\Torrents\Star Trek Into Darkness - Deluxe Edition\Disc 1\30 - Mom's Calling.wav
Peak level 98.7 % Extraction speed 6.5 X Track quality 100.0 % Test CRC 1EEE1E4D Copy CRC 1EEE1E4D Accurately ripped (confidence 1) [D30ED359] (AR v2) Copy OK
Track 31
Filename D:\Downloads\Torrents\Star Trek Into Darkness - Deluxe Edition\Disc 1\31 - You're Not Safe At Warp.wav
Peak level 98.7 % Extraction speed 3.9 X Track quality 100.0 % Test CRC 01512EC3 Copy CRC 01512EC3 Accurately ripped (confidence 1) [E541CD37] (AR v2) Copy OK
All tracks accurately ripped
No errors occurred
End of status report
---- CUETools DB Plugin V2.1.3
[CTDB TOCID: rTFGXZoWRYPA0ECZopR4SUVfnLw-] found, Submit result: already submitted[88d1841a] (6/6) Accurately ripped
==== Log checksum 9576BCC162123C98BF939FF52AFC49CFA6177E50B183321A8D2F088BAEC4D9D2 ====

CD2

Exact Audio Copy V1.0 beta 3 from 29. August 2011
EAC extraction logfile from 6. September 2014, 20:56
Michael Giacchino / Star Trek Into Darkness: The Deluxe Edition
Used drive : ATAPI iHAS324 B Adapter: 3 ID: 0
Read mode : SecureUtilize accurate stream : YesDefeat audio cache : YesMake use of C2 pointers : No
Read offset correction : 6Overread into Lead-In and Lead-Out : NoFill up missing offset samples with silence : YesDelete leading and trailing silent blocks : NoNull samples used in CRC calculations : YesUsed interface : Native Win32 interface for Win NT & 2000Gap handling : Appended to previous track
Used output format : User Defined EncoderSelected bitrate : 1024 kBit/sQuality : HighAdd ID3 tag : NoCommand line compressor : C:\Program Files (x86)\Exact Audio Copy\Flac\flac.exeAdditional command line options : -8 -V -T "ARTIST=%artist%" -T "TITLE=%title%" -T "ALBUM=%albumtitle%" -T "DATE=%year%" -T "TRACKNUMBER=%tracknr%" -T "GENRE=%genre%" -T "PERFORMER=%albuminterpret%" -T "COMPOSER=%composer%" %haslyrics%--tag-from-file=LYRICS="%lyricsfile%"%haslyrics% -T "ALBUMARTIST=%albumartist%" -T "DISCNUMBER=%cdnumber%" -T "TOTALDISCS=%totalcds%" -T "TOTALTRACKS=%numtracks%" -T "COMMENT=%comment%" %source% -o %dest%
TOC of the extracted CD
Track | Start | Length | Start sector | End sector --------------------------------------------------------- 1 | 0:00.00 | 2:24.14 | 0 | 10813 2 | 2:24.14 | 1:07.24 | 10814 | 15862 3 | 3:31.38 | 0:56.53 | 15863 | 20115 4 | 4:28.16 | 1:57.66 | 20116 | 28956 5 | 6:26.07 | 0:27.19 | 28957 | 31000 6 | 6:53.26 | 2:51.61 | 31001 | 43886 7 | 9:45.12 | 1:33.14 | 43887 | 50875 8 | 11:18.26 | 1:47.67 | 50876 | 58967 9 | 13:06.18 | 2:47.58 | 58968 | 71550 10 | 15:54.01 | 1:18.69 | 71551 | 77469 11 | 17:12.70 | 4:18.68 | 77470 | 96887 12 | 21:31.63 | 2:57.15 | 96888 | 110177 13 | 24:29.03 | 0:57.07 | 110178 | 114459 14 | 25:26.10 | 3:20.15 | 114460 | 129474 15 | 28:46.25 | 1:13.44 | 129475 | 134993 16 | 29:59.69 | 5:05.04 | 134994 | 157872 17 | 35:04.73 | 2:57.43 | 157873 | 171190 18 | 38:02.41 | 8:43.09 | 171191 | 210424 19 | 46:45.50 | 6:36.20 | 210425 | 240144 20 | 53:21.70 | 6:29.28 | 240145 | 269347
Track 1
Filename D:\Downloads\Torrents\Star Trek Into Darkness - Deluxe Edition\Disc 2\01 - Kirk’s Last Stand.wav
Pre-gap length 0:00:02.00
Peak level 98.7 % Extraction speed 3.1 X Track quality 100.0 % Test CRC 1C462985 Copy CRC 1C462985 Accurately ripped (confidence 1) [B6C841E8] (AR v2) Copy OK
Track 2
Filename D:\Downloads\Torrents\Star Trek Into Darkness - Deluxe Edition\Disc 2\02 - Guns Down.wav
Peak level 97.6 % Extraction speed 2.6 X Track quality 100.0 % Test CRC 10A79DCA Copy CRC 10A79DCA Accurately ripped (confidence 1) [67C668EB] (AR v2) Copy OK
Track 3
Filename D:\Downloads\Torrents\Star Trek Into Darkness - Deluxe Edition\Disc 2\03 - Chair of Command.wav
Peak level 59.1 % Extraction speed 2.5 X Track quality 100.0 % Test CRC 9BF6559A Copy CRC 9BF6559A Accurately ripped (confidence 1) [AD7B6464] (AR v2) Copy OK
Track 4
Filename D:\Downloads\Torrents\Star Trek Into Darkness - Deluxe Edition\Disc 2\04 - You Wanna Do What.wav
Peak level 94.3 % Extraction speed 2.3 X Track quality 99.9 % Test CRC F983B868 Copy CRC F983B868 Accurately ripped (confidence 1) [7D927415] (AR v2) Copy OK
Track 5
Filename D:\Downloads\Torrents\Star Trek Into Darkness - Deluxe Edition\Disc 2\05 - Pull the Trigger.wav
Peak level 98.5 % Extraction speed 1.8 X Track quality 100.0 % Test CRC A361116F Copy CRC A361116F Accurately ripped (confidence 1) [66583F50] (AR v2) Copy OK
Track 6
Filename D:\Downloads\Torrents\Star Trek Into Darkness - Deluxe Edition\Disc 2\06 - Ship to Ship.wav
Peak level 98.7 % Extraction speed 3.9 X Track quality 100.0 % Test CRC DD63B65C Copy CRC DD63B65C Accurately ripped (confidence 1) [CB9A3432] (AR v2) Copy OK
Track 7
Filename D:\Downloads\Torrents\Star Trek Into Darkness - Deluxe Edition\Disc 2\07 - Hallway Fight.wav
Peak level 98.5 % Extraction speed 3.5 X Track quality 100.0 % Test CRC 25751117 Copy CRC 25751117 Accurately ripped (confidence 1) [614DA4F7] (AR v2) Copy OK
Track 8
Filename D:\Downloads\Torrents\Star Trek Into Darkness - Deluxe Edition\Disc 2\08 - Head Games.wav
Peak level 98.7 % Extraction speed 2.6 X Track quality 99.9 % Test CRC E8D3F7CD Copy CRC E8D3F7CD Accurately ripped (confidence 1) [703D1D3F] (AR v2) Copy OK
Track 9
Filename D:\Downloads\Torrents\Star Trek Into Darkness - Deluxe Edition\Disc 2\09 - I’m Gonna Make this Simple.wav
Peak level 98.7 % Extraction speed 4.3 X Track quality 100.0 % Test CRC E08CD253 Copy CRC E08CD253 Accurately ripped (confidence 1) [6EA4953B] (AR v2) Copy OK
Track 10
Filename D:\Downloads\Torrents\Star Trek Into Darkness - Deluxe Edition\Disc 2\10 - Human Popsicles.wav
Peak level 98.7 % Extraction speed 3.7 X Track quality 100.0 % Test CRC A9A71444 Copy CRC A9A71444 Accurately ripped (confidence 1) [11E3C3B6] (AR v2) Copy OK
Track 11
Filename D:\Downloads\Torrents\Star Trek Into Darkness - Deluxe Edition\Disc 2\11 - Earthbound and Down.wav
Peak level 100.0 % Extraction speed 5.0 X Track quality 100.0 % Test CRC 6C4CB40D Copy CRC 6C4CB40D Accurately ripped (confidence 1) [2F9538E1] (AR v2) Copy OK
Track 12
Filename D:\Downloads\Torrents\Star Trek Into Darkness - Deluxe Edition\Disc 2\12 - Warp Core Values.wav
Peak level 98.7 % Extraction speed 4.9 X Track quality 100.0 % Test CRC 70D2F777 Copy CRC 70D2F777 Accurately ripped (confidence 1) [2D91A822] (AR v2) Copy OK
Track 13
Filename D:\Downloads\Torrents\Star Trek Into Darkness - Deluxe Edition\Disc 2\13 - Max Thrusters.wav
Peak level 98.6 % Extraction speed 2.1 X Track quality 99.8 % Test CRC 78CCD39E Copy CRC 78CCD39E Accurately ripped (confidence 1) [8984F9A3] (AR v2) Copy OK
Track 14
Filename D:\Downloads\Torrents\Star Trek Into Darkness - Deluxe Edition\Disc 2\14 - Buying the Space Farm.wav
Peak level 97.0 % Extraction speed 4.1 X Track quality 99.9 % Test CRC 89B6CD51 Copy CRC 89B6CD51 Accurately ripped (confidence 1) [56236255] (AR v2) Copy OK
Track 15
Filename D:\Downloads\Torrents\Star Trek Into Darkness - Deluxe Edition\Disc 2\15 - Go Get ’Em.wav
Peak level 98.7 % Extraction speed 4.2 X Track quality 100.0 % Test CRC 527ABB8F Copy CRC 527ABB8F Accurately ripped (confidence 1) [63B793C1] (AR v2) Copy OK
Track 16
Filename D:\Downloads\Torrents\Star Trek Into Darkness - Deluxe Edition\Disc 2\16 - The San Fran Hustle.wav
Peak level 98.7 % Extraction speed 6.0 X Track quality 100.0 % Test CRC 2F897314 Copy CRC 2F897314 Accurately ripped (confidence 1) [EF5682EF] (AR v2) Copy OK
Track 17
Filename D:\Downloads\Torrents\Star Trek Into Darkness - Deluxe Edition\Disc 2\17 - Kirk Enterprises.wav
Peak level 98.7 % Extraction speed 5.7 X Track quality 100.0 % Test CRC 71066BC3 Copy CRC 71066BC3 Accurately ripped (confidence 1) [6C8356BE] (AR v2) Copy OK
Track 18
Filename D:\Downloads\Torrents\Star Trek Into Darkness - Deluxe Edition\Disc 2\18 - End Credits.wav
Peak level 98.1 % Extraction speed 6.9 X Track quality 100.0 % Test CRC D60F6B19 Copy CRC D60F6B19 Accurately ripped (confidence 1) [787DAF20] (AR v2) Copy OK
Track 19
Filename D:\Downloads\Torrents\Star Trek Into Darkness - Deluxe Edition\Disc 2\19 - Ode to Harrison.wav
Peak level 98.7 % Extraction speed 7.1 X Track quality 100.0 % Test CRC 1DD32D19 Copy CRC 1DD32D19 Accurately ripped (confidence 1) [CAC8EB69] (AR v2) Copy OK
Track 20
Filename D:\Downloads\Torrents\Star Trek Into Darkness - Deluxe Edition\Disc 2\20 - Ode to Vengeance.wav
Peak level 96.6 % Extraction speed 7.5 X Track quality 100.0 % Test CRC C0EBD245 Copy CRC C0EBD245 Accurately ripped (confidence 1) [503B438B] (AR v2) Copy OK
All tracks accurately ripped
No errors occurred
End of status report
---- CUETools DB Plugin V2.1.3
[CTDB TOCID: gcnnvQf0a48WMeYvapW8Jw1Z3Pg-] found, Submit result: already submitted[c6f0f637] (6/6) Accurately ripped
==== Log checksum 6044A083293121A59764591380C927F4C89ABCFFC54A0795219FE5B1787935A5 ====

Содержание индексной карты (.CUE)CD1

REM GENRE SoundtrackREM DATE 2013REM DISCID C20DDC1FREM COMMENT "ExactAudioCopy v1.0b3"CATALOG 0030206115086PERFORMER "Michael Giacchino"TITLE "Star Trek Into Darkness [The Deluxe Edition] (Disc 1)"FILE "01 - Logos , Pranking The Natives.wav" WAVE TRACK 01 AUDIO TITLE "Logos / Pranking The Natives" PERFORMER "Michael Giacchino" ISRC US3M51415001 INDEX 01 00:00:00FILE "02 - Spock Drops, Kirk Jumps.wav" WAVE TRACK 02 AUDIO TITLE "Spock Drops, Kirk Jumps" PERFORMER "Michael Giacchino" ISRC US3M51415002 INDEX 01 00:00:00FILE "03 - Undersea Enterprises Inc..wav" WAVE TRACK 03 AUDIO TITLE "Undersea Enterprises Inc." PERFORMER "Michael Giacchino" ISRC US3M51415003 INDEX 01 00:00:00FILE "04 - On The Bridge And On The Rocks.wav" WAVE TRACK 04 AUDIO TITLE "On The Bridge And On The Rocks" PERFORMER "Michael Giacchino" ISRC US3M51415004 INDEX 01 00:00:00FILE "05 - Sub Prime Directive.wav" WAVE TRACK 05 AUDIO TITLE "Sub Prime Directive" PERFORMER "Michael Giacchino" ISRC US3M51415005 INDEX 01 00:00:00FILE "06 - London Calling.wav" WAVE TRACK 06 AUDIO TITLE "London Calling" PERFORMER "Michael Giacchino" ISRC US3M51415006 INDEX 01 00:00:00FILE "07 - Demotion Emotion.wav" WAVE TRACK 07 AUDIO TITLE "Demotion Emotion" PERFORMER "Michael Giacchino" ISRC US3M51415007 INDEX 01 00:00:00FILE "08 - London Falling.wav" WAVE TRACK 08 AUDIO TITLE "London Falling" PERFORMER "Michael Giacchino" ISRC US3M51415008 INDEX 01 00:00:00FILE "09 - The Pride Of Iowa.wav" WAVE TRACK 09 AUDIO TITLE "The Pride Of Iowa" PERFORMER "Michael Giacchino" ISRC US3M51415009 INDEX 01 00:00:00FILE "10 - Astronomical Manhunt.wav" WAVE TRACK 10 AUDIO TITLE "Astronomical Manhunt" PERFORMER "Michael Giacchino" ISRC US3M51415010 INDEX 01 00:00:00FILE "11 - Man Vs Blaster.wav" WAVE TRACK 11 AUDIO TITLE "Man Vs Blaster" PERFORMER "Michael Giacchino" ISRC US3M51415011 INDEX 01 00:00:00FILE "12 - Meld-Merized.wav" WAVE TRACK 12 AUDIO TITLE "Meld-Merized" PERFORMER "Michael Giacchino" ISRC US3M51415012 INDEX 01 00:00:00FILE "13 - Admiral Exposition.wav" WAVE TRACK 13 AUDIO TITLE "Admiral Exposition" PERFORMER "Michael Giacchino" ISRC US3M51415013 INDEX 01 00:00:00FILE "14 - Personal Space.wav" WAVE TRACK 14 AUDIO TITLE "Personal Space" PERFORMER "Michael Giacchino" ISRC US3M51415014 INDEX 01 00:00:00FILE "15 - So Long Scotty.wav" WAVE TRACK 15 AUDIO TITLE "So Long Scotty" PERFORMER "Michael Giacchino" ISRC US3M51415015 INDEX 01 00:00:00FILE "16 - Chief Concern , The Moral Mission.wav" WAVE TRACK 16 AUDIO TITLE "Chief Concern / The Moral Mission" PERFORMER "Michael Giacchino" ISRC US3M51415016 INDEX 01 00:00:00FILE "17 - Covert Carol.wav" WAVE TRACK 17 AUDIO TITLE "Covert Carol" PERFORMER "Michael Giacchino" ISRC US3M51415017 INDEX 01 00:00:00FILE "18 - Galactic Road Trip.wav" WAVE TRACK 18 AUDIO TITLE "Galactic Road Trip" PERFORMER "Michael Giacchino" ISRC US3M51415018 INDEX 01 00:00:00FILE "19 - Torpedo Diplomacy.wav" WAVE TRACK 19 AUDIO TITLE "Torpedo Diplomacy" PERFORMER "Michael Giacchino" ISRC US3M51415019 INDEX 01 00:00:00FILE "20 - Spock and Uhura.wav" WAVE TRACK 20 AUDIO TITLE "Spock and Uhura" PERFORMER "Michael Giacchino" ISRC US3M51415020 INDEX 01 00:00:00FILE "21 - Klingon Chase , Meeting.wav" WAVE TRACK 21 AUDIO TITLE "Klingon Chase / Meeting" PERFORMER "Michael Giacchino" ISRC US3M51415021 INDEX 01 00:00:00FILE "22 - Harrison Attack.wav" WAVE TRACK 22 AUDIO TITLE "Harrison Attack" PERFORMER "Michael Giacchino" ISRC US3M51415022 INDEX 01 00:00:00FILE "23 - Harrison Brought Onboard.wav" WAVE TRACK 23 AUDIO TITLE "Harrison Brought Onboard" PERFORMER "Michael Giacchino" ISRC US3M51415023 INDEX 01 00:00:00FILE "24 - Harjugal Visit.wav" WAVE TRACK 24 AUDIO TITLE "Harjugal Visit" PERFORMER "Michael Giacchino" ISRC US3M51415024 INDEX 01 00:00:00FILE "25 - Damage Control.wav" WAVE TRACK 25 AUDIO TITLE "Damage Control" PERFORMER "Michael Giacchino" ISRC US3M51415025 INDEX 01 00:00:00FILE "26 - Scotty's Floored.wav" WAVE TRACK 26 AUDIO TITLE "Scotty's Floored" PERFORMER "Michael Giacchino" ISRC US3M51415026 INDEX 01 00:00:00FILE "27 - Torpedo Tango.wav" WAVE TRACK 27 AUDIO TITLE "Torpedo Tango" PERFORMER "Michael Giacchino" ISRC US3M51415027 INDEX 01 00:00:00FILE "28 - Cryo Your Heart Out.wav" WAVE TRACK 28 AUDIO TITLE "Cryo Your Heart Out" PERFORMER "Michael Giacchino" ISRC US3M51415028 INDEX 01 00:00:00FILE "29 - Harrison's Heart , Enter The Vengeance.wav" WAVE TRACK 29 AUDIO TITLE "Harrison's Heart / Enter The Vengeance" PERFORMER "Michael Giacchino" ISRC US3M51415029 INDEX 01 00:00:00FILE "30 - Mom's Calling.wav" WAVE TRACK 30 AUDIO TITLE "Mom's Calling" PERFORMER "Michael Giacchino" ISRC US3M51415030 INDEX 01 00:00:00FILE "31 - You're Not Safe At Warp.wav" WAVE TRACK 31 AUDIO TITLE "You're Not Safe At Warp" PERFORMER "Michael Giacchino" ISRC US3M51415031 INDEX 01 00:00:00

CD2

REM GENRE SoundtrackREM DATE 2013REM DISCID 090E0714REM COMMENT "ExactAudioCopy v1.0b3"CATALOG 0030206115086PERFORMER "Michael Giacchino"TITLE "Star Trek Into Darkness: The Deluxe Edition"FILE "01 - Kirk’s Last Stand.wav" WAVE TRACK 01 AUDIO TITLE "Kirk’s Last Stand" PERFORMER "Michael Giacchino" ISRC US3M51415032 INDEX 01 00:00:00FILE "02 - Guns Down.wav" WAVE TRACK 02 AUDIO TITLE "Guns Down" PERFORMER "Michael Giacchino" ISRC US3M51415033 INDEX 01 00:00:00FILE "03 - Chair of Command.wav" WAVE TRACK 03 AUDIO TITLE "Chair of Command" PERFORMER "Michael Giacchino" ISRC US3M51415034 INDEX 01 00:00:00FILE "04 - You Wanna Do What.wav" WAVE TRACK 04 AUDIO TITLE "You Wanna Do What?" PERFORMER "Michael Giacchino" ISRC US3M51415035 INDEX 01 00:00:00FILE "05 - Pull the Trigger.wav" WAVE TRACK 05 AUDIO TITLE "Pull the Trigger" PERFORMER "Michael Giacchino" ISRC US3M51415036 INDEX 01 00:00:00FILE "06 - Ship to Ship.wav" WAVE TRACK 06 AUDIO TITLE "Ship to Ship" PERFORMER "Michael Giacchino" ISRC US3M51415037 INDEX 01 00:00:00FILE "07 - Hallway Fight.wav" WAVE TRACK 07 AUDIO TITLE "Hallway Fight" PERFORMER "Michael Giacchino" ISRC US3M51415038 INDEX 01 00:00:00FILE "08 - Head Games.wav" WAVE TRACK 08 AUDIO TITLE "Head Games" PERFORMER "Michael Giacchino" ISRC US3M51415039 INDEX 01 00:00:00FILE "09 - I’m Gonna Make this Simple.wav" WAVE TRACK 09 AUDIO TITLE "I’m Gonna Make this Simple" PERFORMER "Michael Giacchino" ISRC US3M51415040 INDEX 01 00:00:00FILE "10 - Human Popsicles.wav" WAVE TRACK 10 AUDIO TITLE "Human Popsicles" PERFORMER "Michael Giacchino" ISRC US3M51415041 INDEX 01 00:00:00FILE "11 - Earthbound and Down.wav" WAVE TRACK 11 AUDIO TITLE "Earthbound and Down" PERFORMER "Michael Giacchino" ISRC US3M51415042 INDEX 01 00:00:00FILE "12 - Warp Core Values.wav" WAVE TRACK 12 AUDIO TITLE "Warp Core Values" PERFORMER "Michael Giacchino" ISRC US3M51415043 INDEX 01 00:00:00FILE "13 - Max Thrusters.wav" WAVE TRACK 13 AUDIO TITLE "Max Thrusters" PERFORMER "Michael Giacchino" ISRC US3M51415044 INDEX 01 00:00:00FILE "14 - Buying the Space Farm.wav" WAVE TRACK 14 AUDIO TITLE "Buying the Space Farm" PERFORMER "Michael Giacchino" ISRC US3M51415045 INDEX 01 00:00:00FILE "15 - Go Get ’Em.wav" WAVE TRACK 15 AUDIO TITLE "Go Get ’Em" PERFORMER "Michael Giacchino" ISRC US3M51415046 INDEX 01 00:00:00FILE "16 - The San Fran Hustle.wav" WAVE TRACK 16 AUDIO TITLE "The San Fran Hustle" PERFORMER "Michael Giacchino" ISRC US3M51415047 INDEX 01 00:00:00FILE "17 - Kirk Enterprises.wav" WAVE TRACK 17 AUDIO TITLE "Kirk Enterprises" PERFORMER "Michael Giacchino" ISRC US3M51415048 INDEX 01 00:00:00FILE "18 - End Credits.wav" WAVE TRACK 18 AUDIO TITLE "End Credits" PERFORMER "Michael Giacchino" ISRC US3M51415049 INDEX 01 00:00:00FILE "19 - Ode to Harrison.wav" WAVE TRACK 19 AUDIO TITLE "Ode to Harrison" PERFORMER "Michael Giacchino" ISRC US3M51415050 INDEX 01 00:00:00FILE "20 - Ode to Vengeance.wav" WAVE TRACK 20 AUDIO TITLE "Ode to Vengeance" PERFORMER "Michael Giacchino" ISRC US3M51415051 INDEX 01 00:00:00
[teatrix.ru].t10432.torrent 
Торрент: Зарегистрирован [ 2015-11-01 20:51 ] · EFA465DAB782B3AE485DCE515E385C48739572EC

Скачать .torrent

Скачать

16 KB

Статус: проверено
Скачан: 0 раз
Размер: 596 MB
terms.php



Быстрый ответ

Имя:

      
Для отправки сообщений необходимо включить JavaScript
Показать сообщения:    

Текущее время: 02-Дек 23:05

Часовой пояс: UTC + 3


Вы можете начинать темы
Вы можете отвечать на сообщения
Вы не можете редактировать свои сообщения
Вы не можете удалять свои сообщения
Вы не можете голосовать в опросах
Вы не можете прикреплять файлы к сообщениям
Вы можете скачивать файлы