(Soundtrack) Город-испуг / Funkytown (by Jean Robitaille & VA) - 2011, FLAC (tracks+.cue), lossless


Статистика раздачи [Обновить пиров]
Размер:  300 MB   |    Зарегистрирован:  1 год 1 месяц   |    Скачан:  0 раз

Полного источника не было: Никогда

 
   
 
 
 

[Цитировать]

Город-испуг / Funkytown
Жанр: Soundtrack
Композитор: Jean Robitaille & VA
Год выпуска диска: 2011
Страна-производитель диска: Canada
Издатель (лейбл): Universal Music Canada
Номер по каталогу: 0252762019
Аудиокодек: FLAC (*.flac)
Тип рипа: tracks
Битрейт аудио: lossless
Продолжительность: 00:41:19
Источник: israbox
Наличие сканов в содержимом раздачи: да

Tracklist

01 - Jully Black - Don't Leave Me This Way (3:40)
02 - Marie-Christine Depestre - Knock On Wood (3:51)
03 - Marilou - I Love To Love (2:52)
04 - Nancy Martinez - Hot Stuff (4:01)
05 - Kim Richardson - Waiting For Your Touch (3:24)
06 - Creature - So High (3:25)
07 - Jully Black - Young Hearts Run Free (4:08)
08 - Florence K. - I Feel Love (4:23)
09 - Boney M. - Daddy Cool (3:28)
10 - Lipps Inc. - Funkytown (4:01)
11 - Santa Esmeralda - Don't Let Me Be Misunderstood (4:07)

Лог создания рипа

Exact Audio Copy V1.0 beta 3 from 29. August 2011
EAC extraction logfile from 12. June 2013, 21:47
Various Artists / Funkytown (Original Motion Picture Soundtrack)
Used drive : HL-DT-STBD-RE BH10LS30 Adapter: 0 ID: 1
Read mode : SecureUtilize accurate stream : YesDefeat audio cache : YesMake use of C2 pointers : No
Read offset correction : 667Overread into Lead-In and Lead-Out : NoFill up missing offset samples with silence : YesDelete leading and trailing silent blocks : NoNull samples used in CRC calculations : YesUsed interface : Native Win32 interface for Win NT & 2000Gap handling : Appended to previous track
Used output format : User Defined EncoderSelected bitrate : 1024 kBit/sQuality : HighAdd ID3 tag : NoCommand line compressor : C:\Program Files (x86)\Exact Audio Copy\Flac\flac.exeAdditional command line options : -8 -V -T "ARTIST=%artist%" -T "TITLE=%title%" -T "ALBUM=%albumtitle%" -T "DATE=%year%" -T "TRACKNUMBER=%tracknr%" -T "GENRE=%genre%" -T "PERFORMER=%albuminterpret%" -T "COMPOSER=%composer%" %haslyrics%--tag-from-file=LYRICS="%lyricsfile%"%haslyrics% -T "ALBUMARTIST=%albumartist%" -T "ALBUM ARTIST=%albumartist%" -T "DISCNUMBER=%cdnumber%" -T "TOTALDISCS=%totalcds%" -T "TOTALTRACKS=%numtracks%" -T "COMMENT=%comment%" %source% -o %dest%
TOC of the extracted CD
Track | Start | Length | Start sector | End sector --------------------------------------------------------- 1 | 0:00.00 | 3:40.37 | 0 | 16536 2 | 3:40.37 | 3:51.14 | 16537 | 33875 3 | 7:31.51 | 2:52.33 | 33876 | 46808 4 | 10:24.09 | 4:00.73 | 46809 | 64881 5 | 14:25.07 | 3:23.40 | 64882 | 80146 6 | 17:48.47 | 3:24.74 | 80147 | 95520 7 | 21:13.46 | 4:07.44 | 95521 | 114089 8 | 25:21.15 | 4:22.46 | 114090 | 133785 9 | 29:43.61 | 3:28.33 | 133786 | 149418 10 | 33:12.19 | 4:00.39 | 149419 | 167457 11 | 37:12.58 | 4:07.04 | 167458 | 185986
Track 1
Filename C:\EACrips\01 Don’t Leave Me This Way.wav
Pre-gap length 0:00:02.00
Peak level 99.8 % Extraction speed 1.0 X Track quality 100.0 % Test CRC 6908ADC4 Copy CRC 6908ADC4 Track not present in AccurateRip database Copy OK
Track 2
Filename C:\EACrips\02 Knock On Wood.wav
Peak level 99.5 % Extraction speed 1.2 X Track quality 100.0 % Test CRC 5280FF84 Copy CRC 5280FF84 Track not present in AccurateRip database Copy OK
Track 3
Filename C:\EACrips\03 I Love To Love.wav
Peak level 97.3 % Extraction speed 1.2 X Track quality 100.0 % Test CRC 90D605AB Copy CRC 90D605AB Track not present in AccurateRip database Copy OK
Track 4
Filename C:\EACrips\04 Hot Stuff.wav
Peak level 97.7 % Extraction speed 1.4 X Track quality 100.0 % Test CRC 3F97EEC3 Copy CRC 3F97EEC3 Track not present in AccurateRip database Copy OK
Track 5
Filename C:\EACrips\05 Waiting For Your Touch.wav
Peak level 97.7 % Extraction speed 1.2 X Track quality 99.9 % Test CRC 3EC7840D Copy CRC 3EC7840D Track not present in AccurateRip database Copy OK
Track 6
Filename C:\EACrips\06 So High.wav
Peak level 84.3 % Extraction speed 1.5 X Track quality 100.0 % Test CRC 2159E031 Copy CRC 2159E031 Track not present in AccurateRip database Copy OK
Track 7
Filename C:\EACrips\07 Young Hearts Run Free.wav
Peak level 98.3 % Extraction speed 1.6 X Track quality 100.0 % Test CRC 3770B573 Copy CRC 3770B573 Track not present in AccurateRip database Copy OK
Track 8
Filename C:\EACrips\08 I Feel Love.wav
Peak level 98.3 % Extraction speed 1.6 X Track quality 99.9 % Test CRC C2C36542 Copy CRC C2C36542 Track not present in AccurateRip database Copy OK
Track 9
Filename C:\EACrips\09 Daddy Cool.wav
Peak level 96.4 % Extraction speed 1.8 X Track quality 100.0 % Test CRC D839F3D6 Copy CRC D839F3D6 Track not present in AccurateRip database Copy OK
Track 10
Filename C:\EACrips\10 Funkytown.wav
Peak level 88.9 % Extraction speed 1.9 X Track quality 100.0 % Test CRC 84CB33E4 Copy CRC 84CB33E4 Track not present in AccurateRip database Copy OK
Track 11
Filename C:\EACrips\11 Don’t Let Me Be Misunderstood.wav
Peak level 96.5 % Extraction speed 1.9 X Track quality 100.0 % Test CRC BB10E558 Copy CRC BB10E558 Track not present in AccurateRip database Copy OK
None of the tracks are present in the AccurateRip database
No errors occurred
End of status report
---- CUETools DB Plugin V2.1.3
[CTDB TOCID: daGtqWa3RA0NFmRfc6tGykDtZm8-] found, Submit result: daGtqWa3RA0NFmRfc6tGykDtZm8- has been confirmed[9b44af63] (1/1) Accurately ripped
==== Log checksum 9E40CCC5A0AEEF1BAC2B0D4A2887FBDD4DBED4A695B3BAC5D244FA95EC175228 ====

Audiochecker Log

AUDIOCHECKER v2.0 beta (build 457) - by Dester - opdester@freemail.hu~~~~~~~~~~~~~~~~~~~~~~~~~~~~~~~~~~
Started at: Tuesday, 09. 09. 2014. - 17:30.1111 files found
01 -===- D:\gio\Soundtracks\VA - Funkytown [Original Motion Picture Soundtrack] (2011) [flac]\01 - Jully Black - Don't Leave Me This Way.flac Extracted successfully Conclusion: this track is CDDA with probability 100% Tempfile successfully deleted.
02 -===- D:\gio\Soundtracks\VA - Funkytown [Original Motion Picture Soundtrack] (2011) [flac]\02 - Marie-Christine Depestre - Knock On Wood.flac Extracted successfully Conclusion: this track is CDDA with probability 99% Tempfile successfully deleted.
03 -===- D:\gio\Soundtracks\VA - Funkytown [Original Motion Picture Soundtrack] (2011) [flac]\03 - Marilou - I Love To Love.flac Extracted successfully Conclusion: this track is CDDA with probability 100% Tempfile successfully deleted.
04 -===- D:\gio\Soundtracks\VA - Funkytown [Original Motion Picture Soundtrack] (2011) [flac]\04 - Nancy Martinez - Hot Stuff.flac Extracted successfully Conclusion: this track is CDDA with probability 100% Tempfile successfully deleted.
05 -===- D:\gio\Soundtracks\VA - Funkytown [Original Motion Picture Soundtrack] (2011) [flac]\05 - Kim Richardson - Waiting For Your Touch.flac Extracted successfully Conclusion: this track is CDDA with probability 100% Tempfile successfully deleted.
06 -===- D:\gio\Soundtracks\VA - Funkytown [Original Motion Picture Soundtrack] (2011) [flac]\06 - Creature - So High.flac Extracted successfully Conclusion: this track is CDDA with probability 100% Tempfile successfully deleted.
07 -===- D:\gio\Soundtracks\VA - Funkytown [Original Motion Picture Soundtrack] (2011) [flac]\07 - Jully Black - Young Hearts Run Free.flac Extracted successfully Conclusion: this track is CDDA with probability 100% Tempfile successfully deleted.
08 -===- D:\gio\Soundtracks\VA - Funkytown [Original Motion Picture Soundtrack] (2011) [flac]\08 - Florence K. - I Feel Love.flac Extracted successfully Conclusion: this track is CDDA with probability 100% Tempfile successfully deleted.
09 -===- D:\gio\Soundtracks\VA - Funkytown [Original Motion Picture Soundtrack] (2011) [flac]\09 - Boney M. - Daddy Cool.flac Extracted successfully Conclusion: this track is CDDA with probability 100% Tempfile successfully deleted.
10 -===- D:\gio\Soundtracks\VA - Funkytown [Original Motion Picture Soundtrack] (2011) [flac]\10 - Lipps Inc. - Funkytown.flac Extracted successfully Conclusion: this track is CDDA with probability 100% Tempfile successfully deleted.
11 -===- D:\gio\Soundtracks\VA - Funkytown [Original Motion Picture Soundtrack] (2011) [flac]\11 - Santa Esmeralda - Don't Let Me Be Misunderstood.flac Extracted successfully Conclusion: this track is CDDA with probability 100% Tempfile successfully deleted.
Finished at: Tuesday, 09. 09. 2014. - 17:34.43 (operation time: 0:04.31)

.(CUE)

REM COMMENT "CUETools generated dummy CUE sheet"FILE "01 - Jully Black - Don't Leave Me This Way.flac" WAVE TRACK 01 AUDIO INDEX 01 00:00:00FILE "02 - Marie-Christine Depestre - Knock On Wood.flac" WAVE TRACK 02 AUDIO INDEX 01 00:00:00FILE "03 - Marilou - I Love To Love.flac" WAVE TRACK 03 AUDIO INDEX 01 00:00:00FILE "04 - Nancy Martinez - Hot Stuff.flac" WAVE TRACK 04 AUDIO INDEX 01 00:00:00FILE "05 - Kim Richardson - Waiting For Your Touch.flac" WAVE TRACK 05 AUDIO INDEX 01 00:00:00FILE "06 - Creature - So High.flac" WAVE TRACK 06 AUDIO INDEX 01 00:00:00FILE "07 - Jully Black - Young Hearts Run Free.flac" WAVE TRACK 07 AUDIO INDEX 01 00:00:00FILE "08 - Florence K. - I Feel Love.flac" WAVE TRACK 08 AUDIO INDEX 01 00:00:00FILE "09 - Boney M. - Daddy Cool.flac" WAVE TRACK 09 AUDIO INDEX 01 00:00:00FILE "10 - Lipps Inc. - Funkytown.flac" WAVE TRACK 10 AUDIO INDEX 01 00:00:00FILE "11 - Santa Esmeralda - Don't Let Me Be Misunderstood.flac" WAVE TRACK 11 AUDIO INDEX 01 00:00:00
[teatrix.ru].t10433.torrent 
Торрент: Зарегистрирован [ 2015-11-01 20:51 ] · 094C9F24497CC219C6A40E82B0A86578979CEB90

Скачать .torrent

Скачать

13 KB

Статус: проверено
Скачан: 0 раз
Размер: 300 MB
terms.php



Быстрый ответ

Имя:

      
Для отправки сообщений необходимо включить JavaScript
Показать сообщения:    

Текущее время: 10-Дек 08:00

Часовой пояс: UTC + 3


Вы можете начинать темы
Вы можете отвечать на сообщения
Вы не можете редактировать свои сообщения
Вы не можете удалять свои сообщения
Вы не можете голосовать в опросах
Вы не можете прикреплять файлы к сообщениям
Вы можете скачивать файлы