(Score) Полярная станция «Зебра» / Ice Station Zebra (by Michel Legrand) - 2003 (1968), FLAC (tracks+.cue), lossless


Статистика раздачи [Обновить пиров]
Размер:  428 MB   |    Зарегистрирован:  1 год 1 месяц   |    Скачан:  1 раз

Полного источника не было: 7 месяцев 8 дней

 
   
 
 
 

[Цитировать]

Полярная станция «Зебра» / Ice Station Zebra Жанр: Score
Композитор: Michel Legrand
Год выпуска диска: 2003
Год выпуска фильма: 1968
Страна-производитель диска: USA
Издатель (лейбл): Film Score Monthly
Номер по каталогу: FSMCD Vol. 6 No. 2
Аудиокодек: FLAC (*.flac)
Тип рипа: tracks+.cue
Битрейт аудио: lossless
Продолжительность: 01:19:20
Источник: CD / forums.ffshrine.org
Наличие сканов в содержимом раздачи: да
Треклист:
01 - Overture
02 - Main Title / Satellite / Jones Arrives / All Aboard
03 - Voyage Starts / Russian Trawler
04 - Wrong Bunk / The Mysterious Rendezvous
05 - Opaque Water
06 - Under the Ice
07 - Bring Her Up / Tigerfish Hits Ice / Intermission Card
08 - Entr'Acte / Crewman Falls Into Crevasse / Tigerfish Submerges
09 - Jones Searches Meteorology Lab
10 - Unidentified Aircraft / Russian Planes
11 - Jones Finds Detector
12 - Anders Shot
13 - Russian Paratroops Land
14 - Vaslov Opens Capsule
15 - Ostrovsky and Ferraday Face Each Other / Colored Smoke / Balloon Explodes / End Title and Credits

Лог создания рипа

Exact Audio Copy V1.0 beta 3 from 29. August 2011
EAC extraction logfile from 12. June 2014, 21:53
Michel Legrand / Ice Station Zebra
Used drive : HL-DT-STBDDVDRW CH30N Adapter: 0 ID: 0
Read mode : SecureUtilize accurate stream : YesDefeat audio cache : YesMake use of C2 pointers : No
Read offset correction : 6Overread into Lead-In and Lead-Out : NoFill up missing offset samples with silence : YesDelete leading and trailing silent blocks : NoNull samples used in CRC calculations : YesUsed interface : Native Win32 interface for Win NT & 2000Gap handling : Appended to previous track
Used output format : User Defined EncoderSelected bitrate : 1024 kBit/sQuality : HighAdd ID3 tag : NoCommand line compressor : C:\Program Files (x86)\Exact Audio Copy\Flac\flac.exeAdditional command line options : -8 -V -T "artist=%artist%" -T "title=%title%" -T "album=%albumtitle%" -T "date=%year%" -T "tracknumber=%tracknr%" -T "genre=%genre%" %source%
TOC of the extracted CD
Track | Start | Length | Start sector | End sector --------------------------------------------------------- 1 | 0:00.00 | 2:49.47 | 0 | 12721 2 | 2:49.47 | 10:18.08 | 12722 | 59079 3 | 13:07.55 | 7:27.02 | 59080 | 92606 4 | 20:34.57 | 6:40.00 | 92607 | 122606 5 | 27:14.57 | 1:46.28 | 122607 | 130584 6 | 29:01.10 | 4:59.05 | 130585 | 153014 7 | 34:00.15 | 3:04.05 | 153015 | 166819 8 | 37:04.20 | 12:11.50 | 166820 | 221694 9 | 49:15.70 | 4:46.32 | 221695 | 243176 10 | 54:02.27 | 2:03.20 | 243177 | 252421 11 | 56:05.47 | 2:42.15 | 252422 | 264586 12 | 58:47.62 | 3:18.25 | 264587 | 279461 13 | 62:06.12 | 2:33.65 | 279462 | 291001 14 | 64:40.02 | 2:39.08 | 291002 | 302934 15 | 67:19.10 | 12:01.32 | 302935 | 357041
Track 1
Filename C:\Michel Legrand - Ice Station Zebra (FSM Silver Age Classics Vol.6 No.2) [FLAC]\01 Overture.wav
Pre-gap length 0:00:02.00
Peak level 94.4 % Extraction speed 1.7 X Track quality 99.9 % Test CRC F3F96D26 Copy CRC F3F96D26 Accurately ripped (confidence 6) [9BA97A04] (AR v1) Copy OK
Track 2
Filename C:\Michel Legrand - Ice Station Zebra (FSM Silver Age Classics Vol.6 No.2) [FLAC]\02 Main Title,Satellite,Jones Arrives,All Aboard.wav
Peak level 94.4 % Extraction speed 1.4 X Track quality 100.0 % Test CRC A5661EA2 Copy CRC A5661EA2 Accurately ripped (confidence 5) [19E94139] (AR v1) Copy OK
Track 3
Filename C:\Michel Legrand - Ice Station Zebra (FSM Silver Age Classics Vol.6 No.2) [FLAC]\03 Voyage Starts,Russian Trawler.wav
Peak level 94.4 % Extraction speed 1.6 X Track quality 100.0 % Test CRC 9D62419A Copy CRC 9D62419A Accurately ripped (confidence 6) [CD534F35] (AR v1) Copy OK
Track 4
Filename C:\Michel Legrand - Ice Station Zebra (FSM Silver Age Classics Vol.6 No.2) [FLAC]\04 Wrong Bunk,The Mysterious Rendezvous.wav
Pre-gap length 0:00:01.45
Peak level 94.4 % Extraction speed 1.8 X Track quality 100.0 % Test CRC 4074FF74 Copy CRC 4074FF74 Accurately ripped (confidence 6) [02C4834C] (AR v1) Copy OK
Track 5
Filename C:\Michel Legrand - Ice Station Zebra (FSM Silver Age Classics Vol.6 No.2) [FLAC]\05 Opaque Water.wav
Peak level 94.4 % Extraction speed 1.5 X Track quality 100.0 % Test CRC 0E6F6FA8 Copy CRC 0E6F6FA8 Accurately ripped (confidence 6) [100869FD] (AR v1) Copy OK
Track 6
Filename C:\Michel Legrand - Ice Station Zebra (FSM Silver Age Classics Vol.6 No.2) [FLAC]\06 Under the Ice.wav
Peak level 55.9 % Extraction speed 1.9 X Track quality 100.0 % Test CRC 53B1B0B7 Copy CRC 53B1B0B7 Accurately ripped (confidence 6) [5DBDBAED] (AR v1) Copy OK
Track 7
Filename C:\Michel Legrand - Ice Station Zebra (FSM Silver Age Classics Vol.6 No.2) [FLAC]\07 Bring Her Up,Tigerfish Hits Ice,Intermission Card.wav
Peak level 94.4 % Extraction speed 1.8 X Track quality 100.0 % Test CRC 289D491B Copy CRC 289D491B Accurately ripped (confidence 6) [5849D3B2] (AR v1) Copy OK
Track 8
Filename C:\Michel Legrand - Ice Station Zebra (FSM Silver Age Classics Vol.6 No.2) [FLAC]\08 Entr'Acte,Crewman Falls Into Crevasse,Tigerfish Submerges.wav
Peak level 94.4 % Extraction speed 2.2 X Track quality 100.0 % Test CRC 892A854D Copy CRC 892A854D Accurately ripped (confidence 6) [37A23553] (AR v1) Copy OK
Track 9
Filename C:\Michel Legrand - Ice Station Zebra (FSM Silver Age Classics Vol.6 No.2) [FLAC]\09 Jones Searches Meteorology Lab.wav
Peak level 100.0 % Extraction speed 2.2 X Track quality 100.0 % Test CRC B0A57ACD Copy CRC B0A57ACD Accurately ripped (confidence 6) [7F4F9332] (AR v1) Copy OK
Track 10
Filename C:\Michel Legrand - Ice Station Zebra (FSM Silver Age Classics Vol.6 No.2) [FLAC]\10 Unidentified Aircraft,Russian Planes.wav
Peak level 92.2 % Extraction speed 2.0 X Track quality 100.0 % Test CRC FDD7AED3 Copy CRC FDD7AED3 Accurately ripped (confidence 6) [6DA86EF0] (AR v1) Copy OK
Track 11
Filename C:\Michel Legrand - Ice Station Zebra (FSM Silver Age Classics Vol.6 No.2) [FLAC]\11 Jones Finds Detector.wav
Peak level 94.4 % Extraction speed 2.1 X Track quality 100.0 % Test CRC B92BE4A1 Copy CRC B92BE4A1 Accurately ripped (confidence 6) [598472CC] (AR v1) Copy OK
Track 12
Filename C:\Michel Legrand - Ice Station Zebra (FSM Silver Age Classics Vol.6 No.2) [FLAC]\12 Anders Shot.wav
Peak level 94.4 % Extraction speed 2.2 X Track quality 100.0 % Test CRC 03A69186 Copy CRC 03A69186 Accurately ripped (confidence 6) [2023256E] (AR v1) Copy OK
Track 13
Filename C:\Michel Legrand - Ice Station Zebra (FSM Silver Age Classics Vol.6 No.2) [FLAC]\13 Russian Paratroops Land.wav
Peak level 82.2 % Extraction speed 2.2 X Track quality 100.0 % Test CRC A0649FD7 Copy CRC A0649FD7 Accurately ripped (confidence 6) [9A08D6B7] (AR v1) Copy OK
Track 14
Filename C:\Michel Legrand - Ice Station Zebra (FSM Silver Age Classics Vol.6 No.2) [FLAC]\14 Vaslov Opens Capsule.wav
Peak level 94.4 % Extraction speed 2.2 X Track quality 100.0 % Test CRC 1439E6E9 Copy CRC 1439E6E9 Accurately ripped (confidence 6) [981AF824] (AR v1) Copy OK
Track 15
Filename C:\Michel Legrand - Ice Station Zebra (FSM Silver Age Classics Vol.6 No.2) [FLAC]\15 Ostrovsky and Ferraday Face Each Other,Colored Smoke,Balloon Explodes,End Title and Credits.wav
Peak level 94.4 % Extraction speed 2.6 X Track quality 99.9 % Test CRC 8B530C72 Copy CRC 8B530C72 Accurately ripped (confidence 6) [CF0CF525] (AR v1) Copy OK
All tracks accurately ripped
No errors occurred
End of status report
---- CUETools DB Plugin V2.1.3
[CTDB TOCID: ORN5en3iEaezIktjs0VH2hDa49Y-] found, Submit result: ORN5en3iEaezIktjs0VH2hDa49Y- has been confirmed[1f7d615e] (2/3) Accurately ripped[19df6547] (1/3) No match
==== Log checksum 04FF979F53C7BED5B298EE4651A10ABD859006467D9BB03BF49C176C9C0C22E0 ====

Содержание индексной карты (.CUE)

REM GENRE SoundtrackREM DATE 2003REM DISCID DE12980FREM COMMENT "ExactAudioCopy v1.0b3"FILE "01 Overture.wav" WAVE TRACK 01 AUDIO INDEX 01 00:00:00FILE "02 Main Title,Satellite,Jones Arrives,All Aboard.wav" WAVE TRACK 02 AUDIO INDEX 01 00:00:00FILE "03 Voyage Starts,Russian Trawler.wav" WAVE TRACK 03 AUDIO INDEX 01 00:00:00 TRACK 04 AUDIO INDEX 00 07:25:32FILE "04 Wrong Bunk,The Mysterious Rendezvous.wav" WAVE INDEX 01 00:00:00FILE "05 Opaque Water.wav" WAVE TRACK 05 AUDIO INDEX 01 00:00:00FILE "06 Under the Ice.wav" WAVE TRACK 06 AUDIO INDEX 01 00:00:00FILE "07 Bring Her Up,Tigerfish Hits Ice,Intermission Card.wav" WAVE TRACK 07 AUDIO INDEX 01 00:00:00FILE "08 Entr'Acte,Crewman Falls Into Crevasse,Tigerfish Submerges.wav" WAVE TRACK 08 AUDIO INDEX 01 00:00:00FILE "09 Jones Searches Meteorology Lab.wav" WAVE TRACK 09 AUDIO INDEX 01 00:00:00FILE "10 Unidentified Aircraft,Russian Planes.wav" WAVE TRACK 10 AUDIO INDEX 01 00:00:00FILE "11 Jones Finds Detector.wav" WAVE TRACK 11 AUDIO INDEX 01 00:00:00FILE "12 Anders Shot.wav" WAVE TRACK 12 AUDIO INDEX 01 00:00:00FILE "13 Russian Paratroops Land.wav" WAVE TRACK 13 AUDIO INDEX 01 00:00:00FILE "14 Vaslov Opens Capsule.wav" WAVE TRACK 14 AUDIO INDEX 01 00:00:00FILE "15 Ostrovsky and Ferraday Face Each Other,Colored Smoke,Balloon Explodes,End Title and Credits.wav" WAVE TRACK 15 AUDIO INDEX 01 00:00:00

Лог проверки качества

-----------------------
DON'T MODIFY THIS FILE
-----------------------
PERFORMER: auCDtect Task Manager, ver. 1.6.0 RC1 build 1.6.0.1Copyright (c) 2008-2010 y-soft. All rights reservedhttp://y-soft.org
ANALYZER: auCDtect: CD records authenticity detector, version 0.8.2Copyright (c) 2004 Oleg Berngardt. All rights reserved.Copyright (c) 2004 Alexander Djourik. All rights reserved.
FILE: 15 Ostrovsky and Ferraday Face Each Other,Colored Smoke,Balloon Explodes,End Title and Credits.flac Size: 59427204 Hash: 34EBC8D6F9D929633B7DE0DD4AA5682B Accuracy: -m0 Conclusion: CDDA 100% Signature: C3EB0298A7408D7E8EEBE096C9C160E6F4E5DA89FILE: 14 Vaslov Opens Capsule.flac Size: 12485858 Hash: 52AEAF91EA8798218B71C032054F22FB Accuracy: -m0 Conclusion: CDDA 99% Signature: 2332C2588715FA265B9DE22E0BE005D39768504BFILE: 13 Russian Paratroops Land.flac Size: 13185408 Hash: 47BC2724D063FFFECA6429545B078BA1 Accuracy: -m0 Conclusion: CDDA 99% Signature: 85A29E0A7B2DC352F50C05C1170BA685AF41F8B2FILE: 12 Anders Shot.flac Size: 15650876 Hash: 333D8B3C673087C28735B08B285D6DF5 Accuracy: -m0 Conclusion: CDDA 99% Signature: AA9441AD05672F049EFA153902FE5DAC62957B5BFILE: 11 Jones Finds Detector.flac Size: 14428442 Hash: CA83108EF42B2D03B2839BEFF89CCC60 Accuracy: -m0 Conclusion: CDDA 99% Signature: 6B064732C799ED0400613A1D93691B23E0E636B9FILE: 10 Unidentified Aircraft,Russian Planes.flac Size: 10664921 Hash: 13E47E93048977F9F89B2472F511448F Accuracy: -m0 Conclusion: CDDA 99% Signature: 5472D2F4CFA2FE9E1E88E24883EA5CA47C787CBEFILE: 09 Jones Searches Meteorology Lab.flac Size: 24344072 Hash: 642F6E4AE39A75B7D1ABBA47BF2B1AE1 Accuracy: -m0 Conclusion: CDDA 100% Signature: 189BFBB6383CFF6836871F8995B77E888FE954CDFILE: 08 Entr'Acte,Crewman Falls Into Crevasse,Tigerfish Submerges.flac Size: 67885104 Hash: F86790D9557B649A9C02195C625953ED Accuracy: -m0 Conclusion: CDDA 100% Signature: 61472E83D3D82280A77F82605F1138E50229F2FCFILE: 07 Bring Her Up,Tigerfish Hits Ice,Intermission Card.flac Size: 15396603 Hash: F8E450DFC72CA2B3800F10D393F6CA05 Accuracy: -m0 Conclusion: CDDA 100% Signature: 51940493AA40BA4F7C8F334E817F16DF4BA7FA22FILE: 06 Under the Ice.flac Size: 25745060 Hash: EE58FB605D72BDF9CD9A8040D915EF94 Accuracy: -m0 Conclusion: CDDA 99% Signature: 83D00404F0CA71D35AB8BA4DA819B5B1A39549F8FILE: 05 Opaque Water.flac Size: 10159308 Hash: B07F25936C69E8D7BB1899550786FC7C Accuracy: -m0 Conclusion: CDDA 100% Signature: 79D539B54449BA4A22157B032CDF09657D3B4629FILE: 04 Wrong Bunk,The Mysterious Rendezvous.flac Size: 33067582 Hash: EC796211348E494CDF5E1EC981CDBDB3 Accuracy: -m0 Conclusion: CDDA 100% Signature: 34F7BAED7B4975EC37D9DE963CA83B0B4521CFB6FILE: 03 Voyage Starts,Russian Trawler.flac Size: 37908262 Hash: FF84538B2C5F84E8453E8F31B3DAD12E Accuracy: -m0 Conclusion: CDDA 100% Signature: C63BAC52BB57D6E041D9C962FE16BEEE1948B2B4FILE: 02 Main Title,Satellite,Jones Arrives,All Aboard.flac Size: 54038820 Hash: 70E5A5565FFD0EC83861D1115814CA42 Accuracy: -m0 Conclusion: CDDA 100% Signature: FFA275BC78309C48849F592156FB1574CC40FD20FILE: 01 Overture.flac Size: 17193202 Hash: 9F79D77FDE7299338B742D97AE8EEC4D Accuracy: -m0 Conclusion: CDDA 100% Signature: EC03E9EC4E6D438B061461558EF101A6A50B0C0D

Доп. информация

Score: 100 (out of 100)-Checksum: Log entry is fine

Скриншот спектра частот

[teatrix.ru].t10435.torrent 
Торрент: Зарегистрирован [ 2015-11-01 20:51 ] · 47B3110BA2ADB46FA7B5DC1164F5EC7B8B06EDED

Скачать .torrent

Скачать

19 KB

Статус: проверено
Скачан: 1 раз
Размер: 428 MB
terms.php



Быстрый ответ

Имя:

      
Для отправки сообщений необходимо включить JavaScript
Показать сообщения:    

Текущее время: 07-Дек 19:29

Часовой пояс: UTC + 3


Вы можете начинать темы
Вы можете отвечать на сообщения
Вы не можете редактировать свои сообщения
Вы не можете удалять свои сообщения
Вы не можете голосовать в опросах
Вы не можете прикреплять файлы к сообщениям
Вы можете скачивать файлы