(Score) Сквозь снег / Snowpiercer (by Marco Beltrami) - 2013, FLAC (tracks+.cue), lossless


Статистика раздачи [Обновить пиров]
Размер:  283 MB   |    Зарегистрирован:  1 год 1 месяц   |    Скачан:  0 раз

Полного источника не было: Никогда

 
   
 
 
 

[Цитировать]

Сквозь снег / Snowpiercer-Жанр: Score
Композитор: Marco Beltrami
Год выпуска диска: 2013
Производитель диска: Korea
Издатель (лейбл): CJ E&M
Номер по каталогу: CMDC 10153-Аудиокодек: FLAC (*.flac)
Тип рипа: tracks+.cue
Битрейт аудио: lossless
Продолжительность: 00:56:05
Источник: lztr.us / nazgul68
Наличие сканов в содержимом раздачи: да

Треклист

01. This Is The End (3:41)
02. Stomp (1:01)
03. Preparation (3:11)
04. Requesting An Upgrade (3:40)
05. Take The Engine (2:04)
06. Axe Gang (2:22)
07. Axe Schlomo (1:47)
08. Blackout Fight (4:25)
09. Water Supply (2:32)
10. Go Ahead (2:46)
11. Sushi (1:14)
12. The Seven (1:01)
13. We Go Forward (2:05)
14. Steam Car (2:38)
15. Seoul Train (2:26)
16. Snow Melt (2:02)
17. Take My Place (5:56)
18. Yona Lights (3:33)
19. This Is The Beginning (4:00)
20. Yona`s Theme (3:38) Includes "Wilford Song" as an hidden content

Лог создания рипа

Exact Audio Copy V1.0 beta 3 from 29. August 2011
EAC extraction logfile from 11. September 2013, 12:29
Marco Beltrami / Snowpiercer
Used drive : HL-DT-STBD-RE BH10LS38 Adapter: 2 ID: 0
Read mode : SecureUtilize accurate stream : YesDefeat audio cache : YesMake use of C2 pointers : No
Read offset correction : 667Overread into Lead-In and Lead-Out : NoFill up missing offset samples with silence : YesDelete leading and trailing silent blocks : NoNull samples used in CRC calculations : YesUsed interface : Native Win32 interface for Win NT & 2000Gap handling : Appended to previous track
Used output format : User Defined EncoderSelected bitrate : 768 kBit/sQuality : HighAdd ID3 tag : NoCommand line compressor : C:\Program Files (x86)\Exact Audio Copy\FLAC\FLAC.EXEAdditional command line options : -8 -V -T "ARTIST=%artist%" -T "TITLE=%title%" -T "ALBUM=%albumtitle%" -T "DATE=%year%" -T "TRACKNUMBER=%tracknr%"-T "GENRE=%genre%" -T "PERFORMER=%albuminterpret%" -T "COMPOSER=%composer%" %haslyrics%--tag-from-file=LYRICS="%lyricsfile%"%haslyrics% -T "ALBUMARTIST=%albumartist%"-T "ALBUM ARTIST=%albumartist%" -T "DISCNUMBER=%cdnumber%" -T "TOTALDISCS=%totalcds%" -T "TOTALTRACKS=%numtracks%" -T "COMMENT=%comment%" %source% -o %dest%
TOC of the extracted CD
Track | Start | Length | Start sector | End sector --------------------------------------------------------- 1 | 0:00.00 | 3:41.20 | 0 | 16594 2 | 3:41.20 | 1:00.40 | 16595 | 21134 3 | 4:41.60 | 3:10.51 | 21135 | 35435 4 | 7:52.36 | 3:40.05 | 35436 | 51940 5 | 11:32.41 | 2:04.27 | 51941 | 61267 6 | 13:36.68 | 2:22.09 | 61268 | 71926 7 | 15:59.02 | 1:47.35 | 71927 | 79986 8 | 17:46.37 | 4:24.63 | 79987 | 99849 9 | 22:11.25 | 2:32.36 | 99850 | 111285 10 | 24:43.61 | 2:45.71 | 111286 | 123731 11 | 27:29.57 | 1:14.34 | 123732 | 129315 12 | 28:44.16 | 1:00.59 | 129316 | 133874 13 | 29:45.00 | 2:05.13 | 133875 | 143262 14 | 31:50.13 | 2:38.09 | 143263 | 155121 15 | 34:28.22 | 2:26.05 | 155122 | 166076 16 | 36:54.27 | 2:02.31 | 166077 | 175257 17 | 38:56.58 | 5:56.30 | 175258 | 201987 18 | 44:53.13 | 3:33.00 | 201988 | 217962 19 | 48:26.13 | 4:00.18 | 217963 | 235980 20 | 52:26.31 | 3:38.30 | 235981 | 252360
Track 1
Filename C:\Users\chris\Desktop\Rips\01 - This Is The End.wav
Pre-gap length 0:00:02.00
Peak level 98.5 % Extraction speed 1.2 X Track quality 100.0 % Test CRC 3404EAAE Copy CRC 3404EAAE Track not present in AccurateRip database Copy OK
Track 2
Filename C:\Users\chris\Desktop\Rips\02 - Stomp.wav
Peak level 98.5 % Extraction speed 0.9 X Track quality 100.0 % Test CRC 87BADA33 Copy CRC 87BADA33 Track not present in AccurateRip database Copy OK
Track 3
Filename C:\Users\chris\Desktop\Rips\03 - Preparation.wav
Peak level 51.3 % Extraction speed 1.3 X Track quality 100.0 % Test CRC 42D33579 Copy CRC 42D33579 Track not present in AccurateRip database Copy OK
Track 4
Filename C:\Users\chris\Desktop\Rips\04 - Requesting An Upgrade.wav
Peak level 99.9 % Extraction speed 1.3 X Track quality 99.9 % Test CRC B7DEDB0E Copy CRC B7DEDB0E Track not present in AccurateRip database Copy OK
Track 5
Filename C:\Users\chris\Desktop\Rips\05 - Take The Engine.wav
Peak level 28.4 % Extraction speed 1.4 X Track quality 100.0 % Test CRC 98C35375 Copy CRC 98C35375 Track not present in AccurateRip database Copy OK
Track 6
Filename C:\Users\chris\Desktop\Rips\06 - Axe Gang.wav
Peak level 99.0 % Extraction speed 1.5 X Track quality 100.0 % Test CRC B9251301 Copy CRC B9251301 Track not present in AccurateRip database Copy OK
Track 7
Filename C:\Users\chris\Desktop\Rips\07 - Axe Schlomo.wav
Peak level 98.5 % Extraction speed 1.4 X Track quality 100.0 % Test CRC D37CE3C7 Copy CRC D37CE3C7 Track not present in AccurateRip database Copy OK
Track 8
Filename C:\Users\chris\Desktop\Rips\08 - Blackout Fight.wav
Peak level 99.9 % Extraction speed 1.8 X Track quality 100.0 % Test CRC E34E801B Copy CRC E34E801B Track not present in AccurateRip database Copy OK
Track 9
Filename C:\Users\chris\Desktop\Rips\09 - Water Supply.wav
Peak level 59.1 % Extraction speed 1.7 X Track quality 100.0 % Test CRC 87DBADFC Copy CRC 87DBADFC Track not present in AccurateRip database Copy OK
Track 10
Filename C:\Users\chris\Desktop\Rips\10 - Go Ahead.wav
Peak level 39.4 % Extraction speed 1.8 X Track quality 100.0 % Test CRC AAA71EF9 Copy CRC AAA71EF9 Track not present in AccurateRip database Copy OK
Track 11
Filename C:\Users\chris\Desktop\Rips\11 - Sushi.wav
Peak level 38.3 % Extraction speed 1.5 X Track quality 100.0 % Test CRC 110FC86D Copy CRC 110FC86D Track not present in AccurateRip database Copy OK
Track 12
Filename C:\Users\chris\Desktop\Rips\12 - The Seven.wav
Peak level 24.4 % Extraction speed 1.4 X Track quality 100.0 % Test CRC 9FF00703 Copy CRC 9FF00703 Track not present in AccurateRip database Copy OK
Track 13
Filename C:\Users\chris\Desktop\Rips\13 - We Go Forward.wav
Peak level 99.3 % Extraction speed 1.4 X Track quality 99.9 % Test CRC 67B7DB05 Copy CRC 67B7DB05 Track not present in AccurateRip database Copy OK
Track 14
Filename C:\Users\chris\Desktop\Rips\14 - Steam Car.wav
Peak level 98.5 % Extraction speed 1.9 X Track quality 100.0 % Test CRC 6E074A12 Copy CRC 6E074A12 Track not present in AccurateRip database Copy OK
Track 15
Filename C:\Users\chris\Desktop\Rips\15 - Seoul Train.wav
Peak level 99.5 % Extraction speed 1.6 X Track quality 99.9 % Test CRC 208668A5 Copy CRC 208668A5 Track not present in AccurateRip database Copy OK
Track 16
Filename C:\Users\chris\Desktop\Rips\16 - Snow Melt.wav
Peak level 87.4 % Extraction speed 1.9 X Track quality 100.0 % Test CRC E13FF45C Copy CRC E13FF45C Track not present in AccurateRip database Copy OK
Track 17
Filename C:\Users\chris\Desktop\Rips\17 - Take My Place.wav
Peak level 98.5 % Extraction speed 2.3 X Track quality 100.0 % Test CRC DDE46097 Copy CRC DDE46097 Track not present in AccurateRip database Copy OK
Track 18
Filename C:\Users\chris\Desktop\Rips\18 - Yona Lights.wav
Peak level 98.5 % Extraction speed 2.3 X Track quality 100.0 % Test CRC 4F914F02 Copy CRC 4F914F02 Track not present in AccurateRip database Copy OK
Track 19
Filename C:\Users\chris\Desktop\Rips\19 - This Is The Beginning.wav
Peak level 99.9 % Extraction speed 2.4 X Track quality 100.0 % Test CRC 35A0B6F3 Copy CRC 35A0B6F3 Track not present in AccurateRip database Copy OK
Track 20
Filename C:\Users\chris\Desktop\Rips\20 - Yona`s Theme.wav
Peak level 80.0 % Extraction speed 2.4 X Track quality 100.0 % Test CRC A1F816C0 Copy CRC A1F816C0 Track not present in AccurateRip database Copy OK
None of the tracks are present in the AccurateRip database
No errors occurred
End of status report
==== Log checksum F0B7C904BE99D08755B451E59E84A099A801996BE7DF9FB8C64B9271F43CE1CE ====

Содержание индексной карты (.CUE)

REM GENRE SoundtrackREM DATE 2013REM DISCID 230D2414REM COMMENT "ExactAudioCopy v1.0b3"FILE "01 - This Is The End.wav" WAVE TRACK 01 AUDIO INDEX 01 00:00:00FILE "02 - Stomp.wav" WAVE TRACK 02 AUDIO INDEX 01 00:00:00FILE "03 - Preparation.wav" WAVE TRACK 03 AUDIO INDEX 01 00:00:00FILE "04 - Requesting An Upgrade.wav" WAVE TRACK 04 AUDIO INDEX 01 00:00:00FILE "05 - Take The Engine.wav" WAVE TRACK 05 AUDIO INDEX 01 00:00:00FILE "06 - Axe Gang.wav" WAVE TRACK 06 AUDIO INDEX 01 00:00:00FILE "07 - Axe Schlomo.wav" WAVE TRACK 07 AUDIO INDEX 01 00:00:00FILE "08 - Blackout Fight.wav" WAVE TRACK 08 AUDIO INDEX 01 00:00:00FILE "09 - Water Supply.wav" WAVE TRACK 09 AUDIO INDEX 01 00:00:00FILE "10 - Go Ahead.wav" WAVE TRACK 10 AUDIO INDEX 01 00:00:00FILE "11 - Sushi.wav" WAVE TRACK 11 AUDIO INDEX 01 00:00:00FILE "12 - The Seven.wav" WAVE TRACK 12 AUDIO INDEX 01 00:00:00FILE "13 - We Go Forward.wav" WAVE TRACK 13 AUDIO INDEX 01 00:00:00FILE "14 - Steam Car.wav" WAVE TRACK 14 AUDIO INDEX 01 00:00:00FILE "15 - Seoul Train.wav" WAVE TRACK 15 AUDIO INDEX 01 00:00:00FILE "16 - Snow Melt.wav" WAVE TRACK 16 AUDIO INDEX 01 00:00:00FILE "17 - Take My Place.wav" WAVE TRACK 17 AUDIO INDEX 01 00:00:00FILE "18 - Yona Lights.wav" WAVE TRACK 18 AUDIO INDEX 01 00:00:00FILE "19 - This Is The Beginning.wav" WAVE TRACK 19 AUDIO INDEX 01 00:00:00FILE "20 - Yona`s Theme.wav" WAVE TRACK 20 AUDIO INDEX 01 00:00:00
[teatrix.ru].t10436.torrent 
Торрент: Зарегистрирован [ 2015-11-01 20:51 ] · 210C58760C3A3D669C4605CA1B356FA7673BA869

Скачать .torrent

Скачать

13 KB

Статус: проверено
Скачан: 0 раз
Размер: 283 MB
terms.php



Быстрый ответ

Имя:

      
Для отправки сообщений необходимо включить JavaScript
Показать сообщения:    

Текущее время: 04-Дек 09:07

Часовой пояс: UTC + 3


Вы можете начинать темы
Вы можете отвечать на сообщения
Вы не можете редактировать свои сообщения
Вы не можете удалять свои сообщения
Вы не можете голосовать в опросах
Вы не можете прикреплять файлы к сообщениям
Вы можете скачивать файлы