(Score) Наши Матери, Наши Отцы / Unsere Mutter, Unsere Vater (Unsere Mütter, Unsere Väter) (by Fabian Römer) - 2013, FLAC (image+.cue), lossless


Статистика раздачи [Обновить пиров]
Размер:  277 MB   |    Зарегистрирован:  1 год 1 месяц   |    Скачан:  0 раз

Полного источника не было: Никогда

 
   
 
 
 

[Цитировать]

Наши Матери, Наши Отцы / Unsere Mutter, Unsere Vater (Unsere Mütter, Unsere Väter)
Жанр: Score
Композитор: Fabian Römer
Год выпуска диска: 2013
Год выпуска фильма: 2013
Страна-производитель диска: Germany
Издатель (лейбл): Colosseum (Alive)
Номер по каталогу: CST 8164 2
Аудиокодек: FLAC (*.flac)
Тип рипа: image+.cue
Битрейт аудио: lossless
Продолжительность: 64:28
Источник: собственный рип
Наличие сканов в содержимом раздачи: да
Треклист:
01. Alle Ehre
02. Fünf Freunde
03. Das Foto
04. Mein Kleines Herz (Performed by Katharina Schüttler)
05. Recap Teil 1
06. Vergiftetes Angebot
07. Keine Hoffnung
08. Sommersemester
09. Angriff
10. Sturm
11. Fern
12. Wahnsinn
13. Flucht
14. Friedhelms Tod?
15. Abschied
16. Partisanen
17. Krieg Ist Warten
18. Recap Teil 1 und 2
19. Anzünden!
20. Hinterhalt
21. Stille Bar
22. Drei Gläser

Лог создания рипа

Exact Audio Copy V1.0 beta 3 from 29. August 2011
EAC extraction logfile from 6. September 2014, 18:03
Fabian Romer / Unsere Mutter, Unsere Vater
Used drive : HP DVD Writer 1170d Adapter: 0 ID: 0
Read mode : SecureUtilize accurate stream : YesDefeat audio cache : YesMake use of C2 pointers : No
Read offset correction : 6Overread into Lead-In and Lead-Out : NoFill up missing offset samples with silence : YesDelete leading and trailing silent blocks : NoNull samples used in CRC calculations : YesUsed interface : Native Win32 interface for Win NT & 2000
Used output format : User Defined EncoderSelected bitrate : 768 kBit/sQuality : HighAdd ID3 tag : NoCommand line compressor : C:\Program Files (x86)\Exact Audio Copy\FLAC\FLAC.EXEAdditional command line options : -V -8 -T "Date=%year%" -T "Genre=%genre%" -T"COMMENT=Ripped by Ungern666" -8 -V %source%
TOC of the extracted CD
Track | Start | Length | Start sector | End sector --------------------------------------------------------- 1 | 0:00.00 | 2:07.12 | 0 | 9536 2 | 2:07.12 | 1:41.37 | 9537 | 17148 3 | 3:48.49 | 3:04.39 | 17149 | 30987 4 | 6:53.13 | 1:59.65 | 30988 | 39977 5 | 8:53.03 | 3:57.63 | 39978 | 57815 6 | 12:50.66 | 2:04.13 | 57816 | 67128 7 | 14:55.04 | 2:00.65 | 67129 | 76193 8 | 16:55.69 | 1:08.51 | 76194 | 81344 9 | 18:04.45 | 1:43.41 | 81345 | 89110 10 | 19:48.11 | 3:21.44 | 89111 | 104229 11 | 23:09.55 | 0:47.45 | 104230 | 107799 12 | 23:57.25 | 3:17.15 | 107800 | 122589 13 | 27:14.40 | 1:32.27 | 122590 | 129516 14 | 28:46.67 | 3:38.74 | 129517 | 145940 15 | 32:25.66 | 4:24.49 | 145941 | 165789 16 | 36:50.40 | 6:07.24 | 165790 | 193338 17 | 42:57.64 | 6:19.25 | 193339 | 221788 18 | 49:17.14 | 2:04.28 | 221789 | 231116 19 | 51:21.42 | 2:14.69 | 231117 | 241235 20 | 53:36.36 | 2:14.33 | 241236 | 251318 21 | 55:50.69 | 2:22.34 | 251319 | 262002 22 | 58:13.28 | 6:15.03 | 262003 | 290130
Range status and errors
Selected range
Filename C:\EAC\Ungern666\Fabian Romer - Unsere Mutter, Unsere Vater.wav
Peak level 100.0 % Extraction speed 6.3 X Range quality 100.0 % Test CRC 6F6B0ACA Copy CRC 6F6B0ACA Copy OK
No errors occurred
AccurateRip summary
Track 1 accurately ripped (confidence 1) [EE58D734] (AR v2)Track 2 accurately ripped (confidence 1) [1D1F8BC9] (AR v2)Track 3 accurately ripped (confidence 1) [B9FEDD45] (AR v2)Track 4 accurately ripped (confidence 1) [C2C21BA6] (AR v2)Track 5 accurately ripped (confidence 1) [AED03B12] (AR v2)Track 6 accurately ripped (confidence 1) [A93C95F5] (AR v2)Track 7 accurately ripped (confidence 1) [43F3C263] (AR v2)Track 8 accurately ripped (confidence 1) [07386C89] (AR v2)Track 9 accurately ripped (confidence 1) [5413B377] (AR v2)Track 10 accurately ripped (confidence 1) [B807B52C] (AR v2)Track 11 accurately ripped (confidence 1) [4B451625] (AR v2)Track 12 accurately ripped (confidence 1) [95D2F6E6] (AR v2)Track 13 accurately ripped (confidence 1) [F95F0AD0] (AR v2)Track 14 accurately ripped (confidence 1) [23521ED2] (AR v2)Track 15 accurately ripped (confidence 1) [84206C6E] (AR v2)Track 16 accurately ripped (confidence 1) [01E2BCD5] (AR v2)Track 17 accurately ripped (confidence 1) [7A7B7FC4] (AR v2)Track 18 accurately ripped (confidence 1) [A55CF0CD] (AR v2)Track 19 accurately ripped (confidence 1) [9FC1D158] (AR v2)Track 20 accurately ripped (confidence 1) [D2FC508B] (AR v2)Track 21 accurately ripped (confidence 1) [A4A2044A] (AR v2)Track 22 accurately ripped (confidence 1) [7D5CD003] (AR v2)
All tracks accurately ripped
End of status report
==== Log checksum 59F2B5942C1F3ACE8C1E926D4A39C623BEFDDBA8FB0D6B9AE1789A87074A5E37 ====
[teatrix.ru].t10439.torrent 
Торрент: Зарегистрирован [ 2015-11-01 20:51 ] · 0956A034C82A276D1A6A2F49D3398DCA4F5C9317

Скачать .torrent

Скачать

12 KB

Статус: проверено
Скачан: 0 раз
Размер: 277 MB
terms.php



Быстрый ответ

Имя:

      
Для отправки сообщений необходимо включить JavaScript
Показать сообщения:    

Текущее время: 07-Дек 21:24

Часовой пояс: UTC + 3


Вы можете начинать темы
Вы можете отвечать на сообщения
Вы не можете редактировать свои сообщения
Вы не можете удалять свои сообщения
Вы не можете голосовать в опросах
Вы не можете прикреплять файлы к сообщениям
Вы можете скачивать файлы