(Score) Натюрморт / Still Life (by Rachel Portman) - 2014 (2013), FLAC (tracks+.cue), lossless


Статистика раздачи [Обновить пиров]
Размер:  175 MB   |    Зарегистрирован:  1 год 1 месяц   |    Скачан:  2 раза

Полного источника не было: 7 дней

 
   
 
 
 

[Цитировать]

Натюрморт / Still Life-Жанр: Score
Композитор: Rachel Portman
Год выпуска диска: 2014
Год выпуска фильма: 2013
Производитель диска: EU
Издатель (лейбл): Kronos Records
Номер по каталогу: KRONCD050-Аудиокодек: FLAC (*.flac)
Тип рипа: tracks+.cue
Битрейт аудио: lossless - Сам фильм
Продолжительность: 00:37:56
Источник: собственный рип
Наличие сканов в содержимом раздачи: да, 600dpi-Доп. инфо: Лимитированное издание, 500 копий
Ссылки: Кинопоиск | IMDB | SoundtrackCollector

Треклист

01. Photos In Envelope [0:00:59.11]
02. Cold Cream [0:01:20.33]
03. John Walks Home [0:02:34.37]
04. John Puts The Photos In Album [0:00:59.42]
05. String Of Red Beads [0:01:27.27]
06. Trying Out Gravesite [0:01:05.02]
07. And The Address? [0:01:01.29]
08. John Gets The Sack [0:00:47.73]
09. Photos Of Young Kelly [0:01:08.20]
10. Snooker Club [0:02:28.55]
11. Hot Chocolate [0:00:47.18]
12. Pork Pie [0:02:01.71]
13. Book Of Dead (Long) [0:02:21.12]
14. Book Of Dead (Short) [0:01:59.12]
15. Going To Find Kelly 1 [0:00:29.53]
16. Going To Find Kelly 2 [0:01:22.43]
17. Train Back After Kelly [0:00:41.17]
18. On Steps With Drunks [0:02:39.65]
19. See You Tomorrow [0:01:30.45]
20. Kelly Leaves On Train - Park - Mugs - Church - Coffin [0:01:13.21]
21. Graveside [0:02:15.09]
22. Ghosts [0:02:20.36]
23. End Titles [0:04:23.03]

Лог создания рипа

Exact Audio Copy V1.0 beta 3 from 29. August 2011
EAC extraction logfile from 26. August 2014, 21:16
Rachel Portman / Still Life
Used drive : PLEXTOR CD-R PX-230A Adapter: 1 ID: 0
Read mode : SecureUtilize accurate stream : YesDefeat audio cache : YesMake use of C2 pointers : No
Read offset correction : 738Overread into Lead-In and Lead-Out : NoFill up missing offset samples with silence : YesDelete leading and trailing silent blocks : NoNull samples used in CRC calculations : YesUsed interface : Native Win32 interface for Win NT & 2000Gap handling : Appended to previous track
Used output format : User Defined EncoderSelected bitrate : 896 kBit/sQuality : HighAdd ID3 tag : NoCommand line compressor : C:\Program Files\Exact Audio Copy\FLAC\FLAC.EXEAdditional command line options : -6 -V -T "ARTIST=%artist%" -T "TITLE=%title%" -T "ALBUM=%albumtitle%" -T "DATE=%year%"-T "TRACKNUMBER=%tracknr%" -T "GENRE=%genre%" -T "COMMENT=%comment%" -T "ALBUMARTIST=%albuminterpret%" -T "COMPOSER=%composer%"-T "DISCNUMBER=%cdnumber%" -T "TOTALDISCS=%totalcds%" -T "TOTALTRACKS=%numtracks%" %source% -o %dest%
TOC of the extracted CD
Track | Start | Length | Start sector | End sector --------------------------------------------------------- 1 | 0:00.00 | 0:59.11 | 0 | 4435 2 | 0:59.11 | 1:20.33 | 4436 | 10468 3 | 2:19.44 | 2:34.37 | 10469 | 22055 4 | 4:54.06 | 0:59.42 | 22056 | 26522 5 | 5:53.48 | 1:27.27 | 26523 | 33074 6 | 7:21.00 | 1:05.02 | 33075 | 37951 7 | 8:26.02 | 1:01.29 | 37952 | 42555 8 | 9:27.31 | 0:47.73 | 42556 | 46153 9 | 10:15.29 | 1:08.20 | 46154 | 51273 10 | 11:23.49 | 2:28.55 | 51274 | 62428 11 | 13:52.29 | 0:47.18 | 62429 | 65971 12 | 14:39.47 | 2:01.71 | 65972 | 75117 13 | 16:41.43 | 2:21.12 | 75118 | 85704 14 | 19:02.55 | 1:59.12 | 85705 | 94641 15 | 21:01.67 | 0:29.53 | 94642 | 96869 16 | 21:31.45 | 1:22.43 | 96870 | 103062 17 | 22:54.13 | 0:41.17 | 103063 | 106154 18 | 23:35.30 | 2:39.65 | 106155 | 118144 19 | 26:15.20 | 1:30.45 | 118145 | 124939 20 | 27:45.65 | 1:13.21 | 124940 | 130435 21 | 28:59.11 | 2:15.09 | 130436 | 140569 22 | 31:14.20 | 2:20.36 | 140570 | 151105 23 | 33:34.56 | 4:23.03 | 151106 | 170833
Track 1
Filename C:\Music\01 - Rachel Portman - Photos In Envelope.wav
Pre-gap length 0:00:02.00
Peak level 40.2 % Extraction speed 2.1 X Track quality 100.0 % Test CRC D75A647A Copy CRC D75A647A Track not present in AccurateRip database Copy OK
Track 2
Filename C:\Music\02 - Rachel Portman - Cold Cream.wav
Peak level 44.7 % Extraction speed 3.0 X Track quality 100.0 % Test CRC F21AE065 Copy CRC F21AE065 Track not present in AccurateRip database Copy OK
Track 3
Filename C:\Music\03 - Rachel Portman - John Walks Home.wav
Peak level 99.5 % Extraction speed 4.2 X Track quality 100.0 % Test CRC EA7250BE Copy CRC EA7250BE Track not present in AccurateRip database Copy OK
Track 4
Filename C:\Music\04 - Rachel Portman - John Puts The Photos In Album.wav
Peak level 45.7 % Extraction speed 4.2 X Track quality 100.0 % Test CRC 5510B2D9 Copy CRC 5510B2D9 Track not present in AccurateRip database Copy OK
Track 5
Filename C:\Music\05 - Rachel Portman - String Of Red Beads.wav
Peak level 90.5 % Extraction speed 3.5 X Track quality 100.0 % Test CRC 61D44B44 Copy CRC 61D44B44 Track not present in AccurateRip database Copy OK
Track 6
Filename C:\Music\06 - Rachel Portman - Trying Out Gravesite.wav
Peak level 65.9 % Extraction speed 3.7 X Track quality 100.0 % Test CRC 58BDB902 Copy CRC 58BDB902 Track not present in AccurateRip database Copy OK
Track 7
Filename C:\Music\07 - Rachel Portman - And The Address.wav
Peak level 51.0 % Extraction speed 3.0 X Track quality 99.8 % Test CRC 6302BCBB Copy CRC 6302BCBB Track not present in AccurateRip database Copy OK
Track 8
Filename C:\Music\08 - Rachel Portman - John Gets The Sack.wav
Peak level 45.1 % Extraction speed 2.9 X Track quality 100.0 % Test CRC 90BEB56A Copy CRC 90BEB56A Track not present in AccurateRip database Copy OK
Track 9
Filename C:\Music\09 - Rachel Portman - Photos Of Young Kelly.wav
Peak level 71.6 % Extraction speed 3.7 X Track quality 100.0 % Test CRC 1773D105 Copy CRC 1773D105 Track not present in AccurateRip database Copy OK
Track 10
Filename C:\Music\10 - Rachel Portman - Snooker Club.wav
Peak level 95.5 % Extraction speed 3.4 X Track quality 99.9 % Test CRC 17F18BF1 Copy CRC 17F18BF1 Track not present in AccurateRip database Copy OK
Track 11
Filename C:\Music\11 - Rachel Portman - Hot Chocolate.wav
Peak level 21.0 % Extraction speed 3.9 X Track quality 100.0 % Test CRC 97C5E523 Copy CRC 97C5E523 Track not present in AccurateRip database Copy OK
Track 12
Filename C:\Music\12 - Rachel Portman - Pork Pie.wav
Peak level 99.6 % Extraction speed 4.5 X Track quality 100.0 % Test CRC 8D9D5F77 Copy CRC 8D9D5F77 Track not present in AccurateRip database Copy OK
Track 13
Filename C:\Music\13 - Rachel Portman - Book Of Dead (Long).wav
Peak level 38.6 % Extraction speed 4.5 X Track quality 100.0 % Test CRC 4C764E98 Copy CRC 4C764E98 Track not present in AccurateRip database Copy OK
Track 14
Filename C:\Music\14 - Rachel Portman - Book Of Dead (Short).wav
Peak level 28.6 % Extraction speed 3.4 X Track quality 99.9 % Test CRC 3D80242B Copy CRC 3D80242B Track not present in AccurateRip database Copy OK
Track 15
Filename C:\Music\15 - Rachel Portman - Going To Find Kelly 1.wav
Peak level 99.3 % Extraction speed 3.2 X Track quality 100.0 % Test CRC B7F89B88 Copy CRC B7F89B88 Track not present in AccurateRip database Copy OK
Track 16
Filename C:\Music\16 - Rachel Portman - Going To Find Kelly 2.wav
Peak level 99.7 % Extraction speed 4.6 X Track quality 100.0 % Test CRC F7F2B1C8 Copy CRC F7F2B1C8 Track not present in AccurateRip database Copy OK
Track 17
Filename C:\Music\17 - Rachel Portman - Train Back After Kelly.wav
Peak level 33.9 % Extraction speed 4.0 X Track quality 100.0 % Test CRC A57981A5 Copy CRC A57981A5 Track not present in AccurateRip database Copy OK
Track 18
Filename C:\Music\18 - Rachel Portman - On Steps With Drunks.wav
Peak level 66.2 % Extraction speed 3.9 X Track quality 100.0 % Test CRC 0084DADD Copy CRC 0084DADD Track not present in AccurateRip database Copy OK
Track 19
Filename C:\Music\19 - Rachel Portman - See You Tomorrow.wav
Peak level 71.8 % Extraction speed 3.7 X Track quality 99.8 % Test CRC E1F6EB3A Copy CRC E1F6EB3A Track not present in AccurateRip database Copy OK
Track 20
Filename C:\Music\20 - Rachel Portman - Kelly Leaves On Train - Park - Mugs - Church - Coffin.wav
Peak level 74.7 % Extraction speed 3.2 X Track quality 100.0 % Test CRC 33C41CEC Copy CRC 33C41CEC Track not present in AccurateRip database Copy OK
Track 21
Filename C:\Music\21 - Rachel Portman - Graveside.wav
Peak level 66.6 % Extraction speed 3.6 X Track quality 99.9 % Test CRC 2FF924CF Copy CRC 2FF924CF Track not present in AccurateRip database Copy OK
Track 22
Filename C:\Music\22 - Rachel Portman - Ghosts.wav
Peak level 71.2 % Extraction speed 5.1 X Track quality 100.0 % Test CRC 20ECB435 Copy CRC 20ECB435 Track not present in AccurateRip database Copy OK
Track 23
Filename C:\Music\23 - Rachel Portman - End Titles.wav
Peak level 99.7 % Extraction speed 4.5 X Track quality 100.0 % Test CRC 13D66040 Copy CRC 13D66040 Track not present in AccurateRip database Copy OK
None of the tracks are present in the AccurateRip database
No errors occurred
End of status report
==== Log checksum BE0F68295B9A95DB343DC3F484A165DFD982C9E471C30411FBDCBD51CF9CB433 ====

Содержание индексной карты (.CUE)

REM GENRE SoundtrackREM DATE 2014REM DISCID 3608E517REM COMMENT "ExactAudioCopy v1.0b3"PERFORMER "Rachel Portman"TITLE "Still Life"FILE "01 - Rachel Portman - Photos In Envelope.wav" WAVE TRACK 01 AUDIO TITLE "Photos In Envelope" PERFORMER "Rachel Portman" INDEX 01 00:00:00FILE "02 - Rachel Portman - Cold Cream.wav" WAVE TRACK 02 AUDIO TITLE "Cold Cream" PERFORMER "Rachel Portman" INDEX 01 00:00:00FILE "03 - Rachel Portman - John Walks Home.wav" WAVE TRACK 03 AUDIO TITLE "John Walks Home" PERFORMER "Rachel Portman" INDEX 01 00:00:00FILE "04 - Rachel Portman - John Puts The Photos In Album.wav" WAVE TRACK 04 AUDIO TITLE "John Puts The Photos In Album" PERFORMER "Rachel Portman" INDEX 01 00:00:00FILE "05 - Rachel Portman - String Of Red Beads.wav" WAVE TRACK 05 AUDIO TITLE "String Of Red Beads" PERFORMER "Rachel Portman" INDEX 01 00:00:00FILE "06 - Rachel Portman - Trying Out Gravesite.wav" WAVE TRACK 06 AUDIO TITLE "Trying Out Gravesite" PERFORMER "Rachel Portman" INDEX 01 00:00:00FILE "07 - Rachel Portman - And The Address.wav" WAVE TRACK 07 AUDIO TITLE "And The Address?" PERFORMER "Rachel Portman" INDEX 01 00:00:00FILE "08 - Rachel Portman - John Gets The Sack.wav" WAVE TRACK 08 AUDIO TITLE "John Gets The Sack" PERFORMER "Rachel Portman" INDEX 01 00:00:00FILE "09 - Rachel Portman - Photos Of Young Kelly.wav" WAVE TRACK 09 AUDIO TITLE "Photos Of Young Kelly" PERFORMER "Rachel Portman" INDEX 01 00:00:00FILE "10 - Rachel Portman - Snooker Club.wav" WAVE TRACK 10 AUDIO TITLE "Snooker Club" PERFORMER "Rachel Portman" INDEX 01 00:00:00FILE "11 - Rachel Portman - Hot Chocolate.wav" WAVE TRACK 11 AUDIO TITLE "Hot Chocolate" PERFORMER "Rachel Portman" INDEX 01 00:00:00FILE "12 - Rachel Portman - Pork Pie.wav" WAVE TRACK 12 AUDIO TITLE "Pork Pie" PERFORMER "Rachel Portman" INDEX 01 00:00:00FILE "13 - Rachel Portman - Book Of Dead (Long).wav" WAVE TRACK 13 AUDIO TITLE "Book Of Dead (Long)" PERFORMER "Rachel Portman" INDEX 01 00:00:00FILE "14 - Rachel Portman - Book Of Dead (Short).wav" WAVE TRACK 14 AUDIO TITLE "Book Of Dead (Short)" PERFORMER "Rachel Portman" INDEX 01 00:00:00FILE "15 - Rachel Portman - Going To Find Kelly 1.wav" WAVE TRACK 15 AUDIO TITLE "Going To Find Kelly 1" PERFORMER "Rachel Portman" INDEX 01 00:00:00FILE "16 - Rachel Portman - Going To Find Kelly 2.wav" WAVE TRACK 16 AUDIO TITLE "Going To Find Kelly 2" PERFORMER "Rachel Portman" INDEX 01 00:00:00FILE "17 - Rachel Portman - Train Back After Kelly.wav" WAVE TRACK 17 AUDIO TITLE "Train Back After Kelly" PERFORMER "Rachel Portman" INDEX 01 00:00:00FILE "18 - Rachel Portman - On Steps With Drunks.wav" WAVE TRACK 18 AUDIO TITLE "On Steps With Drunks" PERFORMER "Rachel Portman" INDEX 01 00:00:00FILE "19 - Rachel Portman - See You Tomorrow.wav" WAVE TRACK 19 AUDIO TITLE "See You Tomorrow" PERFORMER "Rachel Portman" INDEX 01 00:00:00FILE "20 - Rachel Portman - Kelly Leaves On Train - Park - Mugs - Church - Coffin.wav" WAVE TRACK 20 AUDIO TITLE "Kelly Leaves On Train - Park - Mugs - Church - Coffin" PERFORMER "Rachel Portman" INDEX 01 00:00:00FILE "21 - Rachel Portman - Graveside.wav" WAVE TRACK 21 AUDIO TITLE "Graveside" PERFORMER "Rachel Portman" INDEX 01 00:00:00FILE "22 - Rachel Portman - Ghosts.wav" WAVE TRACK 22 AUDIO TITLE "Ghosts" PERFORMER "Rachel Portman" INDEX 01 00:00:00FILE "23 - Rachel Portman - End Titles.wav" WAVE TRACK 23 AUDIO TITLE "End Titles" PERFORMER "Rachel Portman" INDEX 01 00:00:00
[teatrix.ru].t10444.torrent 
Торрент: Зарегистрирован [ 2015-11-01 20:51 ] · 8BD2985A5CF70DFD80E2375E238E83F2E613E750

Скачать .torrent

Скачать

16 KB

Статус: проверено
Скачан: 2 раз
Размер: 175 MB
terms.php



Быстрый ответ

Имя:

      
Для отправки сообщений необходимо включить JavaScript
Показать сообщения:    

Текущее время: 06-Дек 17:03

Часовой пояс: UTC + 3


Вы можете начинать темы
Вы можете отвечать на сообщения
Вы не можете редактировать свои сообщения
Вы не можете удалять свои сообщения
Вы не можете голосовать в опросах
Вы не можете прикреплять файлы к сообщениям
Вы можете скачивать файлы